<?xml version="1.0" standalone="no"?>
<!DOCTYPE svg PUBLIC "-//W3C//DTD SVG 1.1//EN" "http://www.w3.org/Graphics/SVG/1.1/DTD/svg11.dtd" >
<svg xmlns="http://www.w3.org/2000/svg" xmlns:xlink="http://www.w3.org/1999/xlink" version="1.1">
<metadata></metadata>
<defs>
<font id="pilat_compresseddemi" horiz-adv-x="763" >
<font-face units-per-em="2048" ascent="1536" descent="-512" />
<missing-glyph horiz-adv-x="245" />
<glyph horiz-adv-x="0" />
<glyph horiz-adv-x="682" />
<glyph unicode=" "  horiz-adv-x="245" />
<glyph unicode="&#x09;" horiz-adv-x="245" />
<glyph unicode="&#xa0;" horiz-adv-x="245" />
<glyph unicode="!" horiz-adv-x="374" d="M80 0v238h217v-238h-217zM94 799v635h187v-635l-41 -350h-103z" />
<glyph unicode="&#x22;" horiz-adv-x="559" d="M70 870v564h157v-564h-157zM334 870v564h158v-564h-158z" />
<glyph unicode="#" horiz-adv-x="743" d="M12 440v148h135l39 260h-116v147h137l61 439h133l-63 -439h145l64 439h131l-62 -439h115v-147h-135l-39 -260h117v-148h-137l-62 -440h-131l59 440h-145l-59 -440h-133l61 440h-115zM276 584h152l39 268h-154z" />
<glyph unicode="$" horiz-adv-x="743" d="M78 377h186q0 -118 25 -162.5t84 -44.5q56 0 81 39.5t25 122.5v53q0 131 -26 181t-103 69l-67 14q-62 14 -103.5 45.5t-63 81.5t-30 108t-8.5 140v29q0 181 53.5 262.5t171.5 93.5v240h137v-240q120 -12 173 -94t53 -260h-187q0 124 -21.5 166.5t-86.5 42.5 q-60 0 -83.5 -44.5t-23.5 -162.5v-23q0 -113 27 -160.5t102 -64.5l68 -16q117 -25 161 -117t44 -258v-23q0 -179 -55.5 -265.5t-170.5 -104.5v-240h-137v240q-118 14 -171.5 94.5t-53.5 257.5z" />
<glyph unicode="%" horiz-adv-x="1146" d="M57 989v178q0 91 12 148.5t39 87.5t61 40.5t87 10.5h16q54 0 88 -10.5t61.5 -40.5t39.5 -87.5t12 -148.5v-178q0 -72 -8.5 -123t-23.5 -82.5t-41 -49t-55.5 -23.5t-72.5 -6h-16q-53 0 -87 10.5t-61 40t-39 86.5t-12 147zM180 0l651 1434h132l-652 -1434h-131zM207 979 q0 -97 10.5 -125.5t46.5 -28.5q37 0 47.5 28t10.5 126v199q0 99 -10.5 127t-47.5 28q-36 0 -46.5 -28t-10.5 -127v-199zM674 264v178q0 91 12 148.5t38.5 87.5t60.5 40.5t87 10.5h17q42 0 71.5 -6t55.5 -24t41.5 -49.5t24 -83t8.5 -124.5v-178q0 -72 -8.5 -123t-24 -82.5 t-41.5 -49t-55.5 -23.5t-71.5 -6h-17q-42 0 -71 6t-55 23.5t-40.5 49t-23 82.5t-8.5 123zM823 254q0 -95 12 -124.5t46 -29.5q37 0 47 27.5t10 126.5v199q0 100 -10 127.5t-47 27.5q-36 0 -47 -28.5t-11 -126.5v-199z" />
<glyph unicode="&#x26;" horiz-adv-x="884" d="M66 356v15q0 162 29 247t120 158v10q-65 100 -84.5 168.5t-19.5 192.5v12q0 295 282 295h17q81 0 132.5 -17t87.5 -61.5t51 -118.5t15 -190h-184q0 136 -21 182.5t-83 46.5h-7q-58 0 -81 -34.5t-23 -102.5v-10q0 -84 14 -137t62 -129l229 -391l82 344h160l-137 -521 l75 -129q7 -13 15.5 -17.5t25.5 -4.5h19v-164h-51q-66 0 -87 8.5t-40 40.5l-48 80q-38 -80 -97.5 -114.5t-158.5 -34.5h-8q-107 0 -167 32.5t-89.5 114t-29.5 229.5zM248 330q0 -105 28 -149t84 -44h5q52 0 83 32t68 132l-197 336q-42 -33 -56.5 -85t-14.5 -138v-84z" />
<glyph unicode="'" horiz-adv-x="294" d="M70 870v564h157v-564h-157z" />
<glyph unicode="(" horiz-adv-x="501" d="M76 559v131q0 200 19.5 334t65 219.5t110 128.5t163.5 62v-129q-89 -27 -136 -90.5t-68 -191t-21 -357.5v-82q0 -231 21 -359t68 -191.5t136 -88.5v-129q-99 19 -163.5 62t-110 128.5t-65 219t-19.5 333.5z" />
<glyph unicode=")" horiz-adv-x="501" d="M63 -55q88 25 135.5 89t69 192.5t21.5 357.5v82q0 231 -21.5 359t-68.5 190.5t-136 89.5v129q132 -25 207.5 -97.5t113.5 -227t38 -419.5v-131q0 -265 -38 -419.5t-113.5 -226t-207.5 -97.5v129z" />
<glyph unicode="*" horiz-adv-x="823" d="M39 1116l45 135l266 -106l6 4l-12 285h135l-14 -285l6 -4l270 106l43 -135l-274 -80l-2 -6l178 -229l-111 -84l-159 239h-10l-160 -239l-107 84l178 229l-2 6z" />
<glyph unicode="+" horiz-adv-x="790" d="M45 598v152h274v421h152v-421h274v-152h-274v-422h-152v422h-274z" />
<glyph unicode="," horiz-adv-x="331" d="M51 0v238h228v-158q0 -137 -41 -277l-27 -90h-111l74 271v16h-123z" />
<glyph unicode="-" horiz-adv-x="356" d="M25 522v152h307v-152h-307z" />
<glyph unicode="." horiz-adv-x="331" d="M57 0v238h217v-238h-217z" />
<glyph unicode="/" horiz-adv-x="696" d="M0 -205l569 1639h127l-569 -1639h-127z" />
<glyph unicode="0" horiz-adv-x="745" d="M76 430v574q0 139 15 226t51.5 137t88.5 68.5t134 18.5h18q65 0 109.5 -11.5t80.5 -40.5t56 -80.5t30.5 -129t10.5 -188.5v-574q0 -111 -10.5 -188.5t-30.5 -129t-56 -80.5t-80.5 -40.5t-109.5 -11.5h-18q-82 0 -134 18.5t-88.5 68.5t-51.5 137t-15 226zM262 408 q0 -167 21.5 -219t89.5 -52t89 52t21 219v616q0 114 -10.5 171.5t-33 79t-66.5 21.5q-47 0 -69.5 -22t-32 -78t-9.5 -172v-616z" />
<glyph unicode="1" horiz-adv-x="532" d="M49 1167v187l180 80h217v-1434h-184v1262h-10z" />
<glyph unicode="2" horiz-adv-x="745" d="M86 0v203q0 161 26.5 240t116.5 184l158 186q68 80 87.5 132.5t19.5 158.5v16q0 98 -24 137t-89 39q-43 0 -65 -18t-33 -70t-11 -155h-186q0 99 11 168.5t31.5 115t56.5 71.5t80 36t108 10h18q157 0 223 -74t66 -245v-19q0 -145 -27.5 -220t-120.5 -183l-165 -195 q-60 -72 -77.5 -130.5t-17.5 -188.5v-35h408v-164h-594z" />
<glyph unicode="3" horiz-adv-x="745" d="M76 397h186q0 -112 11 -167.5t33 -74t67 -18.5q66 0 88 46.5t22 181.5v61q0 143 -20.5 185t-93.5 42h-78v172h78q73 0 93.5 41.5t20.5 180.5v49q0 117 -22.5 158.5t-87.5 41.5q-44 0 -66.5 -18t-33.5 -69t-11 -152h-186q0 152 30.5 239t91.5 122.5t167 35.5h18 q156 0 221 -74q66 -75 66 -268v-31q0 -148 -32.5 -222t-98.5 -95v-8q69 -14 100 -85.5t31 -226.5v-53q0 -125 -15 -204.5t-51.5 -125.5t-88 -63.5t-132.5 -17.5h-18q-80 0 -132 18t-89 64.5t-52.5 127.5t-15.5 207z" />
<glyph unicode="4" horiz-adv-x="745" d="M33 377v196l336 861h256v-895h110v-162h-110v-377h-187v377h-405zM184 539h254v641h-8l-246 -631v-10z" />
<glyph unicode="5" horiz-adv-x="745" d="M76 377h186q0 -146 23 -193t88 -47q68 0 89 52t21 219v137q0 116 -9.5 172t-31.5 77t-67 21q-39 0 -72 -33q-34 -34 -49 -153h-164l37 805h537v-164h-365l-25 -410h9q21 56 57.5 84.5t105.5 28.5q56 0 94.5 -16.5t69 -58.5t45.5 -120t15 -194v-154q0 -111 -10.5 -188.5 t-30.5 -129t-56 -80.5t-80.5 -40.5t-109.5 -11.5h-18q-156 0 -224 86q-65 89 -65 311z" />
<glyph unicode="6" horiz-adv-x="745" d="M76 430v574q0 139 15 226t51.5 137t88.5 68.5t134 18.5h18q150 0 218.5 -83t68.5 -292h-187q0 125 -24.5 171t-85.5 46q-47 0 -69.5 -22t-32 -78t-9.5 -172v-213h8q45 100 166 100q88 0 137 -34.5t73 -123.5t24 -253v-70q0 -111 -10.5 -188.5t-30.5 -129t-56 -80.5 t-80.5 -40.5t-109.5 -11.5h-18q-82 0 -134 18.5t-88.5 68.5t-51.5 137t-15 226zM262 408q0 -167 21.5 -219t89.5 -52t89 52t21 219v90q0 114 -10.5 172t-33 79t-66.5 21q-47 0 -69.5 -21.5t-32 -77.5t-9.5 -173v-90z" />
<glyph unicode="7" horiz-adv-x="745" d="M51 1270v164h660v-162l-383 -1272h-199l383 1257v13h-461z" />
<glyph unicode="8" horiz-adv-x="745" d="M76 379v22q0 176 27.5 257t91.5 108v8q-63 29 -91 102.5t-28 208.5v25q0 183 67 263.5t222 80.5h18q155 0 221 -80t66 -264v-25q0 -136 -28 -209t-93 -102v-8q67 -26 94 -107t27 -258v-22q0 -225 -64.5 -312t-222.5 -87h-21q-158 0 -222 86.5t-64 312.5zM262 350 q0 -125 22.5 -169t88.5 -44t88 44t22 169v105q0 141 -22 189t-84 48h-6q-64 0 -86.5 -48t-22.5 -189v-105zM262 1061q0 -132 21 -176.5t88 -44.5h6q66 0 86 44t20 177v29q0 120 -22.5 163t-87.5 43t-88 -43t-23 -163v-29z" />
<glyph unicode="9" horiz-adv-x="745" d="M74 352h186q0 -125 25 -171t86 -46q46 0 68.5 22t32 79t9.5 172v213h-8q-50 -101 -166 -101q-89 0 -138 35t-72 123.5t-23 253.5v69q0 184 29.5 282t88.5 133.5t168 35.5h19q110 0 169.5 -35.5t89.5 -133.5t30 -282v-573q0 -184 -30 -282t-89.5 -133.5t-169.5 -35.5h-19 q-99 0 -159.5 33.5t-93.5 117t-33 224.5zM260 934q0 -117 10 -173.5t32.5 -77.5t68.5 -21t68.5 21t32 77.5t9.5 173.5v90q0 113 -9.5 169.5t-32 78.5t-68.5 22q-67 0 -89 -53t-22 -217v-90z" />
<glyph unicode=":" horiz-adv-x="331" d="M57 0v238h217v-238h-217zM57 846v237h217v-237h-217z" />
<glyph unicode=";" horiz-adv-x="331" d="M51 0v238h228v-158q0 -137 -41 -277l-27 -90h-111l74 271v16h-123zM57 846v237h217v-237h-217z" />
<glyph unicode="&#x3c;" horiz-adv-x="790" d="M31 600v145l729 342v-159l-543 -250v-12l543 -248v-160z" />
<glyph unicode="=" horiz-adv-x="790" d="M45 360v150h700v-150h-700zM45 838v149h700v-149h-700z" />
<glyph unicode="&#x3e;" horiz-adv-x="790" d="M31 258v160l542 250v12l-542 248v159l729 -342v-145z" />
<glyph unicode="?" horiz-adv-x="698" d="M51 1016q0 139 17 227t56 134t88 61.5t128 15.5h18q155 0 221 -74t66 -245v-19q0 -150 -25 -221t-114 -166q-70 -76 -89.5 -124.5t-19.5 -155.5h-166v65q0 108 23 165.5t104 141.5q66 72 84.5 121t18.5 162v16q0 98 -24 137t-89 39q-46 0 -67 -18t-32 -77.5t-11 -184.5 h-187zM207 0v238h217v-238h-217z" />
<glyph unicode="@" horiz-adv-x="1370" d="M80 420v67q0 429 171.5 671.5t477.5 242.5q133 0 234 -37.5t177 -118t115 -217t39 -326.5v-34q0 -140 -18 -252.5t-55 -200t-100 -135t-148 -47.5q-174 0 -180 164h-9q-43 -127 -178 -127h-10q-48 0 -83.5 11.5t-65.5 39.5t-44 75t-19 119t9 172l10 88q18 159 53 250 t83.5 124.5t122.5 33.5h10q79 0 120.5 -31.5t53.5 -93.5h8l12 109h158l-78 -670q-10 -84 5 -118t63 -34q82 0 127 131t45 394v37q0 168 -32.5 286.5t-95 185.5t-143.5 96.5t-188 29.5q-169 0 -292.5 -106t-185 -290t-61.5 -424v-73q0 -321 139.5 -477t403.5 -156 q109 0 232 45v-94q-38 -18 -104 -31.5t-134 -13.5q-315 0 -480 176.5t-165 558.5zM556.5 347q-0.5 -38 5.5 -62t14 -39.5t22 -22.5t26 -9.5t29 -2.5q38 0 60.5 14t41.5 66.5t29 152.5l21 172q6 51 6.5 89.5t-5.5 62.5t-14.5 39.5t-22.5 22.5t-26 9.5t-30 2.5q-27 0 -45 -7.5 t-34.5 -31.5t-28.5 -71.5t-21 -123.5l-21 -172q-6 -51 -6.5 -89z" />
<glyph unicode="A" horiz-adv-x="800" d="M35 0l223 1434h285l223 -1434h-201l-43 326h-248l-43 -326h-196zM299 498h201l-97 706h-10z" />
<glyph unicode="B" horiz-adv-x="776" d="M86 0v1434h274q61 0 102.5 -4.5t82.5 -18t66.5 -39.5t46 -67t29.5 -102.5t9 -145.5v-8q0 -95 -18 -158t-48.5 -95t-76.5 -46v-9q63 -20 104 -92q39 -68 39 -241v-33q0 -84 -9 -145t-29.5 -102.5t-46 -67t-67 -38.5t-82.5 -17.5t-102 -4.5h-274zM279 164h73q44 0 67.5 5.5 t45 27t29.5 67t8 121.5v53q0 76 -8 121.5t-29.5 67t-45 27t-67.5 5.5h-73v-495zM279 817h73q44 0 67.5 5.5t45 26.5t29.5 66.5t8 122.5v9q0 77 -8 122.5t-29.5 66.5t-45 26.5t-67.5 5.5h-73v-451z" />
<glyph unicode="C" d="M76 442v549q0 184 31 285t92.5 139.5t171.5 38.5h22q107 0 169 -38.5t94 -139.5t32 -283h-194q0 122 -10.5 185t-33 86.5t-65.5 23.5h-6q-45 0 -67 -21.5t-32 -79.5t-10 -175v-592q0 -118 10 -176.5t32 -79.5t67 -21h6q43 0 65.5 23.5t33 87t10.5 186.5h194 q0 -137 -16.5 -226.5t-54.5 -141t-91 -72t-133 -20.5h-22q-111 0 -172 37t-92 138t-31 287z" />
<glyph unicode="D" horiz-adv-x="772" d="M86 0v1434h303q110 0 173 -38.5t95.5 -140t32.5 -284.5v-508q0 -186 -32.5 -287.5t-95 -138.5t-173.5 -37h-303zM279 164h104q45 0 68 20.5t35 80t12 175.5v551q0 115 -12 175t-35.5 81t-67.5 21h-104v-1104z" />
<glyph unicode="E" horiz-adv-x="614" d="M86 0v1434h465v-174h-272v-455h272v-174h-272v-459h272v-172h-465z" />
<glyph unicode="F" horiz-adv-x="608" d="M86 0v1434h465v-174h-272v-455h272v-172h-272v-633h-193z" />
<glyph unicode="G" d="M76 442v549q0 144 15.5 234.5t53.5 141.5t90 69t136 18h22q158 0 226.5 -92t68.5 -326h-194q0 143 -23 197.5t-86 54.5h-6q-45 0 -67 -21.5t-32 -79.5t-10 -175v-592q0 -118 10 -176.5t32 -79.5t67 -21h6q44 0 66 21t32.5 80t10.5 178v203h-117v174h311v-357 q0 -144 -16 -234.5t-54.5 -141t-90.5 -68.5t-134 -18h-22q-84 0 -136 18t-90 68.5t-53.5 141t-15.5 234.5z" />
<glyph unicode="H" horiz-adv-x="796" d="M86 0v1434h193v-629h239v629h195v-1434h-195v631h-239v-631h-193z" />
<glyph unicode="I" horiz-adv-x="364" d="M86 0v1434h193v-1434h-193z" />
<glyph unicode="J" horiz-adv-x="505" d="M18 0v172h48q36 0 58 2t42.5 10.5t31 22.5t19 40t11.5 61.5t3 88.5v1037h193v-1035q0 -94 -6 -158t-23.5 -109.5t-38.5 -70.5t-62 -39t-82 -18t-110 -4h-84z" />
<glyph unicode="K" horiz-adv-x="782" d="M86 0v1434h193v-654h8l264 654h205l-256 -578l262 -856h-211l-184 625h-9l-79 -191v-434h-193z" />
<glyph unicode="L" horiz-adv-x="530" d="M86 0v1434h193v-1262h237v-172h-430z" />
<glyph unicode="M" horiz-adv-x="1101" d="M86 0v1434h317l150 -973h10l148 973h305v-1434h-187v1178h-10l-190 -1178h-156l-192 1178h-11v-1178h-184z" />
<glyph unicode="N" horiz-adv-x="841" d="M86 0v1434h242l245 -1016h9v1016h174v-1434h-242l-246 1016h-8v-1016h-174z" />
<glyph unicode="O" d="M76 442v549q0 144 15.5 234.5t53.5 141.5t90 69t136 18h22q66 0 111 -11.5t82 -40.5t58 -81.5t32.5 -133t11.5 -196.5v-549q0 -144 -16 -234.5t-54.5 -141t-90.5 -68.5t-134 -18h-22q-84 0 -136 18t-90 68.5t-53.5 141t-15.5 234.5zM270 420q0 -118 10 -176.5t32 -79.5 t67 -21h6q44 0 66 21t32.5 79.5t10.5 176.5v592q0 117 -10.5 175.5t-32.5 79.5t-66 21h-6q-45 0 -67 -21.5t-32 -79.5t-10 -175v-592z" />
<glyph unicode="P" horiz-adv-x="761" d="M86 0v1434h274q53 0 88.5 -3t74 -12.5t63 -28t47.5 -49t35.5 -75t20 -107.5t7.5 -145v-80q0 -82 -7.5 -145t-20 -107.5t-35.5 -75t-47.5 -49t-63 -28t-74 -12.5t-88.5 -3h-81v-514h-193zM279 674h73q43 0 67 6.5t45.5 31t29.5 74.5t8 134v106q0 84 -8 133.5t-29.5 73 t-45 29.5t-67.5 6h-73v-594z" />
<glyph unicode="Q" d="M76 463v528q0 144 15.5 234.5t53.5 141.5t90 69t136 18h22q66 0 111 -11.5t82 -40.5t58 -81.5t32.5 -133t11.5 -196.5v-448q0 -108 -8 -176.5t-27.5 -105t-37.5 -51.5t-52 -30v-8h150v-172h-342q-84 0 -136 18t-90 69t-53.5 141.5t-15.5 234.5zM270 440q0 -118 10 -176 t32 -79t67 -21h6q44 0 66 20.5t32.5 79t10.5 176.5v572q0 117 -10.5 175.5t-32.5 79.5t-66 21h-6q-45 0 -67 -21.5t-32 -79.5t-10 -175v-572z" />
<glyph unicode="R" horiz-adv-x="776" d="M86 0v1434h274q61 0 102.5 -4.5t82.5 -18t66.5 -39.5t46 -67t29.5 -102.5t9 -145.5v-27q0 -88 -9.5 -147t-30.5 -93t-44 -50.5t-59 -28.5v-9q39 -12 61.5 -27.5t43 -49.5t29.5 -94t9 -154v-377h-194v399q0 61 -6.5 102.5t-16 65t-29.5 36t-39.5 15.5t-52.5 3h-79v-621 h-193zM279 776h73q35 0 55.5 3.5t41 15.5t30.5 36t16.5 65t6.5 103v48q0 77 -8 122.5t-29.5 66.5t-45 26.5t-67.5 5.5h-73v-492z" />
<glyph unicode="S" horiz-adv-x="696" d="M53 367h193q0 -133 21 -178.5t81 -45.5q58 0 80.5 44.5t22.5 166.5v39q0 125 -21.5 171.5t-93.5 64.5l-66 14q-86 21 -131.5 61.5t-65.5 116.5t-20 211v35q0 114 16 188.5t52.5 118.5t88 62t128.5 18h20q106 0 165.5 -32.5t89.5 -118.5t30 -244h-192q0 142 -18.5 185.5 t-84.5 43.5q-60 0 -81 -43.5t-21 -167.5v-30q0 -126 21.5 -172.5t94.5 -63.5l64 -14q128 -27 172.5 -109.5t44.5 -279.5v-43q0 -149 -31.5 -234t-91.5 -118t-162 -33h-20q-100 0 -160.5 34t-92.5 119.5t-32 233.5z" />
<glyph unicode="T" horiz-adv-x="614" d="M12 1260v174h590v-174h-201v-1260h-194v1260h-195z" />
<glyph unicode="U" horiz-adv-x="765" d="M80 442v992h194v-996q0 -118 10 -176t32 -80t67 -22h6q44 0 66 21.5t32.5 80.5t10.5 176v996h194v-992q0 -144 -16 -234.5t-54.5 -141t-90.5 -68.5t-134 -18h-22q-84 0 -136 18t-90 68.5t-53.5 141t-15.5 234.5z" />
<glyph unicode="V" horiz-adv-x="800" d="M35 1434h201l161 -1207h11l161 1207h197l-223 -1434h-285z" />
<glyph unicode="W" horiz-adv-x="1210" d="M35 1434h196l105 -1186h10l156 1186h209l153 -1186h8l111 1186h193l-168 -1434h-267l-133 1016l-135 -1016h-272z" />
<glyph unicode="X" horiz-adv-x="786" d="M43 0l217 731l-211 703h203l141 -537h8l144 537h192l-211 -701l219 -733h-204l-148 567h-8l-147 -567h-195z" />
<glyph unicode="Y" horiz-adv-x="745" d="M23 1434h200l152 -633h8l152 633h188l-254 -869v-565h-195v559z" />
<glyph unicode="Z" horiz-adv-x="634" d="M47 0v170l338 1090h-330v174h533v-172l-338 -1090h348v-172h-551z" />
<glyph unicode="[" horiz-adv-x="546" d="M182 -184v1618h299v-113h-168v-1393h168v-112h-299z" />
<glyph unicode="\" horiz-adv-x="696" d="M0 1434h127l569 -1639h-127z" />
<glyph unicode="]" horiz-adv-x="546" d="M66 -72h167v1393h-167v113h299v-1618h-299v112z" />
<glyph unicode="^" horiz-adv-x="905" d="M23 541l372 893h115l373 -893h-168l-260 639h-6l-259 -639h-167z" />
<glyph unicode="_" horiz-adv-x="712" d="M0 -135h713v-109h-713v109z" />
<glyph unicode="`" horiz-adv-x="1024" d="M375 1434h172l100 -246h-131z" />
<glyph unicode="a" horiz-adv-x="694" d="M53 307v17q0 153 55 225.5t185 85.5l156 16v115q0 87 -9.5 128t-30 55t-65.5 14q-55 0 -78.5 -37t-23.5 -154h-172q0 192 67 262q69 72 207 72h8q103 0 160.5 -28t86 -99.5t28.5 -202.5v-776h-170v139h-8q-23 -85 -69 -122t-122 -37q-115 0 -160 73.5t-45 253.5zM229 299 q0 -102 19.5 -140t70.5 -38q68 0 99 56t31 190v153l-105 -10q-65 -7 -90 -49.5t-25 -128.5v-33z" />
<glyph unicode="b" horiz-adv-x="702" d="M72 0v1434h178v-441h8q18 61 52.5 87t105.5 26h6q54 0 89.5 -14t65.5 -53t44 -115t14 -193v-379q0 -94 -10 -161t-27.5 -107.5t-45.5 -64t-58 -31.5t-72 -8h-6q-71 0 -105.5 25.5t-52.5 86.5h-8v-92h-178zM250 395q0 -123 10.5 -179.5t29 -70.5t62.5 -14q28 0 42.5 3.5 t29 17t21 42.5t10.5 77t4 124v295q0 75 -4 122.5t-10.5 76.5t-21 42.5t-29 17t-42.5 3.5q-44 0 -62.5 -13.5t-29 -69.5t-10.5 -179v-295z" />
<glyph unicode="c" horiz-adv-x="673" d="M68 371v342q0 159 28.5 244.5t85.5 117t160 31.5h14q77 0 125 -15.5t81 -57t47.5 -110t17.5 -178.5h-174q-2 91 -12.5 134.5t-30 58t-60.5 14.5q-27 0 -41.5 -3.5t-29 -17t-21 -42t-10.5 -76.5t-4 -123v-295q0 -75 4 -123.5t10.5 -77.5t21 -42.5t29 -17t41.5 -3.5 q41 0 60.5 14.5t30 58.5t12.5 136h174q-4 -146 -31.5 -223t-82.5 -107t-157 -30h-20q-59 0 -100.5 10t-75 35t-53 69.5t-29.5 112t-10 164.5z" />
<glyph unicode="d" horiz-adv-x="702" d="M68 352v379q0 117 14 193t44 115t65.5 53t89.5 14h6q71 0 107 -26.5t50 -86.5h9v441h178v-1434h-178v92h-9q-14 -60 -49.5 -86t-107.5 -26h-6q-41 0 -71 8t-58.5 31.5t-45.5 64t-27.5 107.5t-10.5 161zM244 395q0 -75 4 -123.5t10.5 -77.5t21 -42.5t29 -17t41.5 -3.5 q44 0 63 14t29.5 70.5t10.5 179.5v295q0 94 -4.5 146t-18.5 78t-30.5 32t-49.5 6q-27 0 -41.5 -3.5t-29 -17t-21 -42t-10.5 -76.5t-4 -123v-295z" />
<glyph unicode="e" horiz-adv-x="696" d="M68 371v342q0 159 28.5 244.5t85.5 117t160 31.5h14q103 0 160 -31.5t86 -117t29 -244.5v-209h-387v-109q0 -75 4 -123.5t10.5 -77.5t21 -42.5t29 -17t41.5 -3.5q58 0 80 35.5t23 148.5h178q-6 -189 -66.5 -262t-204.5 -73h-24q-59 0 -100.5 10t-75 35t-53 69.5 t-29.5 112t-10 164.5zM244 633h209v65q0 124 -10.5 180.5t-29.5 70.5t-63 14t-63.5 -13.5t-31 -71t-11.5 -180.5v-65z" />
<glyph unicode="f" horiz-adv-x="446" d="M0 932v153h109v121q0 124 58 176t198 52h65v-156h-41q-57 0 -79.5 -21.5t-22.5 -82.5v-89h143v-153h-143v-932h-178v932h-109z" />
<glyph unicode="g" horiz-adv-x="714" d="M68 -100h176q7 -62 28.5 -84.5t71.5 -22.5q45 0 67 21t32 76t10 167v74h-9q-14 -58 -50.5 -85.5t-106.5 -27.5h-6q-41 0 -71 8t-58.5 31.5t-45.5 64t-27.5 108t-10.5 161.5v340q0 117 14 193t44 115t65.5 53t89.5 14h6q71 0 107 -26.5t50 -86.5h9v92h178v-1019 q0 -166 -27.5 -255t-85.5 -124t-164 -35h-14q-126 0 -189.5 57t-82.5 191zM244 436q0 -93 5 -146t19.5 -80t31.5 -33.5t50 -6.5q44 0 63 14.5t29.5 71.5t10.5 180v254q0 94 -4.5 146t-18.5 78t-30.5 32t-49.5 6q-27 0 -41.5 -3.5t-29 -17t-21 -42t-10.5 -76.5t-4 -123v-254z " />
<glyph unicode="h" horiz-adv-x="704" d="M72 0v1434h176v-480h8q20 79 62.5 115.5t115.5 36.5q104 0 152.5 -56.5t48.5 -185.5v-864h-178v805q0 84 -20 111.5t-72 27.5q-117 0 -117 -172v-772h-176z" />
<glyph unicode="i" horiz-adv-x="319" d="M72 0v1085h176v-1085h-176zM72 1241v193h176v-193h-176z" />
<glyph unicode="j" horiz-adv-x="319" d="M10 -348q32 66 47 166t15 272v995h176v-1079q0 -222 -60 -354h-178zM72 1241v193h176v-193h-176z" />
<glyph unicode="k" horiz-adv-x="708" d="M72 0v1434h176v-852h8l244 503h184l-229 -413l239 -672h-192l-158 451h-8l-88 -166v-285h-176z" />
<glyph unicode="l" horiz-adv-x="319" d="M72 0v1434h176v-1434h-176z" />
<glyph unicode="m" horiz-adv-x="1089" d="M72 0v1085h176v-131h8q20 79 62.5 115.5t115.5 36.5q87 0 134.5 -37.5t60.5 -122.5h6q30 160 186 160q102 0 151.5 -57t49.5 -185v-864h-178v805q0 84 -21 111.5t-73 27.5q-115 0 -115 -170v-774h-178v805q0 84 -20 111.5t-72 27.5q-117 0 -117 -172v-772h-176z" />
<glyph unicode="n" horiz-adv-x="704" d="M72 0v1085h176v-131h8q20 79 62.5 115.5t115.5 36.5q104 0 152.5 -56.5t48.5 -185.5v-864h-178v805q0 84 -20 111.5t-72 27.5q-117 0 -117 -172v-772h-176z" />
<glyph unicode="o" horiz-adv-x="698" d="M68 371v342q0 159 28.5 244.5t85.5 117t160 31.5h14q103 0 160 -31.5t86 -117t29 -244.5v-342q0 -121 -14.5 -197t-49.5 -119t-84 -59t-127 -16h-14q-62 0 -104.5 10t-76.5 35t-53.5 69.5t-29.5 112t-10 164.5zM244 395q0 -75 4 -123.5t10.5 -77.5t21 -42.5t29 -17 t41.5 -3.5q33 0 49.5 6t30.5 32.5t18.5 79t4.5 146.5v295q0 94 -4.5 146t-18.5 78t-30.5 32t-49.5 6q-27 0 -41.5 -3.5t-29 -17t-21 -42t-10.5 -76.5t-4 -123v-295z" />
<glyph unicode="p" horiz-adv-x="702" d="M72 -348v1433h178v-92h8q18 61 52.5 87t105.5 26h6q42 0 72 -8t58 -31.5t45.5 -64t27.5 -108t10 -161.5v-379q0 -118 -14 -194t-44 -114.5t-65.5 -52t-89.5 -13.5h-6q-71 0 -105.5 25.5t-52.5 86.5h-8v-440h-178zM250 395q0 -123 10.5 -179t29 -69.5t62.5 -13.5 q28 0 42.5 3.5t29 17t21 42.5t10.5 76.5t4 122.5v295q0 76 -4 124t-10.5 77t-21 42.5t-29 17t-42.5 3.5q-44 0 -62.5 -14t-29 -70.5t-10.5 -179.5v-295z" />
<glyph unicode="q" horiz-adv-x="702" d="M68 354v379q0 94 10.5 161.5t27.5 108t45.5 64t58.5 31.5t71 8h6q71 0 107 -26.5t50 -86.5h9v92h178v-1433h-178v440h-9q-14 -60 -49.5 -86t-107.5 -26h-6q-54 0 -89.5 13.5t-65.5 52t-44 114.5t-14 194zM244 395q0 -75 4 -123t10.5 -76.5t21 -42t29 -17t41.5 -3.5 q33 0 49.5 6t30.5 32t18.5 78t4.5 146v295q0 123 -10.5 179.5t-29.5 70.5t-63 14q-27 0 -41.5 -3.5t-29 -17t-21 -42.5t-10.5 -77.5t-4 -123.5v-295z" />
<glyph unicode="r" horiz-adv-x="460" d="M72 0v1085h176v-135h8q14 70 50.5 102.5t117.5 32.5h22v-198h-24q-73 0 -107.5 -13.5t-50.5 -55.5t-16 -130v-688h-176z" />
<glyph unicode="s" horiz-adv-x="681" d="M66 283h178q0 -98 22 -130t76 -32q56 0 77 39.5t21 140.5v14q0 73 -18 105t-82 45l-64 16q-119 28 -164.5 94t-45.5 218v14q0 149 62 224t208 75h14q143 0 203.5 -72t60.5 -231h-174q0 96 -22 128t-76 32q-56 0 -77 -36t-21 -128v-13q0 -73 18.5 -104t83.5 -47l62 -14 q119 -28 164.5 -94t45.5 -218v-18q0 -156 -62 -233.5t-206 -77.5h-14q-146 0 -208 73.5t-62 229.5z" />
<glyph unicode="t" horiz-adv-x="471" d="M0 932v153h109v349h178v-349h147v-153h-147v-621q0 -97 20 -124t88 -27h39v-160h-78q-82 0 -129.5 12.5t-74.5 49t-35 87.5t-8 142v641h-109z" />
<glyph unicode="u" horiz-adv-x="704" d="M70 221v864h178v-804q0 -85 20 -112.5t72 -27.5q117 0 117 172v772h176v-1085h-176v131h-8q-20 -78 -63 -114.5t-116 -36.5q-104 0 -152 56t-48 185z" />
<glyph unicode="v" horiz-adv-x="671" d="M12 1085h181l143 -886h8l145 886h173l-211 -1085h-228z" />
<glyph unicode="w" horiz-adv-x="1007" d="M14 1085h164l107 -833h8l139 833h156l137 -833h8l103 833h157l-149 -1085h-199l-137 774l-139 -774h-207z" />
<glyph unicode="x" horiz-adv-x="641" d="M10 0l189 557l-176 528h176l118 -397h9l120 397h168l-174 -524l191 -561h-176l-136 438h-8l-133 -438h-168z" />
<glyph unicode="y" horiz-adv-x="655" d="M12 1085h181l126 -833h9l159 833h175l-334 -1433h-174l71 299z" />
<glyph unicode="z" horiz-adv-x="559" d="M37 0v147l303 785h-297v153h479v-149l-301 -784h309v-152h-493z" />
<glyph unicode="{" horiz-adv-x="600" d="M55 545v160q61 6 94 15.5t53 32.5t25.5 54.5t5.5 89.5v207q0 130 30.5 202t91.5 100t169 28h11v-113h-17q-42 0 -67.5 -8t-46.5 -33.5t-30 -75.5t-9 -131v-221q0 -114 -37 -161.5t-156 -61.5v-8q119 -14 156 -62.5t37 -161.5v-221q0 -81 9 -131t30 -75.5t46.5 -33.5 t67.5 -8h17v-112h-11q-81 0 -133.5 14.5t-89 51.5t-52.5 100.5t-16 162.5v207q0 111 -31.5 146t-146.5 47z" />
<glyph unicode="|" horiz-adv-x="526" d="M205 -205v1639h117v-1639h-117z" />
<glyph unicode="}" horiz-adv-x="600" d="M66 -72h16q41 0 66.5 8t47 33.5t31 75.5t9.5 131v221q0 58 6.5 92.5t26.5 64t58 45t101 22.5v8q-63 7 -101 22t-58 44t-26.5 64t-6.5 93v221q0 81 -9.5 131t-31 75.5t-47 33.5t-66.5 8h-16v113h10q108 0 169 -28t91.5 -100t30.5 -202v-207q0 -58 5.5 -89.5t25.5 -54.5 t53 -32.5t94 -15.5v-160q-115 -12 -146.5 -47t-31.5 -146v-207q0 -99 -16 -162.5t-52.5 -100.5t-89 -51.5t-133.5 -14.5h-10v112z" />
<glyph unicode="~" horiz-adv-x="790" d="M45 539v172q70 106 186 106q48 0 94.5 -21t77.5 -46.5t74.5 -46.5t85.5 -21q56 0 103.5 37t76.5 92v-172q-29 -44 -76.5 -76.5t-109.5 -32.5q-39 0 -76.5 14t-66.5 34t-57.5 40t-62.5 34t-69 14q-105 0 -180 -127z" />
<glyph unicode="&#xa1;" horiz-adv-x="374" d="M78 848v237h217v-237h-217zM94 287l41 350h103l43 -350v-635h-187v635z" />
<glyph unicode="&#xa2;" horiz-adv-x="694" d="M68 371v342q0 211 48 295t165 96v196h137v-196q111 -12 157 -90.5t52 -268.5h-174q-2 91 -12.5 134.5t-30 58t-60.5 14.5q-27 0 -41.5 -3.5t-29 -17t-21 -42t-10.5 -76.5t-4 -123v-295q0 -75 4 -123.5t10.5 -77.5t21 -42.5t29 -17t41.5 -3.5q41 0 60.5 14.5t30 58.5 t12.5 136h174q-6 -190 -52 -268t-157 -90v-197h-137v197q-115 9 -164 94.5t-49 294.5z" />
<glyph unicode="&#xa3;" horiz-adv-x="743" d="M23 0v164h94v489h-94v129h94v232q0 134 15 219t50.5 134.5t85.5 68t129 18.5h15q152 0 210 -88.5t58 -310.5h-164q0 145 -22 193t-84 48q-67 0 -88 -50.5t-21 -213.5v-250h250v-129h-250v-489h379v-164h-657z" />
<glyph unicode="&#xa4;" horiz-adv-x="790" d="M16 266l158 223q-53 65 -53 185q0 119 53 184l-158 221l125 88l166 -235q31 8 88 8t88 -8l166 235l125 -88l-158 -221q52 -68 52 -184q0 -120 -52 -185l158 -223l-125 -88l-166 238q-34 -10 -88 -10t-88 10l-166 -238zM254 674q0 -77 32.5 -113.5t108.5 -36.5 q74 0 107 37t33 113t-33 111.5t-107 35.5q-76 0 -108.5 -35t-32.5 -112z" />
<glyph unicode="&#xa5;" horiz-adv-x="743" d="M33 1434h190l150 -617h6l153 617h179l-150 -512h131v-127h-168l-45 -156h213v-121h-229v-518h-187v518h-225v121h209l-45 156h-164v127h129z" />
<glyph unicode="&#xa6;" horiz-adv-x="526" d="M205 -205v594h117v-594h-117zM205 840v594h117v-594h-117z" />
<glyph unicode="&#xa7;" horiz-adv-x="649" d="M78 8h160q0 -95 10.5 -143.5t27 -62t48.5 -13.5q33 0 50 13.5t27.5 59.5t10.5 136v51q0 102 -24 136.5t-87 39.5l-51 4q-94 7 -133 72t-39 213v18q0 120 21 168.5t77 67.5v8q-55 23 -76.5 88t-21.5 191v47q0 202 52 277t181 75h25q86 0 135 -30t74.5 -108.5t25.5 -217.5 h-159q0 95 -10.5 143.5t-27.5 62t-50 13.5q-32 0 -48.5 -13.5t-27 -60t-10.5 -135.5v-51q0 -103 22.5 -136.5t87.5 -39.5l49 -7q97 -11 135.5 -73t38.5 -209v-21q0 -121 -22 -170q-19 -43 -78 -65v-8q57 -19 78.5 -84.5t21.5 -194.5v-47q0 -137 -24 -213t-73.5 -106.5 t-137.5 -30.5h-25q-86 0 -135 30.5t-73.5 108t-24.5 217.5zM233 530q0 -100 17 -131.5t74 -31.5q56 0 74 32t18 131v43q0 100 -18.5 133t-73.5 33q-56 0 -73.5 -32.5t-17.5 -133.5v-43z" />
<glyph unicode="&#xa8;" horiz-adv-x="1024" d="M289 1214v185h166v-185h-166zM569 1214v185h164v-185h-164z" />
<glyph unicode="&#xa9;" horiz-adv-x="1116" d="M41 543v348q0 563 477 563h80q477 0 477 -563v-348q0 -563 -477 -563h-80q-477 0 -477 563zM123 586q0 -135 20 -230.5t67 -166t127.5 -104.5t197.5 -34h47q118 0 198.5 34t127 104.5t66 166t19.5 230.5v262q0 135 -19.5 230t-66 165.5t-127 104.5t-198.5 34h-47 q-117 0 -197.5 -34t-127.5 -104t-67 -165.5t-20 -230.5v-262zM338 586v260q0 181 46.5 247t166.5 66h20q115 0 164.5 -63t50.5 -224v-14h-151v31q-4 86 -18 114.5t-50 28.5h-8q-40 0 -55 -33t-15 -133v-301q0 -99 15 -131.5t55 -32.5h6q37 0 51.5 28.5t18.5 113.5v30h151 v-16q-1 -158 -50.5 -220.5t-164.5 -62.5h-20q-121 0 -167 65t-46 247z" />
<glyph unicode="&#xaa;" horiz-adv-x="638" d="M53 801v35q0 115 43 173t144 68l163 19v84q0 92 -17.5 117.5t-63.5 25.5q-39 0 -62 -23q-20 -20 -20 -122h-166q0 147 56.5 209.5t184.5 62.5h11q137 0 192 -59t55 -224v-594h-161v115h-9q-17 -70 -57 -100.5t-108 -30.5q-86 0 -135.5 60t-49.5 184zM223 799 q0 -60 17.5 -86.5t56.5 -26.5q55 0 80.5 41t25.5 137v119l-92 -8q-50 -6 -69 -38t-19 -89v-49z" />
<glyph unicode="&#xab;" horiz-adv-x="634" d="M49 592v12l172 449h133l-178 -455l178 -455h-133zM283 592v12l172 449h133l-178 -455l178 -455h-133z" />
<glyph unicode="&#xac;" horiz-adv-x="790" d="M35 598v152h694v-572h-151v420h-543z" />
<glyph unicode="&#xad;" horiz-adv-x="356" d="M25 522v152h307v-152h-307z" />
<glyph unicode="&#xae;" horiz-adv-x="1116" d="M41 543v348q0 563 477 563h80q477 0 477 -563v-348q0 -563 -477 -563h-80q-477 0 -477 563zM123 586q0 -135 20 -230.5t67 -166t127.5 -104.5t197.5 -34h47q118 0 198.5 34t127 104.5t66 166t19.5 230.5v262q0 135 -19.5 230t-66 165.5t-127 104.5t-198.5 34h-47 q-117 0 -197.5 -34t-127.5 -104t-67 -165.5t-20 -230.5v-262zM350 287v860h236q113 0 161 -49t48 -176v-21q0 -90 -21.5 -131t-66.5 -55v-8q44 -11 65 -52q23 -44 23 -157v-211h-152v235q0 82 -17.5 103.5t-68.5 21.5h-55v-360h-152zM502 760h55q48 0 67 22t19 99v26 q0 75 -18.5 96t-67.5 21h-55v-264z" />
<glyph unicode="&#xaf;" horiz-adv-x="1024" d="M274 1245v121h478v-121h-478z" />
<glyph unicode="&#xb0;" horiz-adv-x="727" d="M68 1159q0 124 86.5 209.5t207.5 85.5q122 0 208.5 -85.5t86.5 -209.5t-86.5 -209.5t-208.5 -85.5q-121 0 -207.5 85.5t-86.5 209.5zM184 1159q0 -77 51 -128.5t127 -51.5t128.5 51.5t52.5 128.5t-52.5 128.5t-128.5 51.5t-127 -51.5t-51 -128.5z" />
<glyph unicode="&#xb1;" horiz-adv-x="790" d="M45 201v151h700v-151h-700zM45 844v151h277v285h147v-285h276v-151h-276v-285h-147v285h-277z" />
<glyph unicode="&#xb2;" horiz-adv-x="497" d="M41 778v86q0 132 17.5 186t82.5 119l109 111q37 37 47 65.5t10 86.5v10q0 46 -13 67t-44 21q-33 0 -46.5 -27t-13.5 -104h-149q0 140 45 196t154 56h16q104 0 152.5 -48.5t48.5 -154.5v-10q0 -88 -21 -138q-23 -51 -78 -106l-118 -121q-32 -32 -41 -60t-9 -91v-21h267 v-123h-416z" />
<glyph unicode="&#xb3;" horiz-adv-x="497" d="M41 1036h149q0 -65 6.5 -97.5t18.5 -42t35 -9.5q33 0 45 26.5t12 106.5v31q0 67 -10.5 86.5t-46.5 19.5h-57v129h57q36 0 46.5 22t10.5 93v22q0 62 -12 84.5t-45 22.5t-46.5 -26t-13.5 -99h-147q0 140 47.5 193t149.5 53h16q101 0 150 -46t49 -159v-19q0 -158 -86 -186 v-8q88 -15 88 -193v-28q0 -148 -54 -199q-53 -47 -145 -47h-18q-53 0 -86.5 10t-60.5 38t-39.5 82.5t-12.5 139.5z" />
<glyph unicode="&#xb4;" horiz-adv-x="1024" d="M375 1188l98 246h174l-141 -246h-131z" />
<glyph unicode="&#xb5;" horiz-adv-x="704" d="M70 -348v1433h176v-804q0 -85 22.5 -113.5t81.5 -28.5q61 0 83 28t22 114v804h178v-1085h-178v123h-9q-12 -62 -50 -99.5t-93 -37.5q-68 0 -90 28h-8l14 -323v-39h-149z" />
<glyph unicode="&#xb6;" horiz-adv-x="788" d="M49 1169v15q0 150 43.5 200t171.5 50h438v-1639h-143v1499h-110v-1499h-144v1125h-41q-125 0 -170 51t-45 198z" />
<glyph unicode="&#xb7;" horiz-adv-x="542" d="M162 477v238h217v-238h-217z" />
<glyph unicode="&#xb8;" horiz-adv-x="1024" d="M418 -287l88 287h141l-61 -287h-168z" />
<glyph unicode="&#xb9;" horiz-adv-x="362" d="M14 1438v145l127 55h166v-860h-149v727h-8z" />
<glyph unicode="&#xba;" horiz-adv-x="643" d="M63 905v195q0 110 13.5 178.5t46 106.5t76.5 51.5t114 13.5h15q72 0 116 -13.5t76.5 -51.5t46 -106.5t13.5 -178.5v-195q0 -89 -9.5 -149.5t-27 -100t-49.5 -61t-70.5 -29.5t-95.5 -8h-15q-71 0 -114.5 13t-76 50.5t-46 106t-13.5 178.5zM236 883q0 -88 9.5 -129 t25.5 -51.5t51 -10.5t51 10t26.5 52t10.5 129v241q0 86 -10.5 128t-27 52.5t-50.5 10.5q-35 0 -51 -11t-25.5 -52t-9.5 -128v-241z" />
<glyph unicode="&#xbb;" horiz-adv-x="634" d="M49 143l178 455l-178 455h133l172 -449v-12l-172 -449h-133zM281 143l178 455l-178 455h133l172 -449v-12l-172 -449h-133z" />
<glyph unicode="&#xbc;" horiz-adv-x="1101" d="M14 1233v145l127 56h166v-861h-149v727h-8zM137 0l651 1434h132l-652 -1434h-131zM625 213v156l196 491h209v-524h60v-123h-60v-213h-149v213h-256zM741 336h140v342h-9l-131 -334v-8z" />
<glyph unicode="&#xbd;" horiz-adv-x="1173" d="M14 1233v145l127 56h166v-861h-149v727h-8zM139 0l652 1434h131l-652 -1434h-131zM717 0v86q0 132 17.5 186t82.5 119l109 111q37 37 47 65t10 86v11q0 46 -13 67t-44 21q-33 0 -46.5 -27t-13.5 -104h-149q0 140 44.5 195.5t153.5 55.5h17q104 0 152.5 -48t48.5 -154v-11 q0 -87 -21 -137q-23 -51 -78 -106l-119 -121q-31 -31 -40 -60t-9 -92v-20h267v-123h-416z" />
<glyph unicode="&#xbe;" horiz-adv-x="1214" d="M41 831h149q0 -65 6.5 -97.5t18.5 -42t35 -9.5q33 0 45 26.5t12 106.5v31q0 67 -10.5 86.5t-46.5 19.5h-57v129h57q36 0 46.5 22t10.5 93v23q0 62 -12 84t-45 22t-46.5 -26t-13.5 -99h-147q0 140 47.5 193t149.5 53h16q101 0 150 -46t49 -159v-18q0 -159 -86 -187v-8 q88 -15 88 -192v-29q0 -148 -54 -199q-53 -47 -145 -47h-18q-53 0 -86.5 10t-60.5 38t-39.5 82.5t-12.5 139.5zM252 0l651 1434h131l-651 -1434h-131zM739 213v156l197 491h209v-524h59v-123h-59v-213h-150v213h-256zM856 336h139v342h-8l-131 -334v-8z" />
<glyph unicode="&#xbf;" horiz-adv-x="698" d="M53 -31q0 149 25.5 219t114.5 168q70 76 89 124.5t19 156.5h166v-66q0 -108 -23 -164t-104 -143q-66 -75 -84 -122t-18 -160v-17q0 -99 23.5 -137.5t88.5 -38.5q45 0 66.5 18t33 78.5t11.5 184.5h186q0 -112 -12 -190.5t-33.5 -127t-59 -75.5t-80 -36.5t-104.5 -9.5h-18 q-155 0 -221 74.5t-66 245.5v18zM274 848v237h218v-237h-218z" />
<glyph unicode="&#xc0;" horiz-adv-x="800" d="M35 0l223 1434h285l223 -1434h-201l-43 326h-248l-43 -326h-196zM197 1761h172l100 -245h-131zM299 498h201l-97 706h-10z" />
<glyph unicode="&#xc1;" horiz-adv-x="800" d="M35 0l223 1434h285l223 -1434h-201l-43 326h-248l-43 -326h-196zM299 498h201l-97 706h-10zM338 1516l98 245h174l-141 -245h-131z" />
<glyph unicode="&#xc2;" horiz-adv-x="800" d="M35 0l223 1434h285l223 -1434h-201l-43 326h-248l-43 -326h-196zM190 1516l109 245h213l109 -245h-129l-86 163l-89 -163h-127zM299 498h201l-97 706h-10z" />
<glyph unicode="&#xc3;" horiz-adv-x="800" d="M35 0l223 1434h285l223 -1434h-201l-43 326h-248l-43 -326h-196zM166 1542q2 102 34 153.5t105 51.5q34 0 70.5 -22.5t67.5 -45t51 -22.5q46 0 49 80h102q-2 -102 -34.5 -154.5t-104.5 -52.5q-34 0 -70.5 23t-67.5 46t-51 23q-44 0 -47 -80h-104zM299 498h201l-97 706 h-10z" />
<glyph unicode="&#xc4;" horiz-adv-x="800" d="M35 0l223 1434h285l223 -1434h-201l-43 326h-248l-43 -326h-196zM182 1550v185h166v-185h-166zM299 498h201l-97 706h-10zM463 1550v185h164v-185h-164z" />
<glyph unicode="&#xc5;" horiz-adv-x="800" d="M35 0l223 1434h285l223 -1434h-201l-43 326h-248l-43 -326h-196zM227 1700q0 213 179 213q178 0 178 -213t-178 -213q-179 0 -179 213zM299 498h201l-97 706h-10zM348 1700q0 -63 13 -89t45 -26q31 0 43 26t12 89q0 62 -12.5 88.5t-42.5 26.5q-32 0 -45 -26.5t-13 -88.5z " />
<glyph unicode="&#xc6;" horiz-adv-x="1030" d="M27 0l305 1434h635v-174h-273v-455h273v-174h-273v-459h273v-172h-467v344h-205l-74 -344h-194zM332 518h168v742h-11z" />
<glyph unicode="&#xc7;" d="M76 442v549q0 184 31 285t92.5 139.5t171.5 38.5h22q107 0 169 -38.5t94 -139.5t32 -283h-194q0 122 -10.5 185t-33 86.5t-65.5 23.5h-6q-45 0 -67 -21.5t-32 -79.5t-10 -175v-592q0 -118 10 -176.5t32 -79.5t67 -21h6q43 0 65.5 23.5t33 87t10.5 186.5h194 q0 -243 -54.5 -343t-182.5 -115l-58 -269h-168l82 271q-126 12 -178.5 112t-52.5 346z" />
<glyph unicode="&#xc8;" horiz-adv-x="614" d="M86 0v1434h465v-174h-272v-455h272v-174h-272v-459h272v-172h-465zM113 1761h172l100 -245h-131z" />
<glyph unicode="&#xc9;" horiz-adv-x="614" d="M86 0v1434h465v-174h-272v-455h272v-174h-272v-459h272v-172h-465zM254 1516l98 245h174l-141 -245h-131z" />
<glyph unicode="&#xca;" horiz-adv-x="614" d="M86 0v1434h465v-174h-272v-455h272v-174h-272v-459h272v-172h-465zM102 1516l109 245h213l108 -245h-129l-86 163l-88 -163h-127z" />
<glyph unicode="&#xcb;" horiz-adv-x="614" d="M86 0v1434h465v-174h-272v-455h272v-174h-272v-459h272v-172h-465zM94 1550v185h166v-185h-166zM375 1550v185h164v-185h-164z" />
<glyph unicode="&#xcc;" horiz-adv-x="364" d="M-25 1761h172l101 -245h-131zM86 0v1434h193v-1434h-193z" />
<glyph unicode="&#xcd;" horiz-adv-x="364" d="M86 0v1434h193v-1434h-193zM117 1516l98 245h174l-141 -245h-131z" />
<glyph unicode="&#xce;" horiz-adv-x="364" d="M-33 1516l109 245h213l108 -245h-129l-86 163l-88 -163h-127zM86 0v1434h193v-1434h-193z" />
<glyph unicode="&#xcf;" horiz-adv-x="364" d="M-41 1550v185h166v-185h-166zM86 0v1434h193v-1434h-193zM240 1550v185h163v-185h-163z" />
<glyph unicode="&#xd0;" horiz-adv-x="772" d="M0 647v137h86v650h303q110 0 173 -38.5t95.5 -140t32.5 -284.5v-508q0 -186 -32.5 -287.5t-95 -138.5t-173.5 -37h-303v647h-86zM279 164h104q45 0 68 20.5t35 80t12 175.5v551q0 115 -12 175t-35.5 81t-67.5 21h-104v-484h116v-137h-116v-483z" />
<glyph unicode="&#xd1;" horiz-adv-x="841" d="M86 0v1434h242l245 -1016h9v1016h174v-1434h-242l-246 1016h-8v-1016h-174zM182 1542q2 102 34.5 153.5t105.5 51.5q34 0 70 -22.5t67 -45t51 -22.5q46 0 49 80h103q-2 -102 -34.5 -154.5t-105.5 -52.5q-34 0 -70 23t-67 46t-51 23q-44 0 -47 -80h-105z" />
<glyph unicode="&#xd2;" d="M76 442v549q0 144 15.5 234.5t53.5 141.5t90 69t136 18h22q66 0 111 -11.5t82 -40.5t58 -81.5t32.5 -133t11.5 -196.5v-549q0 -144 -16 -234.5t-54.5 -141t-90.5 -68.5t-134 -18h-22q-84 0 -136 18t-90 68.5t-53.5 141t-15.5 234.5zM174 1761h172l100 -245h-131zM270 420 q0 -118 10 -176.5t32 -79.5t67 -21h6q44 0 66 21t32.5 79.5t10.5 176.5v592q0 117 -10.5 175.5t-32.5 79.5t-66 21h-6q-45 0 -67 -21.5t-32 -79.5t-10 -175v-592z" />
<glyph unicode="&#xd3;" d="M76 442v549q0 144 15.5 234.5t53.5 141.5t90 69t136 18h22q66 0 111 -11.5t82 -40.5t58 -81.5t32.5 -133t11.5 -196.5v-549q0 -144 -16 -234.5t-54.5 -141t-90.5 -68.5t-134 -18h-22q-84 0 -136 18t-90 68.5t-53.5 141t-15.5 234.5zM270 420q0 -118 10 -176.5t32 -79.5 t67 -21h6q44 0 66 21t32.5 79.5t10.5 176.5v592q0 117 -10.5 175.5t-32.5 79.5t-66 21h-6q-45 0 -67 -21.5t-32 -79.5t-10 -175v-592zM315 1516l99 245h174l-142 -245h-131z" />
<glyph unicode="&#xd4;" d="M76 442v549q0 144 15.5 234.5t53.5 141.5t90 69t136 18h22q66 0 111 -11.5t82 -40.5t58 -81.5t32.5 -133t11.5 -196.5v-549q0 -144 -16 -234.5t-54.5 -141t-90.5 -68.5t-134 -18h-22q-84 0 -136 18t-90 68.5t-53.5 141t-15.5 234.5zM168 1516l108 245h213l109 -245h-129 l-86 163l-88 -163h-127zM270 420q0 -118 10 -176.5t32 -79.5t67 -21h6q44 0 66 21t32.5 79.5t10.5 176.5v592q0 117 -10.5 175.5t-32.5 79.5t-66 21h-6q-45 0 -67 -21.5t-32 -79.5t-10 -175v-592z" />
<glyph unicode="&#xd5;" d="M76 442v549q0 144 15.5 234.5t53.5 141.5t90 69t136 18h22q66 0 111 -11.5t82 -40.5t58 -81.5t32.5 -133t11.5 -196.5v-549q0 -144 -16 -234.5t-54.5 -141t-90.5 -68.5t-134 -18h-22q-84 0 -136 18t-90 68.5t-53.5 141t-15.5 234.5zM143 1542q5 104 36.5 154.5 t103.5 50.5q35 0 71 -22.5t66.5 -45t50.5 -22.5q46 0 49 80h103q-5 -104 -36.5 -155.5t-103.5 -51.5q-35 0 -71 23t-66.5 46t-50.5 23q-44 0 -47 -80h-105zM270 420q0 -118 10 -176.5t32 -79.5t67 -21h6q44 0 66 21t32.5 79.5t10.5 176.5v592q0 117 -10.5 175.5t-32.5 79.5 t-66 21h-6q-45 0 -67 -21.5t-32 -79.5t-10 -175v-592z" />
<glyph unicode="&#xd6;" d="M76 442v549q0 144 15.5 234.5t53.5 141.5t90 69t136 18h22q66 0 111 -11.5t82 -40.5t58 -81.5t32.5 -133t11.5 -196.5v-549q0 -144 -16 -234.5t-54.5 -141t-90.5 -68.5t-134 -18h-22q-84 0 -136 18t-90 68.5t-53.5 141t-15.5 234.5zM160 1550v185h166v-185h-166zM270 420 q0 -118 10 -176.5t32 -79.5t67 -21h6q44 0 66 21t32.5 79.5t10.5 176.5v592q0 117 -10.5 175.5t-32.5 79.5t-66 21h-6q-45 0 -67 -21.5t-32 -79.5t-10 -175v-592zM440 1550v185h164v-185h-164z" />
<glyph unicode="&#xd7;" horiz-adv-x="790" d="M47 311l254 363l-248 354l125 88l217 -309l217 309l125 -88l-248 -354l252 -361l-123 -92l-223 320l-223 -320z" />
<glyph unicode="&#xd8;" d="M76 -82l53 174q-53 103 -53 350v549q0 144 15.5 234.5t53.5 141.5t90 69t136 18h22q97 0 152 -24l26 86h117l-53 -175q53 -103 53 -350v-549q0 -144 -16 -234.5t-54.5 -141t-90.5 -68.5t-134 -18h-22q-95 0 -150 24l-26 -86h-119zM270 545l207 669q-10 42 -31.5 58 t-60.5 16h-6q-45 0 -67 -21.5t-32 -79.5t-10 -175v-467zM287 213q10 -40 31.5 -55t60.5 -15h6q44 0 66 21t32.5 79.5t10.5 176.5v467z" />
<glyph unicode="&#xd9;" horiz-adv-x="772" d="M80 442v992h194v-996q0 -118 10 -176t32 -80t67 -22h6q44 0 66 21.5t32.5 80.5t10.5 176v996h194v-992q0 -144 -16 -234.5t-54.5 -141t-90.5 -68.5t-134 -18h-22q-84 0 -136 18t-90 68.5t-53.5 141t-15.5 234.5zM180 1761h172l101 -245h-131z" />
<glyph unicode="&#xda;" horiz-adv-x="772" d="M80 442v992h194v-996q0 -118 10 -176t32 -80t67 -22h6q44 0 66 21.5t32.5 80.5t10.5 176v996h194v-992q0 -144 -16 -234.5t-54.5 -141t-90.5 -68.5t-134 -18h-22q-84 0 -136 18t-90 68.5t-53.5 141t-15.5 234.5zM322 1516l98 245h174l-141 -245h-131z" />
<glyph unicode="&#xdb;" horiz-adv-x="772" d="M80 442v992h194v-996q0 -118 10 -176t32 -80t67 -22h6q44 0 66 21.5t32.5 80.5t10.5 176v996h194v-992q0 -144 -16 -234.5t-54.5 -141t-90.5 -68.5t-134 -18h-22q-84 0 -136 18t-90 68.5t-53.5 141t-15.5 234.5zM172 1516l109 245h213l108 -245h-129l-86 163l-88 -163 h-127z" />
<glyph unicode="&#xdc;" horiz-adv-x="772" d="M80 442v992h194v-996q0 -118 10 -176t32 -80t67 -22h6q44 0 66 21.5t32.5 80.5t10.5 176v996h194v-992q0 -144 -16 -234.5t-54.5 -141t-90.5 -68.5t-134 -18h-22q-84 0 -136 18t-90 68.5t-53.5 141t-15.5 234.5zM164 1550v185h166v-185h-166zM444 1550v185h164v-185h-164 z" />
<glyph unicode="&#xdd;" d="M31 1434h200l152 -633h8l152 633h188l-254 -869v-565h-194v559zM317 1516l99 245h174l-141 -245h-132z" />
<glyph unicode="&#xde;" horiz-adv-x="761" d="M86 0v1434h193v-277h81q53 0 88.5 -3t74 -12t63 -26.5t47.5 -47.5t35.5 -73.5t20 -104.5t7.5 -142v-60q0 -81 -7.5 -142t-20 -104.5t-35.5 -73.5t-47.5 -47.5t-63 -26.5t-74 -12t-88.5 -3h-81v-279h-193zM279 438h73q34 0 55 3.5t41.5 16.5t30.5 38.5t16.5 68.5t6.5 107 v88q0 81 -8 128.5t-29.5 69.5t-44.5 27.5t-68 5.5h-73v-553z" />
<glyph unicode="&#xdf;" horiz-adv-x="718" d="M72 0v1114q0 193 59.5 266.5t206.5 73.5h12q147 0 207.5 -71.5t60.5 -239.5v-76q0 -117 -24 -169t-80 -73v-8q54 -11 84 -40t45.5 -97t15.5 -188v-101q0 -97 -10.5 -164.5t-30.5 -112t-54.5 -69.5t-77.5 -35t-105 -10h-70v152h68q44 0 62.5 13.5t29 70t10.5 180.5v86 q0 86 -11 127t-33.5 54t-71.5 13h-54v150h27q59 0 80.5 29.5t21.5 123.5v125q0 106 -21.5 141t-72.5 35h-6q-34 0 -52 -10.5t-29 -49.5t-11 -116v-1124h-176z" />
<glyph unicode="&#xe0;" horiz-adv-x="694" d="M53 307v17q0 153 55 225.5t185 85.5l156 16v115q0 87 -9.5 128t-30 55t-65.5 14q-55 0 -78.5 -37t-23.5 -154h-172q0 192 67 262q69 72 207 72h8q103 0 160.5 -28t86 -99.5t28.5 -202.5v-776h-170v139h-8q-23 -85 -69 -122t-122 -37q-115 0 -160 73.5t-45 253.5z M154 1434h172l100 -246h-131zM229 299q0 -102 19.5 -140t70.5 -38q68 0 99 56t31 190v153l-105 -10q-65 -7 -90 -49.5t-25 -128.5v-33z" />
<glyph unicode="&#xe1;" horiz-adv-x="694" d="M53 307v17q0 153 55 225.5t185 85.5l156 16v115q0 87 -9.5 128t-30 55t-65.5 14q-55 0 -78.5 -37t-23.5 -154h-172q0 192 67 262q69 72 207 72h8q103 0 160.5 -28t86 -99.5t28.5 -202.5v-776h-170v139h-8q-23 -85 -69 -122t-122 -37q-115 0 -160 73.5t-45 253.5zM229 299 q0 -102 19.5 -140t70.5 -38q68 0 99 56t31 190v153l-105 -10q-65 -7 -90 -49.5t-25 -128.5v-33zM295 1188l98 246h174l-141 -246h-131z" />
<glyph unicode="&#xe2;" horiz-adv-x="694" d="M53 307v17q0 153 55 225.5t185 85.5l156 16v115q0 87 -9.5 128t-30 55t-65.5 14q-55 0 -78.5 -37t-23.5 -154h-172q0 192 67 262q69 72 207 72h8q103 0 160.5 -28t86 -99.5t28.5 -202.5v-776h-170v139h-8q-23 -85 -69 -122t-122 -37q-115 0 -160 73.5t-45 253.5z M145 1188l109 246h213l108 -246h-129l-86 164l-88 -164h-127zM229 299q0 -102 19.5 -140t70.5 -38q68 0 99 56t31 190v153l-105 -10q-65 -7 -90 -49.5t-25 -128.5v-33z" />
<glyph unicode="&#xe3;" horiz-adv-x="694" d="M53 307v17q0 153 55 225.5t185 85.5l156 16v115q0 87 -9.5 128t-30 55t-65.5 14q-55 0 -78.5 -37t-23.5 -154h-172q0 192 67 262q69 72 207 72h8q103 0 160.5 -28t86 -99.5t28.5 -202.5v-776h-170v139h-8q-23 -85 -69 -122t-122 -37q-115 0 -160 73.5t-45 253.5z M121 1214q2 102 34 153.5t105 51.5q34 0 70.5 -22.5t67.5 -45t51 -22.5q46 0 49 80h102q-2 -102 -34.5 -154.5t-104.5 -52.5q-34 0 -70.5 23t-67.5 46t-51 23q-44 0 -47 -80h-104zM229 299q0 -102 19.5 -140t70.5 -38q68 0 99 56t31 190v153l-105 -10q-65 -7 -90 -49.5 t-25 -128.5v-33z" />
<glyph unicode="&#xe4;" horiz-adv-x="694" d="M53 307v17q0 153 55 225.5t185 85.5l156 16v115q0 87 -9.5 128t-30 55t-65.5 14q-55 0 -78.5 -37t-23.5 -154h-172q0 192 67 262q69 72 207 72h8q103 0 160.5 -28t86 -99.5t28.5 -202.5v-776h-170v139h-8q-23 -85 -69 -122t-122 -37q-115 0 -160 73.5t-45 253.5z M137 1214v185h166v-185h-166zM229 299q0 -102 19.5 -140t70.5 -38q68 0 99 56t31 190v153l-105 -10q-65 -7 -90 -49.5t-25 -128.5v-33zM418 1214v185h164v-185h-164z" />
<glyph unicode="&#xe5;" horiz-adv-x="694" d="M53 307v17q0 153 55 225.5t185 85.5l156 16v115q0 87 -9.5 128t-30 55t-65.5 14q-55 0 -78.5 -37t-23.5 -154h-172q0 192 67 262q69 72 207 72h8q103 0 160.5 -28t86 -99.5t28.5 -202.5v-776h-170v139h-8q-23 -85 -69 -122t-122 -37q-115 0 -160 73.5t-45 253.5z M182 1372q0 213 178 213q179 0 179 -213t-179 -213q-178 0 -178 213zM229 299q0 -102 19.5 -140t70.5 -38q68 0 99 56t31 190v153l-105 -10q-65 -7 -90 -49.5t-25 -128.5v-33zM303 1372q0 -64 12.5 -89.5t44.5 -25.5q31 0 43.5 26t12.5 89q0 62 -12.5 88.5t-43.5 26.5 q-32 0 -44.5 -26.5t-12.5 -88.5z" />
<glyph unicode="&#xe6;" horiz-adv-x="1079" d="M53 307v17q0 154 54 226t186 85l156 16v115q0 87 -9.5 128t-30 55t-65.5 14q-55 0 -78.5 -37t-23.5 -154h-172q0 186 65 260t207 74h10q78 0 121 -20t64 -60h8q20 38 68 59t114 21h16q76 0 124.5 -16.5t83 -60.5t49 -120t14.5 -196v-209h-387v-109q0 -124 11 -180.5 t30 -70t63 -13.5q58 0 80.5 35.5t26.5 148.5h176q-6 -189 -66.5 -262t-204.5 -73h-24q-74 0 -144 28q-69 28 -90 117h-8q-23 -73 -78 -109t-131 -36q-117 0 -166 75t-49 252zM229 299q0 -100 22.5 -139t74.5 -39q64 0 93.5 56t29.5 185v158l-105 -10q-65 -7 -90 -49.5 t-25 -128.5v-33zM627 633h209v65q0 94 -4.5 147t-19 79.5t-31.5 32.5t-50 6q-45 0 -64 -14t-29.5 -70.5t-10.5 -180.5v-65z" />
<glyph unicode="&#xe7;" horiz-adv-x="673" d="M68 371v342q0 159 28.5 244.5t85.5 117t160 31.5h14q77 0 125 -15.5t81 -57t47.5 -110t17.5 -178.5h-174q-2 91 -12.5 134.5t-30 58t-60.5 14.5q-27 0 -41.5 -3.5t-29 -17t-21 -42t-10.5 -76.5t-4 -123v-295q0 -75 4 -123.5t10.5 -77.5t21 -42.5t29 -17t41.5 -3.5 q41 0 60.5 14.5t30 58.5t12.5 136h174q-6 -190 -52 -268t-157 -90l-58 -269h-167l81 269q-76 10 -119 46.5t-65 118.5t-22 224z" />
<glyph unicode="&#xe8;" horiz-adv-x="696" d="M68 371v342q0 159 28.5 244.5t85.5 117t160 31.5h14q103 0 160 -31.5t86 -117t29 -244.5v-209h-387v-109q0 -75 4 -123.5t10.5 -77.5t21 -42.5t29 -17t41.5 -3.5q58 0 80 35.5t23 148.5h178q-6 -189 -66.5 -262t-204.5 -73h-24q-59 0 -100.5 10t-75 35t-53 69.5 t-29.5 112t-10 164.5zM143 1434h172l101 -246h-131zM244 633h209v65q0 124 -10.5 180.5t-29.5 70.5t-63 14t-63.5 -13.5t-31 -71t-11.5 -180.5v-65z" />
<glyph unicode="&#xe9;" horiz-adv-x="696" d="M68 371v342q0 159 28.5 244.5t85.5 117t160 31.5h14q103 0 160 -31.5t86 -117t29 -244.5v-209h-387v-109q0 -75 4 -123.5t10.5 -77.5t21 -42.5t29 -17t41.5 -3.5q58 0 80 35.5t23 148.5h178q-6 -189 -66.5 -262t-204.5 -73h-24q-59 0 -100.5 10t-75 35t-53 69.5 t-29.5 112t-10 164.5zM244 633h209v65q0 124 -10.5 180.5t-29.5 70.5t-63 14t-63.5 -13.5t-31 -71t-11.5 -180.5v-65zM285 1188l98 246h174l-141 -246h-131z" />
<glyph unicode="&#xea;" horiz-adv-x="696" d="M68 371v342q0 159 28.5 244.5t85.5 117t160 31.5h14q103 0 160 -31.5t86 -117t29 -244.5v-209h-387v-109q0 -75 4 -123.5t10.5 -77.5t21 -42.5t29 -17t41.5 -3.5q58 0 80 35.5t23 148.5h178q-6 -189 -66.5 -262t-204.5 -73h-24q-59 0 -100.5 10t-75 35t-53 69.5 t-29.5 112t-10 164.5zM135 1188l109 246h213l108 -246h-129l-86 164l-88 -164h-127zM244 633h209v65q0 124 -10.5 180.5t-29.5 70.5t-63 14t-63.5 -13.5t-31 -71t-11.5 -180.5v-65z" />
<glyph unicode="&#xeb;" horiz-adv-x="696" d="M68 371v342q0 159 28.5 244.5t85.5 117t160 31.5h14q103 0 160 -31.5t86 -117t29 -244.5v-209h-387v-109q0 -75 4 -123.5t10.5 -77.5t21 -42.5t29 -17t41.5 -3.5q58 0 80 35.5t23 148.5h178q-6 -189 -66.5 -262t-204.5 -73h-24q-59 0 -100.5 10t-75 35t-53 69.5 t-29.5 112t-10 164.5zM127 1214v185h166v-185h-166zM244 633h209v65q0 124 -10.5 180.5t-29.5 70.5t-63 14t-63.5 -13.5t-31 -71t-11.5 -180.5v-65zM408 1214v185h163v-185h-163z" />
<glyph unicode="&#xec;" horiz-adv-x="319" d="M-47 1434h172l100 -246h-131zM72 0v1085h176v-1085h-176z" />
<glyph unicode="&#xed;" horiz-adv-x="319" d="M72 0v1085h176v-1085h-176zM96 1188l99 246h174l-142 -246h-131z" />
<glyph unicode="&#xee;" horiz-adv-x="319" d="M-55 1188l108 246h213l109 -246h-129l-86 164l-88 -164h-127zM72 0v1085h176v-1085h-176z" />
<glyph unicode="&#xef;" horiz-adv-x="319" d="M-63 1214v185h165v-185h-165zM72 0v1085h176v-1085h-176zM217 1214v185h164v-185h-164z" />
<glyph unicode="&#xf0;" horiz-adv-x="710" d="M68 371v274q0 88 9.5 153t26.5 105t43 64t55 32.5t68 8.5q49 0 80.5 -15.5t57.5 -48.5h8q-19 60 -72 172l-207 -24v141l137 16q-59 104 -129 185h207q61 -86 105 -164l172 20v-139l-105 -12q107 -241 107 -512v-256q0 -97 -10.5 -164.5t-30 -112t-53.5 -69.5t-75.5 -35 t-101.5 -10h-24q-59 0 -100.5 10t-75 35t-53 69.5t-29.5 112t-10 164.5zM244 395q0 -75 4 -123.5t10.5 -77.5t21 -42.5t29 -17t41.5 -3.5q33 0 49.5 6t30.5 32.5t18.5 79t4.5 146.5v197q0 94 -4.5 146t-18.5 78t-30.5 32t-49.5 6q-27 0 -41.5 -3.5t-29 -17t-21 -42 t-10.5 -76.5t-4 -123v-197z" />
<glyph unicode="&#xf1;" horiz-adv-x="704" d="M72 0v1085h176v-131h8q20 79 62.5 115.5t115.5 36.5q104 0 152.5 -56.5t48.5 -185.5v-864h-178v805q0 84 -20 111.5t-72 27.5q-117 0 -117 -172v-772h-176zM115 1214q5 104 36 154.5t103 50.5q35 0 71 -22.5t66.5 -45t50.5 -22.5q47 0 50 80h102q-5 -104 -36 -155.5 t-103 -51.5q-35 0 -71.5 23t-67 46t-50.5 23q-44 0 -47 -80h-104z" />
<glyph unicode="&#xf2;" horiz-adv-x="698" d="M68 371v342q0 159 28.5 244.5t85.5 117t160 31.5h14q103 0 160 -31.5t86 -117t29 -244.5v-342q0 -121 -14.5 -197t-49.5 -119t-84 -59t-127 -16h-14q-62 0 -104.5 10t-76.5 35t-53.5 69.5t-29.5 112t-10 164.5zM143 1434h172l101 -246h-131zM244 395q0 -75 4 -123.5 t10.5 -77.5t21 -42.5t29 -17t41.5 -3.5q33 0 49.5 6t30.5 32.5t18.5 79t4.5 146.5v295q0 94 -4.5 146t-18.5 78t-30.5 32t-49.5 6q-27 0 -41.5 -3.5t-29 -17t-21 -42t-10.5 -76.5t-4 -123v-295z" />
<glyph unicode="&#xf3;" horiz-adv-x="698" d="M68 371v342q0 159 28.5 244.5t85.5 117t160 31.5h14q103 0 160 -31.5t86 -117t29 -244.5v-342q0 -121 -14.5 -197t-49.5 -119t-84 -59t-127 -16h-14q-62 0 -104.5 10t-76.5 35t-53.5 69.5t-29.5 112t-10 164.5zM244 395q0 -75 4 -123.5t10.5 -77.5t21 -42.5t29 -17 t41.5 -3.5q33 0 49.5 6t30.5 32.5t18.5 79t4.5 146.5v295q0 94 -4.5 146t-18.5 78t-30.5 32t-49.5 6q-27 0 -41.5 -3.5t-29 -17t-21 -42t-10.5 -76.5t-4 -123v-295zM285 1188l98 246h174l-141 -246h-131z" />
<glyph unicode="&#xf4;" horiz-adv-x="698" d="M68 371v342q0 159 28.5 244.5t85.5 117t160 31.5h14q103 0 160 -31.5t86 -117t29 -244.5v-342q0 -121 -14.5 -197t-49.5 -119t-84 -59t-127 -16h-14q-62 0 -104.5 10t-76.5 35t-53.5 69.5t-29.5 112t-10 164.5zM135 1188l109 246h213l108 -246h-129l-86 164l-88 -164 h-127zM244 395q0 -75 4 -123.5t10.5 -77.5t21 -42.5t29 -17t41.5 -3.5q33 0 49.5 6t30.5 32.5t18.5 79t4.5 146.5v295q0 94 -4.5 146t-18.5 78t-30.5 32t-49.5 6q-27 0 -41.5 -3.5t-29 -17t-21 -42t-10.5 -76.5t-4 -123v-295z" />
<glyph unicode="&#xf5;" horiz-adv-x="698" d="M68 371v342q0 159 28.5 244.5t85.5 117t160 31.5h14q103 0 160 -31.5t86 -117t29 -244.5v-342q0 -121 -14.5 -197t-49.5 -119t-84 -59t-127 -16h-14q-62 0 -104.5 10t-76.5 35t-53.5 69.5t-29.5 112t-10 164.5zM111 1214q5 104 36 154.5t103 50.5q35 0 71 -22.5t66.5 -45 t50.5 -22.5q46 0 49 80h103q-5 -104 -36 -155.5t-103 -51.5q-35 0 -71.5 23t-67 46t-50.5 23q-44 0 -47 -80h-104zM244 395q0 -75 4 -123.5t10.5 -77.5t21 -42.5t29 -17t41.5 -3.5q33 0 49.5 6t30.5 32.5t18.5 79t4.5 146.5v295q0 94 -4.5 146t-18.5 78t-30.5 32t-49.5 6 q-27 0 -41.5 -3.5t-29 -17t-21 -42t-10.5 -76.5t-4 -123v-295z" />
<glyph unicode="&#xf6;" horiz-adv-x="698" d="M68 371v342q0 159 28.5 244.5t85.5 117t160 31.5h14q103 0 160 -31.5t86 -117t29 -244.5v-342q0 -121 -14.5 -197t-49.5 -119t-84 -59t-127 -16h-14q-62 0 -104.5 10t-76.5 35t-53.5 69.5t-29.5 112t-10 164.5zM127 1214v185h166v-185h-166zM244 395q0 -75 4 -123.5 t10.5 -77.5t21 -42.5t29 -17t41.5 -3.5q33 0 49.5 6t30.5 32.5t18.5 79t4.5 146.5v295q0 94 -4.5 146t-18.5 78t-30.5 32t-49.5 6q-27 0 -41.5 -3.5t-29 -17t-21 -42t-10.5 -76.5t-4 -123v-295zM408 1214v185h163v-185h-163z" />
<glyph unicode="&#xf7;" horiz-adv-x="790" d="M45 598v152h700v-152h-700zM317 166v174h154v-174h-154zM317 1006v174h154v-174h-154z" />
<glyph unicode="&#xf8;" horiz-adv-x="698" d="M68 -82l53 152q-53 86 -53 301v342q0 159 28.5 244.5t85.5 117t160 31.5h14q71 0 127 -16l29 77h119l-53 -151q53 -86 53 -303v-342q0 -121 -14.5 -197t-49.5 -119t-84 -59t-127 -16h-14q-71 0 -127 16l-29 -78h-118zM244 387l184 533q-11 21 -28.5 26.5t-49.5 5.5 q-27 0 -41.5 -3.5t-29 -17t-21 -42t-10.5 -76.5t-4 -123v-295v-8zM270 164q20 -33 80 -33q33 0 49.5 6t30.5 32.5t18.5 79t4.5 146.5v295z" />
<glyph unicode="&#xf9;" horiz-adv-x="704" d="M70 221v864h178v-804q0 -85 20 -112.5t72 -27.5q117 0 117 172v772h176v-1085h-176v131h-8q-20 -78 -63 -114.5t-116 -36.5q-104 0 -152 56t-48 185zM145 1434h172l101 -246h-131z" />
<glyph unicode="&#xfa;" horiz-adv-x="704" d="M70 221v864h178v-804q0 -85 20 -112.5t72 -27.5q117 0 117 172v772h176v-1085h-176v131h-8q-20 -78 -63 -114.5t-116 -36.5q-104 0 -152 56t-48 185zM287 1188l98 246h174l-141 -246h-131z" />
<glyph unicode="&#xfb;" horiz-adv-x="704" d="M70 221v864h178v-804q0 -85 20 -112.5t72 -27.5q117 0 117 172v772h176v-1085h-176v131h-8q-20 -78 -63 -114.5t-116 -36.5q-104 0 -152 56t-48 185zM135 1188l109 246h213l108 -246h-129l-86 164l-88 -164h-127z" />
<glyph unicode="&#xfc;" horiz-adv-x="704" d="M70 221v864h178v-804q0 -85 20 -112.5t72 -27.5q117 0 117 172v772h176v-1085h-176v131h-8q-20 -78 -63 -114.5t-116 -36.5q-104 0 -152 56t-48 185zM127 1214v185h166v-185h-166zM408 1214v185h163v-185h-163z" />
<glyph unicode="&#xfd;" horiz-adv-x="655" d="M12 1085h181l126 -833h9l159 833h175l-334 -1433h-174l71 299zM270 1188l99 246h174l-142 -246h-131z" />
<glyph unicode="&#xfe;" horiz-adv-x="702" d="M72 -348v1782h178v-441h8q18 61 52.5 87t105.5 26h6q42 0 72 -8t58 -31.5t45.5 -64t27.5 -108t10 -161.5v-379q0 -118 -14 -194t-44 -114.5t-65.5 -52t-89.5 -13.5h-6q-71 0 -105.5 25.5t-52.5 86.5h-8v-440h-178zM250 395q0 -123 10.5 -179t29.5 -69.5t64 -13.5 q27 0 42 3.5t29 17t20.5 42.5t10 76.5t3.5 122.5v295q0 94 -4.5 147t-19 79t-31 32t-50.5 6q-45 0 -64 -14t-29.5 -70t-10.5 -180v-295z" />
<glyph unicode="&#xff;" horiz-adv-x="655" d="M12 1085h181l126 -833h9l159 833h175l-334 -1433h-174l71 299zM115 1214v185h166v-185h-166zM395 1214v185h164v-185h-164z" />
<glyph unicode="&#x152;" horiz-adv-x="1024" d="M82 463v508q0 140 17 230.5t56 142t92.5 71t135.5 19.5h575v-174h-272v-455h272v-174h-272v-459h272v-172h-575q-82 0 -136 20.5t-92.5 72.5t-55.5 142t-17 228zM274 442q0 -114 12.5 -174.5t35.5 -81t67 -20.5h105v1104h-105q-44 0 -67 -20.5t-35.5 -81t-12.5 -175.5 v-551z" />
<glyph unicode="&#x153;" horiz-adv-x="1083" d="M68 371v342q0 159 28.5 244.5t85 117t158.5 31.5h12q76 0 117.5 -23.5t67.5 -74.5h8q26 52 67.5 75t118.5 23h10q77 0 126.5 -16.5t85 -60.5t50.5 -120.5t15 -195.5v-209h-387v-109q0 -124 11 -180.5t30 -70t63 -13.5q58 0 80 35.5t23 148.5h180q-7 -189 -67.5 -262 t-202.5 -73h-17q-76 0 -118 23.5t-68 74.5h-8q-26 -51 -67.5 -74.5t-117.5 -23.5h-14q-102 0 -157.5 30.5t-84 115.5t-28.5 245zM244 395q0 -75 4 -123.5t10.5 -77.5t21 -42.5t29 -17t41.5 -3.5q33 0 49.5 6t30.5 32.5t18.5 79t4.5 146.5v295q0 94 -4.5 146t-18.5 78 t-30.5 32t-49.5 6q-27 0 -41.5 -3.5t-29 -17t-21 -42t-10.5 -76.5t-4 -123v-295zM631 633h207v65q0 124 -10.5 180.5t-29.5 70.5t-63 14q-46 0 -65 -14t-29 -70t-10 -181v-65z" />
<glyph unicode="&#x178;" d="M31 1434h200l152 -633h8l152 633h188l-254 -869v-565h-194v559zM158 1550v185h166v-185h-166zM438 1550v185h164v-185h-164z" />
<glyph unicode="&#x2c6;" horiz-adv-x="1024" d="M297 1188l109 246h212l109 -246h-129l-86 164l-88 -164h-127z" />
<glyph unicode="&#x2dc;" horiz-adv-x="1024" d="M272 1214q2 102 34.5 153.5t105.5 51.5q34 0 70 -22.5t67 -45t51 -22.5q46 0 49 80h103q-2 -102 -34.5 -154.5t-105.5 -52.5q-34 0 -70 23t-67 46t-51 23q-44 0 -47 -80h-105z" />
<glyph unicode="&#x2000;" horiz-adv-x="956" />
<glyph unicode="&#x2001;" horiz-adv-x="1913" />
<glyph unicode="&#x2002;" horiz-adv-x="956" />
<glyph unicode="&#x2003;" horiz-adv-x="1913" />
<glyph unicode="&#x2004;" horiz-adv-x="637" />
<glyph unicode="&#x2005;" horiz-adv-x="478" />
<glyph unicode="&#x2006;" horiz-adv-x="318" />
<glyph unicode="&#x2007;" horiz-adv-x="318" />
<glyph unicode="&#x2008;" horiz-adv-x="239" />
<glyph unicode="&#x2009;" horiz-adv-x="382" />
<glyph unicode="&#x200a;" horiz-adv-x="106" />
<glyph unicode="&#x2010;" horiz-adv-x="356" d="M25 522v152h307v-152h-307z" />
<glyph unicode="&#x2011;" horiz-adv-x="356" d="M25 522v152h307v-152h-307z" />
<glyph unicode="&#x2012;" horiz-adv-x="356" d="M25 522v152h307v-152h-307z" />
<glyph unicode="&#x2013;" horiz-adv-x="712" d="M25 545v108h663v-108h-663z" />
<glyph unicode="&#x2014;" horiz-adv-x="1069" d="M25 545v108h1019v-108h-1019z" />
<glyph unicode="&#x2018;" horiz-adv-x="321" d="M41 909v158q0 136 41 276l27 91h110l-74 -271v-16h123v-238h-227z" />
<glyph unicode="&#x2019;" horiz-adv-x="321" d="M51 1194v238h228v-158q0 -137 -41 -277l-27 -90h-111l74 271v16h-123z" />
<glyph unicode="&#x201a;" horiz-adv-x="331" d="M51 0v238h228v-158q0 -137 -41 -277l-27 -90h-111l74 271v16h-123z" />
<glyph unicode="&#x201c;" horiz-adv-x="632" d="M41 909v158q0 136 41 276l27 91h110l-74 -271v-16h123v-238h-227zM352 909v158q0 136 41 276l27 91h110l-73 -271v-16h123v-238h-228z" />
<glyph unicode="&#x201d;" horiz-adv-x="632" d="M51 1194v238h228v-158q0 -137 -41 -277l-27 -90h-111l74 271v16h-123zM362 1194v238h228v-158q0 -137 -41 -277l-27 -90h-110l73 271v16h-123z" />
<glyph unicode="&#x201e;" horiz-adv-x="632" d="M51 0v238h228v-158q0 -137 -41 -277l-27 -90h-111l74 271v16h-123zM362 0v238h228v-158q0 -137 -41 -277l-27 -90h-110l73 271v16h-123z" />
<glyph unicode="&#x2022;" horiz-adv-x="808" d="M113 715q0 126 85.5 206t207.5 80q120 0 205 -80t85 -206t-85 -206.5t-205 -80.5q-122 0 -207.5 80.5t-85.5 206.5z" />
<glyph unicode="&#x2026;" horiz-adv-x="997" d="M57 0v238h217v-238h-217zM391 0v238h215v-238h-215zM723 0v238h217v-238h-217z" />
<glyph unicode="&#x202f;" horiz-adv-x="382" />
<glyph unicode="&#x2039;" horiz-adv-x="403" d="M49 592v12l172 449h133l-178 -455l178 -455h-133z" />
<glyph unicode="&#x203a;" horiz-adv-x="403" d="M49 143l178 455l-178 455h133l172 -449v-12l-172 -449h-133z" />
<glyph unicode="&#x205f;" horiz-adv-x="478" />
<glyph unicode="&#x20ac;" horiz-adv-x="743" d="M12 518v121h84v156h-84v127h84v84q0 111 10 188t30 128.5t55.5 80t80 40t109.5 11.5h16q144 0 207.5 -90t63.5 -309h-172q0 139 -22.5 190t-84.5 51q-46 0 -68 -22t-31 -78t-9 -172v-102h258v-127h-258v-156h258v-121h-258v-110q0 -115 9 -171t31 -78t68 -22 q62 0 84.5 51.5t22.5 190.5h172q0 -219 -63.5 -309t-207.5 -90h-16q-65 0 -109.5 11.5t-80 40t-55.5 80t-30 128t-10 186.5v92h-84z" />
<glyph unicode="&#x2122;" horiz-adv-x="1253" d="M39 1305v129h405v-129h-127v-588h-151v588h-127zM504 717v717h248l88 -439h8l88 439h238v-717h-148v559h-8l-109 -559h-141l-109 559h-8v-559h-147z" />
<glyph unicode="&#x25fc;" horiz-adv-x="1085" d="M0 0v1085h1085v-1085h-1085z" />
</font>
</defs>
</svg>
