<?xml version="1.0" standalone="no"?>
<!DOCTYPE svg PUBLIC "-//W3C//DTD SVG 1.1//EN" "http://www.w3.org/Graphics/SVG/1.1/DTD/svg11.dtd" >
<svg xmlns="http://www.w3.org/2000/svg" xmlns:xlink="http://www.w3.org/1999/xlink" version="1.1">
<metadata>
Created by FontForge 20170731 at Mon Nov 11 15:00:07 2019
 By Aleksey,,,
Copyright 2018 The Roboto Slab Project Authors (https://github.com/googlefonts/robotoslab)
</metadata>
<defs>
<font id="RobotoSlab-Black" horiz-adv-x="0" >
  <font-face 
    font-family="Roboto Slab Black"
    font-weight="900"
    font-stretch="normal"
    units-per-em="2048"
    panose-1="0 0 0 0 0 0 0 0 0 0"
    ascent="1638"
    descent="-410"
    x-height="1082"
    cap-height="1456"
    bbox="-385 -555 2832 2146"
    underline-thickness="100"
    underline-position="-300"
    unicode-range="U+000D-FFFD"
  />
<missing-glyph horiz-adv-x="1038" 
d="M100 0v1456h838v-1456h-838zM154 54h730v1348h-730v-1348zM858 20l-738 1416h60l738 -1416h-60zM120 20l738 1416h60l-738 -1416h-60z" />
    <glyph glyph-name="fi" unicode="fi" horiz-adv-x="1398" 
d="M32 0v205l151 32v603h-156v242h156v47q0 218 135.5 335t384.5 117q86 0 168 -15t190 -44l-47 -274q-79 21 -143.5 32t-128.5 11q-103 0 -155.5 -42.5t-52.5 -119.5v-47h680v-845l150 -32v-205h-628v205l127 32v603h-329v-603l128 -32v-205h-630z" />
    <glyph glyph-name="fl" unicode="fl" horiz-adv-x="1465" 
d="M32 0v205l151 32v603h-131v242h131v28q0 227 139.5 349t396.5 122q86 0 170 -15t195 -44h223v-1285l127 -32v-205h-605v205l127 32v1052q-59 11 -106.5 17t-94.5 6q-109 0 -165 -52t-56 -150v-28h233v-242h-233v-603l128 -32v-205h-630z" />
    <glyph glyph-name=".notdef" horiz-adv-x="1038" 
d="M100 0v1456h838v-1456h-838zM154 54h730v1348h-730v-1348zM858 20l-738 1416h60l738 -1416h-60zM120 20l738 1416h60l-738 -1416h-60z" />
    <glyph glyph-name=".null" 
 />
    <glyph glyph-name="nonmarkingreturn" horiz-adv-x="682" 
 />
    <glyph glyph-name="CR" unicode="&#xd;" horiz-adv-x="498" 
 />
    <glyph glyph-name="space" unicode=" " horiz-adv-x="498" 
 />
    <glyph glyph-name="exclam" unicode="!" horiz-adv-x="522" 
d="M104 517v939h351v-939h-351zM104 0v288h351v-288h-351z" />
    <glyph glyph-name="quotedbl" unicode="&#x22;" horiz-adv-x="796" 
d="M122 1017v296v247h253v-275l-104 -268h-149zM476 1017v296v247h253v-275l-104 -268h-149z" />
    <glyph glyph-name="numbersign" unicode="#" horiz-adv-x="1168" 
d="M179 0l67 410h-222v187h252l40 254h-216v189h247l69 416h203l-67 -416h153l67 416h205l-69 -416h232v-189h-264l-41 -254h230v-187h-259l-67 -410h-203l67 410h-152l-67 -410h-205zM480 597h152l41 254h-152z" />
    <glyph glyph-name="dollar" unicode="$" horiz-adv-x="1105" 
d="M493 -218v201q-131 13 -234 69t-161.5 158.5t-56.5 254.5l2 5h343q0 -81 24 -131.5t66 -74t97 -23.5q45 0 75 18.5t45 51.5t15 76q0 51 -15.5 86t-51 62.5t-97.5 54.5q-156 62 -256.5 124t-148.5 145t-48 208q0 170 115 279.5t307 127.5v211h160v-216q180 -27 285.5 -148
t102.5 -309l3 -8h-347q0 107 -40.5 158.5t-105.5 51.5q-67 0 -99 -42t-32 -109q0 -44 14.5 -76.5t50.5 -59.5t99 -55q154 -67 255 -131t150.5 -146.5t49.5 -205.5q0 -173 -110 -279t-295 -125v-203h-161z" />
    <glyph glyph-name="percent" unicode="%" horiz-adv-x="1410" 
d="M430 108l-162 80l711 1138l162 -80zM1052 -19q-105 0 -178.5 39t-112.5 107t-39 154v76q0 86 38 154t111.5 107t178.5 39t177.5 -38.5t110.5 -106.5t38 -155v-76q0 -87 -37.5 -155t-109.5 -106.5t-177 -38.5zM1052 167q59 0 79.5 29.5t20.5 84.5v76q0 47 -26 80t-76 33
q-52 0 -78 -33t-26 -80v-76q0 -46 31 -80t75 -34zM360 800q-105 0 -178.5 38.5t-111.5 106t-38 154.5v77q0 87 38 155t110.5 107t177.5 39q106 0 178.5 -39t110 -106.5t37.5 -155.5v-77q0 -87 -37.5 -154.5t-109.5 -106t-177 -38.5zM360 987q48 0 75 32.5t27 79.5v77
q0 48 -27 81t-77 33t-76.5 -33t-26.5 -81v-77q0 -48 27 -80t78 -32z" />
    <glyph glyph-name="ampersand" unicode="&#x26;" horiz-adv-x="1271" 
d="M504 -21q-146 0 -253 52t-165.5 145t-58.5 216q0 109 55 188t169 164q7 5 14 10.5t14 10.5q-62 88 -92.5 163t-30.5 152q0 117 52 206.5t146 140t218 50.5q106 0 187 -47.5t126.5 -127.5t45.5 -179q0 -98 -46.5 -185t-120.5 -139l-83 -57l236 -268q32 57 50.5 121
t18.5 136h244q0 -142 -31 -260.5t-98 -209.5l222 -256l-2 -5h-383l-72 81q-88 -52 -174 -77t-188 -25zM529 246q41 0 83.5 7t83.5 22l-263 294l-6 -3q-25 -36 -37 -71t-12 -79q0 -73 45 -121.5t106 -48.5zM529 923l53 32q56 35 75 69t19 73q0 44 -29.5 78t-76.5 34
q-55 0 -84.5 -35.5t-29.5 -90.5q0 -37 18 -75t55 -85z" />
    <glyph glyph-name="quotesingle" unicode="'" horiz-adv-x="442" 
d="M122 1017v296v247h253v-275l-104 -268h-149z" />
    <glyph glyph-name="parenleft" unicode="(" horiz-adv-x="699" 
d="M571 -442q-101 37 -191 124.5t-159 218.5t-108.5 298.5t-39.5 363.5v30q0 195 39.5 362.5t108.5 298.5t159 218.5t191 124.5l6 1l63 -165q-63 -46 -116 -120.5t-92 -178.5t-60.5 -238.5t-21.5 -300.5v-34q0 -167 21.5 -301.5t60.5 -238.5t92 -178t116 -120l-63 -165h-6z
" />
    <glyph glyph-name="parenright" unicode=")" horiz-adv-x="748" 
d="M157 -442l-65 165q63 47 115.5 121.5t92 178t61 238t21.5 300.5v34q0 166 -21.5 300.5t-60.5 238.5t-92 179t-116 121l65 163h6q103 -36 196.5 -126.5t166.5 -224.5t115 -300t42 -353v-30q0 -188 -42 -354.5t-115 -300t-166.5 -224t-196.5 -126.5h-6z" />
    <glyph glyph-name="asterisk" unicode="*" horiz-adv-x="887" 
d="M612 562l-171 291l-171 -282l-164 114l214 271l-306 89l62 191l298 -130l-23 350h205l-27 -356l290 126l61 -195l-308 -89l204 -262z" />
    <glyph glyph-name="plus" unicode="+" horiz-adv-x="1069" 
d="M372 146v386h-338v298h338v376h327v-376h333v-298h-333v-386h-327z" />
    <glyph glyph-name="comma" unicode="," horiz-adv-x="564" 
d="M244 -397l-164 81q34 68 53 142.5t19 171.5v259h302l-1 -238q0 -130 -63 -236t-146 -180z" />
    <glyph glyph-name="hyphen" unicode="-" horiz-adv-x="826" 
d="M117 493v269h610v-269h-610z" />
    <glyph glyph-name="period" unicode="." horiz-adv-x="540" 
d="M119 0v290h349v-290h-349z" />
    <glyph glyph-name="slash" unicode="/" horiz-adv-x="778" 
d="M-37 -125l596 1581h333l-597 -1581h-332z" />
    <glyph glyph-name="zero" unicode="0" horiz-adv-x="1171" 
d="M595 -21q-237 0 -375 150t-138 445v307q0 294 138 445t373 151q233 0 371.5 -151t138.5 -445v-307q0 -295 -137.5 -445t-370.5 -150zM595 246q77 0 118 70.5t41 237.5v349q0 164 -42 235t-119 71q-80 0 -121 -70.5t-41 -235.5v-349q0 -168 41 -238t123 -70z" />
    <glyph glyph-name="one" unicode="1" horiz-adv-x="943" 
d="M30 0v205l259 32v920l-261 3v194l611 102v-1219l259 -32v-205h-868z" />
    <glyph glyph-name="two" unicode="2" horiz-adv-x="1139" 
d="M65 0v225l469 494q63 72 100 127t53.5 101t16.5 89q0 71 -38 120.5t-114 49.5q-83 0 -123 -58.5t-40 -157.5h-343l-2 6q-3 135 58.5 244t177.5 173t273 64t269.5 -54.5t173 -153t60.5 -230.5q0 -90 -30.5 -165.5t-100 -161.5t-185.5 -208l-220 -233l2 -5h289l15 121h263
v-387h-1024z" />
    <glyph glyph-name="three" unicode="3" horiz-adv-x="1116" 
d="M569 -21q-143 0 -263.5 49.5t-191.5 145.5t-68 235l1 6h342q0 -46 22 -84.5t62.5 -61.5t95.5 -23q86 0 136.5 50t50.5 130q0 82 -55 134.5t-160 52.5h-149v259h159q59 0 99.5 21.5t61.5 60t21 89.5q0 72 -42.5 119t-121.5 47q-45 0 -80.5 -18t-56 -49.5t-20.5 -73.5h-341
l-2 6q-4 120 59.5 211t177.5 141.5t259 50.5q234 0 376.5 -107.5t142.5 -303.5q0 -109 -57.5 -186.5t-171.5 -132.5q115 -43 183.5 -130t68.5 -208q0 -133 -70 -229.5t-191.5 -148.5t-276.5 -52z" />
    <glyph glyph-name="four" unicode="4" horiz-adv-x="1140" 
d="M453 0v205l152 32v118h-557l-23 163l582 938h348v-882h142v-219h-142v-118l150 -32v-205h-652zM337 574h268v426l-6 2l-27 -35z" />
    <glyph glyph-name="five" unicode="5" horiz-adv-x="1099" 
d="M564 -21q-139 0 -258 52t-190 146.5t-68 220.5l2 4l344 23q0 -84 46.5 -131.5t123.5 -47.5q88 0 124.5 64t36.5 157q0 116 -41 184t-132 68q-62 0 -101.5 -28.5t-55.5 -69.5l-317 17l84 818h881v-359h-200l-30 88h-365l-38 -290q26 18 60.5 32t75 22.5t83.5 8.5
q144 3 243.5 -54t150.5 -167t51 -268q0 -136 -59 -247.5t-173 -177t-278 -65.5z" />
    <glyph glyph-name="six" unicode="6" horiz-adv-x="1144" 
d="M609 -21q-160 0 -281 71t-188.5 203t-67.5 314v293q0 191 78 329t215.5 213t316.5 75q87 0 154 -14.5t150 -47.5l-59 -254q-58 17 -117.5 29t-115.5 12q-138 0 -202 -82.5t-63 -237.5l3 -5q44 50 116 78t161 28q132 0 225 -64t141.5 -177t48.5 -259q0 -144 -66.5 -258
t-182.5 -180t-266 -66zM600 246q52 0 90.5 33t60.5 88.5t22 122.5q0 101 -48 163.5t-140 62.5q-31 0 -61.5 -7.5t-56.5 -21.5t-45 -35v-85q0 -154 48 -237.5t130 -83.5z" />
    <glyph glyph-name="seven" unicode="7" horiz-adv-x="1094" 
d="M313 0l13 142q20 205 73.5 392.5t142 352.5t212.5 301h-454l-9 -130h-259v398h1057v-268q-108 -125 -179.5 -243t-116.5 -240.5t-72 -260t-44 -302.5l-13 -142h-351z" />
    <glyph glyph-name="eight" unicode="8" horiz-adv-x="1105" 
d="M563 -21q-151 0 -266.5 49t-180.5 143.5t-65 228.5q0 116 62.5 204t171.5 140q-97 50 -151 133t-54 189q0 131 60 222.5t168.5 140t252.5 48.5q145 0 253.5 -48.5t168.5 -140t60 -222.5q0 -106 -54.5 -189t-150.5 -133q110 -52 171.5 -141t61.5 -203q0 -134 -63.5 -228.5
t-178 -143.5t-266.5 -49zM563 246q48 0 83.5 22.5t55 64t19.5 97.5q0 57 -20 97t-56 61.5t-84 21.5t-83.5 -21.5t-55.5 -62t-20 -96.5q0 -85 44 -134.5t117 -49.5zM563 879q42 0 70.5 20.5t43.5 58.5t15 90q0 50 -15 86t-44 55.5t-72 19.5q-64 0 -96.5 -42.5t-32.5 -118.5
q0 -79 32.5 -124t98.5 -45z" />
    <glyph glyph-name="nine" unicode="9" horiz-adv-x="1133" 
d="M495 -21q-76 0 -157.5 16t-152.5 46l35 250q64 -20 132.5 -32.5t122.5 -12.5q118 0 185.5 74t67.5 222v33q-55 -61 -121.5 -91t-143.5 -30q-121 0 -214.5 61t-146 173.5t-52.5 267.5q0 145 65 263t181 188t267 70q147 0 261.5 -72.5t180 -206.5t65.5 -319v-349
q0 -164 -75 -288.5t-204.5 -193.5t-295.5 -69zM565 704q41 0 82.5 15.5t72.5 44.5v158q0 140 -45 213.5t-113 73.5q-50 0 -86 -35.5t-55.5 -93.5t-19.5 -124q0 -77 17 -134t53 -87.5t94 -30.5z" />
    <glyph glyph-name="colon" unicode=":" horiz-adv-x="477" 
d="M57 0v290h349v-290h-349zM57 791v290h349v-290h-349z" />
    <glyph glyph-name="semicolon" unicode=";" horiz-adv-x="471" 
d="M55 791v290h349v-290h-349zM177 -397l-164 81q34 68 53 142.5t19 171.5v259h302l-1 -238q0 -130 -63 -236t-146 -180z" />
    <glyph glyph-name="less" unicode="&#x3c;" horiz-adv-x="1009" 
d="M936 45l-889 360v275l889 359v-316l-499 -170l-35 -10v-6l35 -9l499 -167v-316z" />
    <glyph glyph-name="equal" unicode="=" horiz-adv-x="1121" 
d="M108 726v269h935v-269h-935zM108 285v270h935v-270h-935z" />
    <glyph glyph-name="greater" unicode="&#x3e;" horiz-adv-x="1013" 
d="M91 43v316l478 170l47 11v6l-47 14l-478 162v315l881 -359v-275z" />
    <glyph glyph-name="question" unicode="?" horiz-adv-x="1006" 
d="M317 417q0 73 11 124t35.5 91t67.5 79t108 87q40 29 71 67.5t49.5 84t18.5 94.5q0 74 -41.5 117t-115.5 43q-61 0 -105 -34t-45 -105h-343l-2 6q-2 132 60 222.5t174 137t259 46.5q239 0 374.5 -115t135.5 -308q0 -88 -36 -164t-95.5 -139t-131.5 -115q-40 -29 -61.5 -59
t-29.5 -68.5t-8 -91.5h-350zM317 0v286h346v-286h-346z" />
    <glyph glyph-name="at" unicode="@" horiz-adv-x="1797" 
d="M882 -453q-270 0 -459 112.5t-283.5 321t-84.5 497.5q12 287 125 496t311 322.5t464 113.5q258 0 439 -107t272.5 -303t81.5 -465q-6 -154 -61.5 -280.5t-159 -201t-252.5 -74.5q-104 0 -167 45.5t-88 127.5q-82 -168 -247 -168q-151 0 -230.5 120t-58.5 325
q17 161 71 282.5t152.5 189.5t249.5 68q86 0 160.5 -25t167.5 -81l2 -4l-51 -566q-3 -56 3.5 -88.5t24.5 -46t47 -13.5q92 0 156.5 108.5t72.5 281.5q15 326 -134.5 511.5t-454.5 185.5q-200 0 -346.5 -91t-229.5 -260t-93 -403q-12 -228 56.5 -392.5t208 -253.5t339.5 -89
q83 0 174 19t158 46l37 -172q-66 -42 -169.5 -65.5t-203.5 -23.5zM853 178q41 0 80 27.5t70 101.5q2 3 3 9t2 23l38 417q-19 7 -40 11t-44 4q-100 0 -153 -88.5t-69 -266.5q-10 -118 17.5 -178t95.5 -60z" />
    <glyph glyph-name="A" unicode="A" horiz-adv-x="1499" 
d="M23 0v205l102 15l434 1236h380l435 -1236l102 -15v-205h-544v205l95 18l-44 158h-468l-42 -158l95 -18v-205h-545zM589 627h319l-142 441l-16 51h-6l-17 -56z" />
    <glyph glyph-name="B" unicode="B" horiz-adv-x="1358" 
d="M40 0v205l151 32v981l-151 32v206h151h508q275 0 429 -101t154 -301q0 -103 -49 -184.5t-151 -123.5q87 -19 142 -64.5t81 -110t26 -139.5q0 -214 -143 -323t-415 -109h-733zM542 267h231q104 0 156.5 41t52.5 125q0 63 -20 104.5t-62 62t-110 20.5h-248v-353zM542 852
h142q124 0 185.5 39.5t61.5 122.5q0 91 -57.5 132.5t-174.5 41.5h-157v-336z" />
    <glyph glyph-name="C" unicode="C" horiz-adv-x="1340" 
d="M755 -21q-208 0 -371 84t-256 243.5t-93 387.5v67q0 210 85.5 371.5t244 253t376.5 91.5q152 0 289.5 -40.5t255.5 -138.5v-375h-255l-35 215q-34 23 -71.5 40t-80 26t-91.5 9q-111 0 -194 -53t-128.5 -153.5t-45.5 -243.5v-69q0 -134 47 -235.5t131.5 -158.5t195.5 -57
q59 0 120 12.5t118 33.5l35 206h256v-367q-87 -60 -222 -104.5t-311 -44.5z" />
    <glyph glyph-name="D" unicode="D" horiz-adv-x="1470" 
d="M40 0v205l153 37v970l-153 38v206h153h529q197 0 349 -91.5t238 -253t86 -372.5v-23q0 -211 -86 -372.5t-238 -252.5t-349 -91h-682zM544 266h160q111 0 186 56t113.5 157.5t38.5 236.5v24q0 135 -38.5 236t-113.5 157t-186 56h-160v-923z" />
    <glyph glyph-name="E" unicode="E" horiz-adv-x="1309" 
d="M40 0v205l151 32v981l-151 32v206h1163v-420h-265l-8 150h-388v-299h465v-269h-465v-347h407l8 157h262v-428h-1179z" />
    <glyph glyph-name="F" unicode="F" horiz-adv-x="1271" 
d="M40 0v205l151 32v981l-151 32v206h1199v-429h-265l-7 159h-425v-337h495v-268h-495v-344l151 -32v-205h-653z" />
    <glyph glyph-name="G" unicode="G" horiz-adv-x="1390" 
d="M730 -21q-226 0 -382.5 88t-238.5 244.5t-82 362.5v66q0 217 81 383t235 260t372 94q149 0 299 -45.5t264 -143.5v-341h-250l-53 185q-34 35 -96.5 58t-140.5 23q-120 0 -201 -59.5t-121.5 -165.5t-40.5 -246v-68q0 -132 42.5 -229t124.5 -150t202 -53q63 0 125 13t97 29
v188l-164 20v242h516v-604q-118 -76 -266.5 -113.5t-321.5 -37.5z" />
    <glyph glyph-name="H" unicode="H" horiz-adv-x="1613" 
d="M40 0v205l151 32v981l-151 32v206h653v-206l-151 -32v-368h530v368l-151 32v206h151h350h151v-206l-151 -32v-981l151 -32v-205h-652v205l151 32v344h-530v-344l151 -32v-205h-653z" />
    <glyph glyph-name="I" unicode="I" horiz-adv-x="732" 
d="M40 0v205l151 32v981l-151 32v206h652v-206l-151 -32v-981l151 -32v-205h-652z" />
    <glyph glyph-name="J" unicode="J" horiz-adv-x="1222" 
d="M584 -21q-171 0 -295.5 54t-194 165.5t-75.5 284.5l2 6h327q10 -141 61.5 -189.5t129.5 -48.5q45 0 86.5 20t68.5 64.5t27 116.5v766l-198 33v205h699v-206l-152 -32v-766q0 -147 -57 -253t-165.5 -163t-263.5 -57z" />
    <glyph glyph-name="K" unicode="K" horiz-adv-x="1573" 
d="M451 317l-179 205l726 715l1 2l-165 11v206h680v-206l-137 -29zM40 0v205l151 32v981l-151 32v206h640v-206l-138 -32v-981l138 -32v-205h-640zM865 0v205l146 11h2l-350 479l245 217l510 -682l149 -25v-205h-702z" />
    <glyph glyph-name="L" unicode="L" horiz-adv-x="1194" 
d="M40 0v205l151 32v981l-151 32v206h151h351h184v-206l-184 -32v-949h346l8 203h268v-472h-1124z" />
    <glyph glyph-name="M" unicode="M" horiz-adv-x="2118" 
d="M32 0v205l150 32v981l-150 32v206h150h537l352 -959h6l342 959h679v-206l-151 -32v-981l151 -32v-205h-652v205l157 32v190l8 685l-6 1l-412 -1113h-276l-418 1100l-7 -1l24 -624v-238l169 -32v-205h-653z" />
    <glyph glyph-name="N" unicode="N" horiz-adv-x="1611" 
d="M39 0v205l150 32v981l-150 32v206h150h357l584 -932h6v694l-191 32v206h502h151v-206l-151 -32v-1218h-346l-595 912h-6v-675l192 -32v-205h-653z" />
    <glyph glyph-name="O" unicode="O" horiz-adv-x="1505" 
d="M753 -21q-151 0 -277.5 55.5t-219.5 155.5t-143.5 234.5t-50.5 292.5v23q0 157 50.5 291t143 234t218.5 156t277 56q148 0 275 -56t222.5 -156t148.5 -234t53 -291v-23q0 -158 -53 -292.5t-148 -234.5t-222 -155.5t-274 -55.5zM753 245q110 0 188 59t119 165t41 248v25
q0 139 -41.5 244.5t-119.5 164.5t-189 59q-117 0 -191.5 -58t-110.5 -163t-36 -247v-25q0 -142 36.5 -248.5t112 -165t191.5 -58.5z" />
    <glyph glyph-name="P" unicode="P" horiz-adv-x="1342" 
d="M40 0v205l151 32v981l-151 32v206h151h557q174 0 302 -61t197.5 -169.5t69.5 -252.5t-69.5 -252t-197.5 -168t-302 -60h-206v-256l151 -32v-205h-653zM542 762h206q107 0 162.5 58.5t55.5 150.5q0 95 -55.5 156t-162.5 61h-206v-426z" />
    <glyph glyph-name="Q" unicode="Q" horiz-adv-x="1494" 
d="M1328 -303l-448 290q-32 -3 -63 -5.5t-60 -2.5q-152 0 -279 55.5t-219.5 155t-143 234t-50.5 293.5v23q0 157 50.5 291.5t143 234.5t219 155.5t277.5 55.5q148 0 275 -55.5t222.5 -155.5t148.5 -234.5t53 -291.5v-23q0 -185 -82 -341.5t-201 -255.5l321 -187zM757 245
q113 0 190.5 59t117.5 165t40 248v25q0 139 -41.5 244.5t-119.5 164.5t-189 59q-118 0 -193 -58t-110.5 -163t-35.5 -247v-25q0 -142 37 -248.5t113 -165t191 -58.5z" />
    <glyph glyph-name="R" unicode="R" horiz-adv-x="1422" 
d="M40 0v205l151 32v981l-151 32v207h716q173 0 300 -55t196 -156.5t69 -240.5q0 -128 -69.5 -238t-190.5 -176.5t-276 -65.5l-243 3v-291l151 -32v-205h-653zM962 0l-196 568l305 104l177 -433l138 -35v-204h-424zM542 797h218q102 0 157 47.5t55 137.5q0 93 -56 149.5
t-160 56.5h-214v-391z" />
    <glyph glyph-name="S" unicode="S" horiz-adv-x="1272" 
d="M677 -21q-178 0 -316 34t-275 128v378h271l30 -194q32 -36 113 -60.5t177 -24.5q67 0 112 16.5t68 48.5t23 77q0 43 -21.5 77t-70.5 64.5t-132 62.5q-187 60 -307 122t-178.5 147t-58.5 211q0 121 69 211.5t190 142.5t277 55q178 4 315 -35.5t242 -119.5v-351h-260
l-41 195q-34 17 -97 31t-134 14q-61 0 -108.5 -16t-75 -48t-27.5 -80q0 -39 23 -69.5t81 -61t162 -70.5q248 -73 376.5 -182.5t128.5 -297.5q0 -129 -70 -219.5t-195 -138t-291 -47.5z" />
    <glyph glyph-name="T" unicode="T" horiz-adv-x="1379" 
d="M361 0v205l152 32v947h-225l-9 -157h-265v429h1353v-429h-268l-8 157h-227v-947l152 -32v-205h-655z" />
    <glyph glyph-name="U" unicode="U" horiz-adv-x="1575" 
d="M789 -21q-188 0 -327.5 60.5t-215.5 177.5t-76 286v715l-150 32v206h652v-206l-151 -32v-715q0 -88 31 -145.5t90.5 -85.5t144.5 -28q88 0 147.5 28t90 85.5t30.5 145.5v715l-150 32v206h652v-206l-151 -32v-715q0 -166 -78 -283.5t-216.5 -179t-322.5 -61.5z" />
    <glyph glyph-name="V" unicode="V" horiz-adv-x="1552" 
d="M609 0l-456 1234l-138 16v206h653v-206l-130 -20l261 -818l14 -57h6l13 54l253 821l-156 20v206h610v-206l-142 -16l-408 -1234h-380z" />
    <glyph glyph-name="W" unicode="W" horiz-adv-x="2247" 
d="M512 0l-336 1235l-165 15v206h657v-206l-162 -23l159 -651l23 -94h6l24 95l285 879h242l300 -920l21 -63h6l17 63l170 691l-167 23v206h644v-206l-155 -15l-351 -1235h-313l-251 753l-31 104h-6l-39 -110l-255 -747h-323z" />
    <glyph glyph-name="X" unicode="X" horiz-adv-x="1505" 
d="M8 0v205l129 26l387 479l-370 513l-112 27v206h629v-206l-140 -13l206 -289l214 289l-133 13v206h614v-206l-126 -27l-359 -471l406 -520l144 -27v-205h-648v205l116 12l-224 306l-233 -306l115 -12v-205h-615z" />
    <glyph glyph-name="Y" unicode="Y" horiz-adv-x="1537" 
d="M441 0v205l151 32v243l-422 749l-152 21v206h630v-206l-90 -16l200 -399l23 -51h9l24 48l234 402l-152 16v206h618v-206l-154 -21l-418 -721v-271l152 -32v-205h-653z" />
    <glyph glyph-name="Z" unicode="Z" horiz-adv-x="1244" 
d="M64 0v219l681 968h-367l-26 -185h-263l19 454h1078v-211l-683 -977h437l28 173h262l-29 -441h-1137z" />
    <glyph glyph-name="bracketleft" unicode="[" horiz-adv-x="611" 
d="M128 -351v2059h463v-254h-112v-1551h112v-254h-463z" />
    <glyph glyph-name="backslash" unicode="\" horiz-adv-x="862" 
d="M605 -125l-608 1581h351l608 -1581h-351z" />
    <glyph glyph-name="bracketright" unicode="]" horiz-adv-x="596" 
d="M20 -351v254h115v1551h-115v254h464v-2059h-464z" />
    <glyph glyph-name="asciicircum" unicode="^" horiz-adv-x="896" 
d="M29 729l299 727h260l300 -727h-262l-164 409l-3 12h-6l-1 -12l-162 -409h-261z" />
    <glyph glyph-name="underscore" unicode="_" horiz-adv-x="1048" 
d="M75 -206v206h903v-206h-903z" />
    <glyph glyph-name="grave" unicode="`" horiz-adv-x="648" 
d="M608 1287h-7h-281l-280 267l2 6h358z" />
    <glyph glyph-name="a" unicode="a" horiz-adv-x="1167" 
d="M426 -21q-157 0 -256 89t-99 237q0 101 54.5 179t164 122.5t274.5 44.5h113v64q0 65 -37 110.5t-117 45.5q-34 0 -63.5 -8.5t-53.5 -24.5l-24 -138h-247l-5 301q92 41 192.5 71t224.5 30q221 0 351 -101.5t130 -289.5v-399q0 -23 0.5 -45t4.5 -42l117 -20v-205h-410
q-13 18 -28 48t-21 60q-49 -61 -110 -95t-155 -34zM534 227q38 0 76.5 15.5t66.5 46.5v156h-109q-71 0 -109.5 -31t-38.5 -82q0 -49 32 -77t82 -28z" />
    <glyph glyph-name="b" unicode="b" horiz-adv-x="1203" 
d="M726 -21q-97 0 -163.5 38.5t-112.5 111.5l-23 -129h-303v1322l-150 32v206h500v-585q44 61 108.5 94t149.5 33q129 0 218.5 -69t136 -195.5t46.5 -298.5v-21q0 -164 -46.5 -285.5t-137 -187.5t-223.5 -66zM614 248q95 0 132.5 67t37.5 203v21q0 94 -16.5 159.5t-52.5 100
t-96 34.5q-49 0 -86.5 -23t-58.5 -63v-435q26 -34 61.5 -49t78.5 -15z" />
    <glyph glyph-name="c" unicode="c" horiz-adv-x="1092" 
d="M577 -21q-161 0 -277 71t-178 195t-62 283v23q0 163 64.5 287t180 194t269.5 70q155 0 265.5 -47t174.5 -98l-6 -341h-261l-42 196q-17 17 -45.5 28t-47.5 11q-75 0 -119 -32.5t-63 -98.5t-19 -169v-23q0 -107 25.5 -168.5t64.5 -87.5t80 -26q63 0 97.5 31.5t53.5 92.5
h294l4 -6q-24 -129 -75 -214.5t-141.5 -128t-236.5 -42.5z" />
    <glyph glyph-name="d" unicode="d" horiz-adv-x="1208" 
d="M467 -21q-127 0 -218.5 67t-140 188.5t-48.5 283.5v21q0 169 49 295.5t139.5 197t214.5 70.5q86 0 148.5 -35.5t109.5 -99.5v355l-152 32v206h152h351v-1323l126 -32v-205h-430l-26 134q-49 -76 -116 -115.5t-159 -39.5zM576 248q44 0 82 17t63 51v433q-25 41 -61.5 62.5
t-81.5 21.5q-60 0 -97 -37t-53.5 -103t-16.5 -154v-21q0 -129 36 -199.5t129 -70.5z" />
    <glyph glyph-name="e" unicode="e" horiz-adv-x="1090" 
d="M590 -21q-159 0 -277.5 68.5t-184 187.5t-65.5 269v37q0 165 58 292t170 198.5t275 70.5q147 0 248.5 -56.5t154.5 -166t53 -269.5v-181h-595l-1 -7q8 -51 34.5 -90.5t73.5 -62.5t116 -23q68 0 133.5 15.5t138.5 49.5l80 -212q-73 -52 -178 -86t-234 -34zM427 646h275v26
q0 58 -11.5 97t-39.5 59t-77 20q-53 0 -84.5 -25.5t-46 -70t-20.5 -101.5z" />
    <glyph glyph-name="f" unicode="f" horiz-adv-x="845" 
d="M85 0v205l127 32v603h-156v242h156v109q0 188 113.5 289t317.5 101q54 0 114 -8.5t94 -18.5l-26 -259q-28 8 -59 12t-66 4q-69 0 -103 -31t-34 -89v-109h251v-242h-251v-603l194 -32v-205h-672z" />
    <glyph glyph-name="g" unicode="g" horiz-adv-x="1224" 
d="M535 -437q-85 0 -194 21t-192 61l56 242q79 -31 159.5 -47.5t146.5 -16.5q108 0 158.5 59.5t50.5 162.5v51q-45 -56 -104.5 -86.5t-136.5 -30.5q-132 0 -226 67t-143.5 188.5t-49.5 283.5v21q0 169 49 295.5t140.5 197t218.5 70.5q94 0 160 -41t113 -115l22 136h309
v-1039q0 -144 -65.5 -252t-186 -168t-285.5 -60zM582 248q44 0 80 14.5t58 44.5v453q-22 36 -58 54.5t-80 18.5q-63 0 -100.5 -36.5t-54 -102.5t-16.5 -155v-21q0 -129 37 -199.5t134 -70.5zM1031 840l-158 242h322v-207z" />
    <glyph glyph-name="h" unicode="h" horiz-adv-x="1294" 
d="M46 0v205l127 32v1085l-152 32v206h501v-612q48 73 120 113.5t167 40.5q156 0 251 -111.5t95 -344.5v-409l126 -32v-205h-580v205l103 32v411q0 106 -35.5 145.5t-102.5 39.5q-46 0 -83 -16t-61 -51v-529l103 -32v-205h-579z" />
    <glyph glyph-name="i" unicode="i" horiz-adv-x="667" 
d="M46 0v205l127 32v607l-151 32v206h502v-845l126 -32v-205h-604zM163 1287v273h361v-273h-361z" />
    <glyph glyph-name="j" unicode="j" horiz-adv-x="647" 
d="M136 -437q-47 0 -85 3.5t-79 12.5l16 265q26 -6 45.5 -9.5t51.5 -3.5q56 0 86.5 41.5t30.5 117.5v854l-152 32v206h501v-1092q0 -205 -109 -316t-306 -111zM186 1287v273h361v-273h-361z" />
    <glyph glyph-name="k" unicode="k" horiz-adv-x="1334" 
d="M36 0v205l128 32v1085l-152 32v206h501v-1323l103 -32v-205h-580zM721 0v191l66 23l-2 4l-153 221l238 212l304 -410l121 -36v-205h-574zM472 285l-182 168l470 407v1l-108 18v203h623v-206l-140 -41z" />
    <glyph glyph-name="l" unicode="l" horiz-adv-x="653" 
d="M36 0v205l128 32v1085l-152 32v206h503v-1323l127 -32v-205h-606z" />
    <glyph glyph-name="m" unicode="m" horiz-adv-x="1880" 
d="M38 0v205l128 32v607l-152 32v206h481l11 -144q53 78 129 121t176 43q101 0 173.5 -43.5t109.5 -132.5q49 84 126.5 130t182.5 46q157 0 247 -106t90 -326v-433l128 -32v-205h-581v205l103 32v433q0 95 -29.5 129t-85.5 34q-46 0 -83 -17.5t-65 -50.5v-528l90 -32v-205
h-529v205l90 32v433q0 95 -29 129t-87 34q-45 0 -82 -17.5t-65 -51.5v-527l103 -32v-205h-580z" />
    <glyph glyph-name="n" unicode="n" horiz-adv-x="1285" 
d="M38 0v205l126 32v607l-150 32v206h482l12 -151q54 81 132.5 126t178.5 45q152 0 240 -103t88 -327v-435l126 -32v-205h-580v205l102 32v436q0 87 -35 123.5t-100 36.5q-49 0 -84 -17.5t-61 -52.5v-526l90 -32v-205h-567z" />
    <glyph glyph-name="o" unicode="o" horiz-adv-x="1174" 
d="M589 -21q-167 0 -285.5 69.5t-181 194t-62.5 288.5v20q0 162 62.5 286t180.5 194.5t284 70.5q167 0 284.5 -70t180 -194t62.5 -287v-20q0 -163 -62.5 -287.5t-180 -194.5t-282.5 -70zM589 246q64 0 102.5 34.5t56 98.5t17.5 152v20q0 85 -17.5 148.5t-56.5 99t-104 35.5
q-64 0 -103 -35.5t-56 -99t-17 -148.5v-20q0 -89 17 -153t56 -98t105 -34z" />
    <glyph glyph-name="p" unicode="p" horiz-adv-x="1267" 
d="M63 -416v206l134 32v1022l-152 32v206h481l12 -122q44 68 106 105t152 37q128 0 220 -70.5t141.5 -197.5t49.5 -295v-21q0 -162 -49.5 -283.5t-142.5 -188.5t-224 -67q-80 0 -140.5 30t-104.5 88v-275l122 -32v-206h-605zM687 246q95 0 132 71.5t37 200.5v21
q0 89 -17 155t-54.5 102.5t-99.5 36.5q-45 0 -81.5 -20t-57.5 -60v-441q21 -33 58 -49.5t83 -16.5z" />
    <glyph glyph-name="q" unicode="q" horiz-adv-x="1167" 
d="M547 -416v200l176 38v277q-46 -60 -106.5 -90t-143.5 -30q-130 0 -222.5 67t-141.5 188.5t-49 283.5v21q0 169 49 295.5t141 197t220 70.5q96 0 160.5 -41.5t111.5 -115.5l27 137h305v-1260l117 -30v-208h-644zM580 246q45 0 82.5 16t60.5 50v442q-23 40 -59 60t-82 20
q-62 0 -100 -36.5t-54.5 -103t-16.5 -155.5v-21q0 -130 36.5 -201t132.5 -71z" />
    <glyph glyph-name="r" unicode="r" horiz-adv-x="906" 
d="M93 0v205l126 32v607l-150 32v206h481l8 -132l2 -27q36 92 89.5 135.5t133.5 43.5q22 0 52 -3.5t61 -12.5l-35 -322l-150 7q-52 2 -81.5 -11.5t-59.5 -44.5v-478l126 -32v-205h-603z" />
    <glyph glyph-name="s" unicode="s" horiz-adv-x="1041" 
d="M536 -21q-128 0 -238.5 23.5t-199.5 64.5l-4 337h237l40 -157q21 -13 54 -22.5t79 -9.5q85 0 117 23t32 58q0 34 -36.5 62.5t-155.5 50.5q-190 37 -280 126.5t-90 223.5q0 91 42 168t137.5 124.5t255.5 47.5q122 0 232.5 -21t181.5 -53l-1 -326h-236l-30 140
q-23 16 -52 24t-65 8q-67 0 -98 -24t-31 -62q0 -22 13.5 -44t53.5 -42t117 -37q185 -41 278.5 -114t93.5 -222q0 -160 -114.5 -253.5t-332.5 -93.5z" />
    <glyph glyph-name="t" unicode="t" horiz-adv-x="738" 
d="M508 -23q-170 0 -258.5 90.5t-88.5 286.5v486h-135v242h135v267h349v-267h177v-242h-177v-485q0 -53 24 -74t66 -21q18 0 36 2t36 5l24 -262q-46 -13 -92.5 -20.5t-95.5 -7.5z" />
    <glyph glyph-name="u" unicode="u" horiz-adv-x="1293" 
d="M504 -21q-168 0 -264 106t-96 328v431l-116 32v206h116h351v-671q0 -80 33.5 -121.5t100.5 -41.5q39 0 77.5 14.5t68.5 43.5v538l-118 32v206h118h351v-845l135 -32v-205h-440l-23 123q-52 -70 -126.5 -107t-167.5 -37z" />
    <glyph glyph-name="v" unicode="v" horiz-adv-x="1272" 
d="M431 0l-291 856l-120 20v206h569v-205l-97 -20l115 -413l22 -82h6l27 82l151 412l-125 21v205h568v-206l-124 -24l-328 -852h-373z" />
    <glyph glyph-name="w" unicode="w" horiz-adv-x="1821" 
d="M391 0l-231 845l-139 31v206h570v-205l-102 -22l70 -347l11 -55h6l17 55l213 574h215l210 -589l15 -48h6l13 48l97 360l-120 24v205h559v-206l-130 -29l-272 -847h-282l-185 465l-25 85h-6l-24 -86l-171 -464h-315z" />
    <glyph glyph-name="x" unicode="x" horiz-adv-x="1391" 
d="M23 0v205l150 15l302 319l-279 323l-145 14v206h605v-193l-69 -14l117 -162l120 161l-79 15v193h579v-206l-127 -14l-267 -305l291 -337l146 -15v-205h-614v192l71 15l-123 155l-122 -157l77 -13v-192h-633z" />
    <glyph glyph-name="y" unicode="y" horiz-adv-x="1343" 
d="M396 -437q-46 0 -92.5 7.5t-95.5 21.5l42 251q20 -5 38.5 -7.5t38.5 -2.5q64 0 113.5 23.5t62.5 72.5l10 38l-348 888l-145 21v206h650v-206l-134 -20l145 -438l2 -8h6l171 449l-124 17v206h591v-206l-128 -18l-405 -1016q-29 -73 -78 -136.5t-127 -103t-193 -39.5z" />
    <glyph glyph-name="z" unicode="z" horiz-adv-x="1154" 
d="M88 0v193l547 653h-223l-38 -187h-255v423h932v-220l-492 -616h210l54 209h241v-455h-976z" />
    <glyph glyph-name="braceleft" unicode="{" horiz-adv-x="655" 
d="M543 -358q-195 56 -277.5 175.5t-82.5 291.5v202q0 91 -38.5 141t-120.5 50v235q82 0 120.5 50t38.5 144v201q0 171 82.5 290.5t277.5 174.5l66 -182q-70 -28 -97.5 -100.5t-27.5 -182.5v-201q0 -103 -46.5 -184t-140.5 -126q94 -48 140.5 -128.5t46.5 -181.5v-202
q0 -109 27.5 -182t97.5 -102z" />
    <glyph glyph-name="bar" unicode="|" horiz-adv-x="414" 
d="M121 -270v1726h186v-1726h-186z" />
    <glyph glyph-name="braceright" unicode="}" horiz-adv-x="665" 
d="M112 -358l-66 183q69 29 96.5 102t27.5 182v202q0 102 46.5 182t140.5 126q-94 48 -140.5 128.5t-46.5 183.5v201q0 110 -27.5 182.5t-96.5 100.5l66 182q194 -55 277.5 -174.5t83.5 -290.5v-201q0 -94 38 -144t119 -50v-235q-81 0 -119 -50t-38 -141v-202
q0 -172 -83.5 -291.5t-277.5 -175.5z" />
    <glyph glyph-name="asciitilde" unicode="~" horiz-adv-x="1284" 
d="M862 364q-76 0 -145.5 30.5t-143.5 97.5q-44 42 -74.5 59.5t-66.5 17.5q-47 0 -77 -50t-30 -118l-238 31q0 119 39.5 210.5t111.5 144t167 52.5q77 0 152.5 -33t144.5 -97q43 -41 74 -58.5t65 -17.5q46 0 76.5 49.5t30.5 119.5l239 -33q0 -117 -41 -208.5t-114 -144
t-170 -52.5z" />
    <glyph glyph-name="uni00A0" unicode="&#xa0;" horiz-adv-x="498" 
 />
    <glyph glyph-name="exclamdown" unicode="&#xa1;" horiz-adv-x="522" 
d="M67 565v-939h351v939h-351zM67 1082v-288h351v288h-351z" />
    <glyph glyph-name="cent" unicode="&#xa2;" horiz-adv-x="1076" 
d="M467 -245v234q-129 23 -219 96.5t-136.5 187t-46.5 255.5v23q0 138 47 249.5t137 187t218 101.5v229h202v-218q109 -9 196 -45t148 -95l1 -319h-286l-51 168q-14 10 -33 17.5t-51 7.5q-64 0 -103 -35t-56.5 -98.5t-17.5 -149.5v-23q0 -88 15 -151t51 -97t99 -34
q44 0 71.5 16.5t40.5 48t13 76.5h319l4 -6q2 -104 -43 -188t-126.5 -137.5t-190.5 -68.5v-232h-202z" />
    <glyph glyph-name="sterling" unicode="&#xa3;" horiz-adv-x="1176" 
d="M96 0v267h10q37 8 61 44.5t36.5 88.5t12.5 105l-3 66h-163v269h154l-7 179q0 214 125.5 336t336.5 122q225 0 349 -115.5t119 -306.5l-2 -6h-344q0 83 -35 121.5t-88 38.5q-54 0 -82.5 -49.5t-28.5 -140.5l10 -179h316v-269h-303l2 -45q0 -70 -32.5 -136.5t-94.5 -122.5
h411l9 130h258v-397h-1027z" />
    <glyph glyph-name="currency" unicode="&#xa4;" horiz-adv-x="1414" 
d="M1197 -27l-131 133q-77 -60 -169.5 -93t-191.5 -33q-101 0 -193 32.5t-166 92.5l-129 -131l-142 148l133 135q-49 76 -73.5 165t-24.5 186q0 101 27.5 192.5t79.5 170.5l-142 146l142 147l142 -144q74 55 161 84.5t185 29.5q95 0 184 -30t164 -86l144 147l144 -148
l-147 -150q50 -78 78 -168.5t28 -190.5q0 -97 -25 -184.5t-72 -162.5l138 -139zM705 178q85 0 158.5 32.5t129.5 91t87.5 137t31.5 169.5t-31.5 169t-87.5 136.5t-129.5 91t-158.5 32.5t-159.5 -32.5t-130.5 -91t-87.5 -136.5t-31.5 -169t31.5 -169t87.5 -136.5t130.5 -91.5
t159.5 -33z" />
    <glyph glyph-name="yen" unicode="&#xa5;" horiz-adv-x="1410" 
d="M380 0v205l150 32v41h-316v190h316v85h-316v191h239l-240 483l-183 23v206h594v-206l-56 -12l130 -333l7 -21l7 -5l5 15l135 344l-57 12v206h595v-206l-183 -24l-240 -482h202v-191h-288v-85h288v-190h-288v-41l126 -32v-205h-627z" />
    <glyph glyph-name="brokenbar" unicode="&#xa6;" horiz-adv-x="524" 
d="M124 -270v797h301v-797h-301zM124 698v758h301v-758h-301z" />
    <glyph glyph-name="section" unicode="&#xa7;" horiz-adv-x="1249" 
d="M640 -440q-159 0 -284.5 43t-196.5 134t-68 235l2 6l340 1q0 -55 26.5 -88t73 -47t107.5 -14q89 0 136.5 30.5t47.5 82.5q0 35 -22.5 61t-78 50t-153.5 52q-166 43 -274 97.5t-161 132.5t-53 191q0 86 39 154t115 115q-70 50 -105 121.5t-35 169.5q0 118 66.5 205.5
t187 136t283.5 48.5q252 0 393 -110.5t135 -309.5l-1 -6h-340q0 46 -22 81.5t-63.5 56t-101.5 20.5q-94 0 -139 -33.5t-45 -86.5q0 -40 20 -66t74 -48.5t157 -50.5q166 -40 274.5 -95t161.5 -134t53 -193q0 -89 -38 -155.5t-112 -111.5q67 -51 101.5 -123t34.5 -169
q0 -180 -145 -281.5t-390 -101.5zM806 347q18 23 28 52t10 65q0 39 -23 69t-79.5 57t-155.5 57q-35 9 -64 18.5t-58 18.5q-16 -24 -23.5 -52.5t-7.5 -63.5q0 -46 19 -75.5t73 -54t158 -56.5q23 -7 55.5 -15.5t67.5 -19.5z" />
    <glyph glyph-name="dieresis" unicode="&#xa8;" horiz-adv-x="876" 
d="M509 1287v273h327v-273h-327zM40 1287v273h327v-273h-327z" />
    <glyph glyph-name="copyright" unicode="&#xa9;" horiz-adv-x="1548" 
d="M773 -21q-148 0 -277 57.5t-226 160t-152 238.5t-55 294t55 293.5t152 237.5t226 159t277 57q147 0 276 -57t226.5 -159t152.5 -237.5t55 -293.5t-55 -294t-153 -238.5t-226.5 -160t-275.5 -57.5zM773 106q122 0 228 47.5t186.5 132.5t126 198t45.5 245t-45.5 244.5
t-126 197t-186.5 131.5t-228 47q-123 0 -229.5 -47t-187 -131.5t-125.5 -197.5t-45 -244q0 -132 45.5 -245t126 -198t187 -132.5t228.5 -47.5zM759 282q-160 0 -254.5 106t-94.5 281v119q0 173 94.5 280t254.5 107q157 0 246 -80t84 -229l-2 -6h-149q0 94 -44.5 136
t-134.5 42q-94 0 -143 -68t-49 -181v-120q0 -114 49 -181.5t143 -67.5q90 0 134 41t44 135h149l2 -6q5 -151 -83.5 -229.5t-245.5 -78.5z" />
    <glyph glyph-name="ordfeminine" unicode="&#xaa;" horiz-adv-x="850" 
d="M336 692q-119 0 -184 61t-65 167q0 112 84.5 172t246.5 60h137v50q0 62 -30 93.5t-86 31.5q-65 0 -101 -25.5t-36 -71.5l-166 13l-1 6q-6 98 79.5 163t224.5 65q135 0 213.5 -71t78.5 -205v-314q0 -51 6 -95t20 -86h-178q-8 21 -13 44.5t-8 48.5q-33 -46 -88.5 -76.5
t-133.5 -30.5zM379 839q34 0 70.5 14t65.5 36t40 45v99h-136q-73 0 -114.5 -31.5t-41.5 -77.5q0 -42 29 -63.5t87 -21.5z" />
    <glyph glyph-name="guillemotleft" unicode="&#xab;" horiz-adv-x="964" 
d="M241 115l-271 391v19l271 391h211l-231 -401l231 -400h-211zM674 115l-271 391v19l271 391h211l-231 -401l231 -400h-211z" />
    <glyph glyph-name="logicalnot" unicode="&#xac;" horiz-adv-x="1083" 
d="M743 373v259h-633v175h835v-434h-202z" />
    <glyph glyph-name="uni00AD" unicode="&#xad;" horiz-adv-x="826" 
d="M117 493v269h610v-269h-610z" />
    <glyph glyph-name="registered" unicode="&#xae;" horiz-adv-x="1548" 
d="M773 -21q-148 0 -277 57.5t-226 160t-152 238.5t-55 294t55 293.5t152 237.5t226 159t277 57q147 0 276 -57t226.5 -159t152.5 -237.5t55 -293.5t-55 -294t-153 -238.5t-226.5 -160t-275.5 -57.5zM773 106q122 0 228 47.5t186.5 132.5t126 198t45.5 245t-45.5 244.5
t-126 197t-186.5 131.5t-228 47q-123 0 -229.5 -47t-187 -131.5t-125.5 -197.5t-45 -244q0 -132 45.5 -245t126 -198t187 -132.5t228.5 -47.5zM477 316v850h282q150 0 237.5 -69.5t87.5 -195.5q0 -56 -26 -97t-79 -72q53 -33 77.5 -88t24.5 -129v-56q0 -41 3.5 -73.5
t13.5 -53.5v-16h-156q-9 21 -11 61.5t-2 82.5v54q0 71 -33.5 104.5t-108.5 33.5h-158v-336h-152zM629 789h127q74 -1 125.5 28.5t51.5 84.5q0 72 -39 100.5t-135 28.5h-130v-242z" />
    <glyph glyph-name="macron" unicode="&#xaf;" horiz-adv-x="817" 
d="M40 1288v195h737v-195h-737z" />
    <glyph glyph-name="degree" unicode="&#xb0;" horiz-adv-x="738" 
d="M377 915q-78 0 -142 37.5t-102 101.5t-38 141t38 141t102.5 102.5t141.5 38.5q76 0 138.5 -38.5t100.5 -102.5t38 -141q0 -78 -37 -141.5t-100 -101t-140 -37.5zM377 1073q52 0 86.5 34.5t34.5 87.5t-35.5 90t-85.5 37q-52 0 -88.5 -37t-36.5 -89q0 -53 36.5 -88
t88.5 -35z" />
    <glyph glyph-name="plusminus" unicode="&#xb1;" horiz-adv-x="1029" 
d="M364 359v364h-304v281h304v333h305v-333h307v-281h-307v-364h-305zM116 -1v273h833v-273h-833z" />
    <glyph glyph-name="uni00B2" unicode="&#xb2;" horiz-adv-x="821" 
d="M738 667v171h-336l-2 6l81 66q86 68 140.5 119t80.5 98t26 102q0 119 -80 184.5t-229 65.5q-101 0 -176.5 -36t-116 -96.5t-36.5 -134.5l2 -6h226q0 46 22.5 74.5t70.5 28.5q44 0 64 -23.5t20 -55.5q0 -40 -14.5 -71t-69.5 -76l-315 -245v-171h642z" />
    <glyph glyph-name="uni00B3" unicode="&#xb3;" horiz-adv-x="826" 
d="M387 1140h-99v-137h99q62 0 96 -26.5t34 -68.5q0 -41 -29 -61.5t-76 -20.5q-57 0 -85 20t-28 60h-223l-2 -6q-4 -76 38.5 -131t121 -84.5t182.5 -29.5q157 0 246 62t89 175q0 138 -146 187q61 24 96.5 69.5t35.5 100.5q0 110 -91.5 169.5t-246.5 59.5q-138 0 -228 -62.5
t-84 -168.5l2 -6h223q0 26 24 46.5t72 20.5q47 0 70.5 -23.5t23.5 -57.5q0 -87 -115 -87z" />
    <glyph glyph-name="acute" unicode="&#xb4;" horiz-adv-x="648" 
d="M40 1287l208 273h358l2 -6l-280 -267h-281h-7z" />
    <glyph glyph-name="uni00B5" unicode="&#xb5;" horiz-adv-x="1367" 
d="M200 -416v1260l-152 32v206h152h350v-619q0 -124 38 -168t120 -44q62 0 105.5 22t69.5 64v507l-152 32v206h501v-845l127 -32v-205h-456l-5 75q-39 -48 -91.5 -72t-119.5 -24q-34 0 -69.5 7t-67.5 20v-422h-350z" />
    <glyph glyph-name="paragraph" unicode="&#xb6;" horiz-adv-x="1150" 
d="M462 0v205l152 32v283h-83q-155 0 -265 59t-168.5 164.5t-58.5 244.5q0 138 58 243.5t168.5 165t265.5 59.5h584v-206l-150 -32v-981l150 -32v-205h-653z" />
    <glyph glyph-name="periodcentered" unicode="&#xb7;" horiz-adv-x="576" 
d="M137 534v290h349v-290h-349z" />
    <glyph glyph-name="cedilla" unicode="&#xb8;" horiz-adv-x="519" 
d="M71 -474l-7 191q53 0 83 17t30 53q0 40 -34.5 56t-102.5 18l30 149h262l-10 -64q68 -11 114 -50.5t46 -116.5q0 -115 -107.5 -184t-303.5 -69z" />
    <glyph glyph-name="uni00B9" unicode="&#xb9;" horiz-adv-x="529" 
d="M466 665v812l-360 -23v-175h127v-614h233z" />
    <glyph glyph-name="ordmasculine" unicode="&#xba;" horiz-adv-x="897" 
d="M450 691q-159 0 -253.5 92.5t-94.5 241.5v117q0 148 94.5 241.5t251.5 93.5q158 0 253 -93.5t95 -241.5v-117q0 -149 -94 -241.5t-252 -92.5zM450 840q82 0 126 50.5t44 134.5v117q0 83 -44.5 134t-127.5 51q-84 0 -127 -51t-43 -134v-117q0 -83 44 -134t128 -51z" />
    <glyph glyph-name="guillemotright" unicode="&#xbb;" horiz-adv-x="995" 
d="M39 150l229 400l-229 401h211l270 -391v-19l-270 -391h-211zM483 150l229 400l-229 401h211l270 -391v-19l-270 -391h-211z" />
    <glyph glyph-name="onequarter" unicode="&#xbc;" horiz-adv-x="1394" 
d="M203 664v614h-127v175l359 23v-812h-232zM352 116l-162 80l711 1138l162 -80zM1076 0v131h-406l-16 141l424 529h234v-496h86v-174h-86v-131h-236zM889 305h187v224l-6 2l-13 -18z" />
    <glyph glyph-name="onehalf" unicode="&#xbd;" horiz-adv-x="1443" 
d="M340 116l-162 80l711 1138l162 -80zM179 664v614h-127v175l359 23v-812h-232zM765 0v171l315 245q54 45 69 78t15 61q0 38 -20.5 62.5t-64.5 24.5q-47 0 -70 -28.5t-23 -74.5h-226l-2 6q-4 74 36.5 134.5t116 96.5t176.5 36q150 0 230 -64t80 -176q0 -61 -26 -109.5
t-80.5 -100t-140.5 -119.5l-82 -66l2 -6h337v-171h-642z" />
    <glyph glyph-name="threequarters" unicode="&#xbe;" horiz-adv-x="1601" 
d="M588 116l-162 80l711 1138l162 -80zM1261 0v131h-406l-16 141l424 529h234v-496h86v-174h-86v-131h-236zM1074 305h187v224l-6 2l-13 -18zM391 656q-104 0 -182.5 29.5t-121 84.5t-38.5 131l2 6h223q0 -40 28 -60t80 -20q53 0 81.5 20.5t28.5 60.5q0 43 -34 69.5
t-96 26.5h-99v137h99q115 0 115 84q0 36 -23 60t-72 24q-47 0 -71 -20.5t-24 -46.5h-223l-2 6q-6 106 86 168.5t240 62.5q145 0 234.5 -58t89.5 -160q0 -63 -35.5 -110t-96.5 -71q146 -49 146 -191q0 -110 -88.5 -171.5t-246.5 -61.5z" />
    <glyph glyph-name="questiondown" unicode="&#xbf;" horiz-adv-x="979" 
d="M761 666q0 -73 -11 -124t-35.5 -91t-67.5 -79t-108 -87q-40 -29 -71 -67.5t-49.5 -84t-18.5 -94.5q0 -74 41.5 -117t115.5 -43q61 0 105 34t45 105h343l2 -6q2 -132 -60 -222.5t-174 -137t-259 -46.5q-239 0 -374.5 115t-135.5 308q0 88 36 164t95.5 139t131.5 115
q40 29 61.5 59t29.5 68.5t8 91.5h350zM761 1083v-286h-346v286h346z" />
    <glyph glyph-name="Agrave" unicode="&#xc0;" horiz-adv-x="1499" 
d="M23 0v205l102 15l434 1236h380l435 -1236l102 -15v-205h-544v205l95 18l-44 158h-468l-42 -158l95 -18v-205h-545zM589 627h319l-142 441l-16 51h-6l-17 -56zM958 1561h-7h-281l-280 267l2 6h358z" />
    <glyph glyph-name="Aacute" unicode="&#xc1;" horiz-adv-x="1499" 
d="M23 0v205l102 15l434 1236h380l435 -1236l102 -15v-205h-544v205l95 18l-44 158h-468l-42 -158l95 -18v-205h-545zM589 627h319l-142 441l-16 51h-6l-17 -56zM542 1561l208 273h358l2 -6l-280 -267h-281h-7z" />
    <glyph glyph-name="Acircumflex" unicode="&#xc2;" horiz-adv-x="1499" 
d="M23 0v205l102 15l434 1236h380l435 -1236l102 -15v-205h-544v205l95 18l-44 158h-468l-42 -158l95 -18v-205h-545zM589 627h319l-142 441l-16 51h-6l-17 -56zM354 1561v26l260 247h276l256 -251v-22h-270l-125 142l-132 -142h-265z" />
    <glyph glyph-name="Atilde" unicode="&#xc3;" horiz-adv-x="1499" 
d="M23 0v205l102 15l434 1236h380l435 -1236l102 -15v-205h-544v205l95 18l-44 158h-468l-42 -158l95 -18v-205h-545zM589 627h319l-142 441l-16 51h-6l-17 -56zM537 1544l-179 50q0 70 34 129.5t89 95.5t117 36q51 0 103.5 -23.5t99.5 -47t80 -24.5q41 2 62 31.5t21 75.5
l178 -51q0 -72 -33.5 -131.5t-88.5 -95t-119 -35.5q-54 0 -106.5 24t-97.5 48t-79 24q-41 0 -61 -31.5t-20 -74.5z" />
    <glyph glyph-name="Adieresis" unicode="&#xc4;" horiz-adv-x="1499" 
d="M23 0v205l102 15l434 1236h380l435 -1236l102 -15v-205h-544v205l95 18l-44 158h-468l-42 -158l95 -18v-205h-545zM589 627h319l-142 441l-16 51h-6l-17 -56zM821 1561v273h327v-273h-327zM352 1561v273h327v-273h-327z" />
    <glyph glyph-name="Aring" unicode="&#xc5;" horiz-adv-x="1499" 
d="M23 0v205l102 15l434 1236h380l435 -1236l102 -15v-205h-544v205l95 18l-44 158h-468l-42 -158l95 -18v-205h-545zM589 627h319l-142 441l-16 51h-6l-17 -56zM752 1504q-108 0 -179.5 64t-71.5 163q0 98 72.5 164.5t178.5 66.5q105 0 176 -67t71 -164q0 -99 -71 -163
t-176 -64zM752 1638q41 0 64 25t23 68t-23 68.5t-64 25.5q-40 0 -66 -25.5t-26 -68.5t25.5 -68t66.5 -25z" />
    <glyph glyph-name="AE" unicode="&#xc6;" horiz-adv-x="2090" 
d="M75 0v205l138 20l643 1231h1078v-398h-259l-10 125h-299l14 -304h470v-272h-459l15 -335h322l10 125h258v-397h-1085v205l146 29l-5 122h-381l-66 -137l88 -14v-205h-618zM795 615h245l-20 457h-5l-11 -25z" />
    <glyph glyph-name="Ccedilla" unicode="&#xc7;" horiz-adv-x="1340" 
d="M755 -21q-208 0 -371 84t-256 243.5t-93 387.5v67q0 210 85.5 371.5t244 253t376.5 91.5q152 0 289.5 -40.5t255.5 -138.5v-375h-255l-35 215q-34 23 -71.5 40t-80 26t-91.5 9q-111 0 -194 -53t-128.5 -153.5t-45.5 -243.5v-69q0 -134 47 -235.5t131.5 -158.5t195.5 -57
q59 0 120 12.5t118 33.5l35 206h256v-367q-87 -60 -222 -104.5t-311 -44.5zM591 -474l-7 191q53 0 83 17t30 53q0 40 -34.5 56t-102.5 18l30 149h262l-10 -64q68 -11 114 -50.5t46 -116.5q0 -115 -107.5 -184t-303.5 -69z" />
    <glyph glyph-name="Egrave" unicode="&#xc8;" horiz-adv-x="1309" 
d="M40 0v205l151 32v981l-151 32v206h1163v-420h-265l-8 150h-388v-299h465v-269h-465v-347h407l8 157h262v-428h-1179zM863 1561h-7h-281l-280 267l2 6h358z" />
    <glyph glyph-name="Eacute" unicode="&#xc9;" horiz-adv-x="1309" 
d="M40 0v205l151 32v981l-151 32v206h1163v-420h-265l-8 150h-388v-299h465v-269h-465v-347h407l8 157h262v-428h-1179zM447 1561l208 273h358l2 -6l-280 -267h-281h-7z" />
    <glyph glyph-name="Ecircumflex" unicode="&#xca;" horiz-adv-x="1309" 
d="M40 0v205l151 32v981l-151 32v206h1163v-420h-265l-8 150h-388v-299h465v-269h-465v-347h407l8 157h262v-428h-1179zM259 1561v26l260 247h276l256 -251v-22h-270l-125 142l-132 -142h-265z" />
    <glyph glyph-name="Edieresis" unicode="&#xcb;" horiz-adv-x="1309" 
d="M40 0v205l151 32v981l-151 32v206h1163v-420h-265l-8 150h-388v-299h465v-269h-465v-347h407l8 157h262v-428h-1179zM726 1561v273h327v-273h-327zM257 1561v273h327v-273h-327z" />
    <glyph glyph-name="Igrave" unicode="&#xcc;" horiz-adv-x="732" 
d="M40 0v205l151 32v981l-151 32v206h652v-206l-151 -32v-981l151 -32v-205h-652zM575 1561h-7h-281l-280 267l2 6h358z" />
    <glyph glyph-name="Iacute" unicode="&#xcd;" horiz-adv-x="732" 
d="M40 0v205l151 32v981l-151 32v206h652v-206l-151 -32v-981l151 -32v-205h-652zM159 1561l208 273h358l2 -6l-280 -267h-281h-7z" />
    <glyph glyph-name="Icircumflex" unicode="&#xce;" horiz-adv-x="732" 
d="M40 0v205l151 32v981l-151 32v206h652v-206l-151 -32v-981l151 -32v-205h-652zM-29 1561v26l260 247h276l256 -251v-22h-270l-125 142l-132 -142h-265z" />
    <glyph glyph-name="Idieresis" unicode="&#xcf;" horiz-adv-x="732" 
d="M40 0v205l151 32v981l-151 32v206h652v-206l-151 -32v-981l151 -32v-205h-652zM438 1561v273h327v-273h-327zM-31 1561v273h327v-273h-327z" />
    <glyph glyph-name="Eth" unicode="&#xd0;" horiz-adv-x="1470" 
d="M40 0v205l153 37v970l-153 38v206h153h529q197 0 349 -91.5t238 -253t86 -372.5v-23q0 -211 -86 -372.5t-238 -252.5t-349 -91h-682zM544 266h160q111 0 186 56t113.5 157.5t38.5 236.5v24q0 135 -38.5 236t-113.5 157t-186 56h-160v-923zM23 664v155h694v-155h-694z" />
    <glyph glyph-name="Ntilde" unicode="&#xd1;" horiz-adv-x="1611" 
d="M39 0v205l150 32v981l-150 32v206h150h357l584 -932h6v694l-191 32v206h502h151v-206l-151 -32v-1218h-346l-595 912h-6v-675l192 -32v-205h-653zM593 1544l-179 50q0 70 34 129.5t89 95.5t117 36q51 0 103.5 -23.5t99.5 -47t80 -24.5q41 2 62 31.5t21 75.5l178 -51
q0 -72 -33.5 -131.5t-88.5 -95t-119 -35.5q-54 0 -106.5 24t-97.5 48t-79 24q-41 0 -61 -31.5t-20 -74.5z" />
    <glyph glyph-name="Ograve" unicode="&#xd2;" horiz-adv-x="1505" 
d="M753 -21q-151 0 -277.5 55.5t-219.5 155.5t-143.5 234.5t-50.5 292.5v23q0 157 50.5 291t143 234t218.5 156t277 56q148 0 275 -56t222.5 -156t148.5 -234t53 -291v-23q0 -158 -53 -292.5t-148 -234.5t-222 -155.5t-274 -55.5zM753 245q110 0 188 59t119 165t41 248v25
q0 139 -41.5 244.5t-119.5 164.5t-189 59q-117 0 -191.5 -58t-110.5 -163t-36 -247v-25q0 -142 36.5 -248.5t112 -165t191.5 -58.5zM961 1561h-7h-281l-280 267l2 6h358z" />
    <glyph glyph-name="Oacute" unicode="&#xd3;" horiz-adv-x="1505" 
d="M753 -21q-151 0 -277.5 55.5t-219.5 155.5t-143.5 234.5t-50.5 292.5v23q0 157 50.5 291t143 234t218.5 156t277 56q148 0 275 -56t222.5 -156t148.5 -234t53 -291v-23q0 -158 -53 -292.5t-148 -234.5t-222 -155.5t-274 -55.5zM753 245q110 0 188 59t119 165t41 248v25
q0 139 -41.5 244.5t-119.5 164.5t-189 59q-117 0 -191.5 -58t-110.5 -163t-36 -247v-25q0 -142 36.5 -248.5t112 -165t191.5 -58.5zM545 1561l208 273h358l2 -6l-280 -267h-281h-7z" />
    <glyph glyph-name="Ocircumflex" unicode="&#xd4;" horiz-adv-x="1505" 
d="M753 -21q-151 0 -277.5 55.5t-219.5 155.5t-143.5 234.5t-50.5 292.5v23q0 157 50.5 291t143 234t218.5 156t277 56q148 0 275 -56t222.5 -156t148.5 -234t53 -291v-23q0 -158 -53 -292.5t-148 -234.5t-222 -155.5t-274 -55.5zM753 245q110 0 188 59t119 165t41 248v25
q0 139 -41.5 244.5t-119.5 164.5t-189 59q-117 0 -191.5 -58t-110.5 -163t-36 -247v-25q0 -142 36.5 -248.5t112 -165t191.5 -58.5zM357 1561v26l260 247h276l256 -251v-22h-270l-125 142l-132 -142h-265z" />
    <glyph glyph-name="Otilde" unicode="&#xd5;" horiz-adv-x="1505" 
d="M753 -21q-151 0 -277.5 55.5t-219.5 155.5t-143.5 234.5t-50.5 292.5v23q0 157 50.5 291t143 234t218.5 156t277 56q148 0 275 -56t222.5 -156t148.5 -234t53 -291v-23q0 -158 -53 -292.5t-148 -234.5t-222 -155.5t-274 -55.5zM753 245q110 0 188 59t119 165t41 248v25
q0 139 -41.5 244.5t-119.5 164.5t-189 59q-117 0 -191.5 -58t-110.5 -163t-36 -247v-25q0 -142 36.5 -248.5t112 -165t191.5 -58.5zM540 1544l-179 50q0 70 34 129.5t89 95.5t117 36q51 0 103.5 -23.5t99.5 -47t80 -24.5q41 2 62 31.5t21 75.5l178 -51q0 -72 -33.5 -131.5
t-88.5 -95t-119 -35.5q-54 0 -106.5 24t-97.5 48t-79 24q-41 0 -61 -31.5t-20 -74.5z" />
    <glyph glyph-name="Odieresis" unicode="&#xd6;" horiz-adv-x="1505" 
d="M753 -21q-151 0 -277.5 55.5t-219.5 155.5t-143.5 234.5t-50.5 292.5v23q0 157 50.5 291t143 234t218.5 156t277 56q148 0 275 -56t222.5 -156t148.5 -234t53 -291v-23q0 -158 -53 -292.5t-148 -234.5t-222 -155.5t-274 -55.5zM753 245q110 0 188 59t119 165t41 248v25
q0 139 -41.5 244.5t-119.5 164.5t-189 59q-117 0 -191.5 -58t-110.5 -163t-36 -247v-25q0 -142 36.5 -248.5t112 -165t191.5 -58.5zM824 1561v273h327v-273h-327zM355 1561v273h327v-273h-327z" />
    <glyph glyph-name="multiply" unicode="&#xd7;" horiz-adv-x="1067" 
d="M249 196l-199 187l298 304l-298 303l199 187l290 -295l290 295l199 -187l-297 -303l297 -304l-199 -187l-290 296z" />
    <glyph glyph-name="Oslash" unicode="&#xd8;" horiz-adv-x="1505" 
d="M753 -21q-151 0 -277.5 55.5t-219.5 155.5t-143.5 234.5t-50.5 292.5v23q0 157 50.5 291t143 234t218.5 156t277 56q148 0 275 -56t222.5 -156t148.5 -234t53 -291v-23q0 -158 -53 -292.5t-148 -234.5t-222 -155.5t-274 -55.5zM753 245q110 0 188 59t119 165t41 248v25
q0 139 -41.5 244.5t-119.5 164.5t-189 59q-117 0 -191.5 -58t-110.5 -163t-36 -247v-25q0 -142 36.5 -248.5t112 -165t191.5 -58.5zM189 -80l930 1615h197l-930 -1615h-197z" />
    <glyph glyph-name="Ugrave" unicode="&#xd9;" horiz-adv-x="1575" 
d="M789 -21q-188 0 -327.5 60.5t-215.5 177.5t-76 286v715l-150 32v206h652v-206l-151 -32v-715q0 -88 31 -145.5t90.5 -85.5t144.5 -28q88 0 147.5 28t90 85.5t30.5 145.5v715l-150 32v206h652v-206l-151 -32v-715q0 -166 -78 -283.5t-216.5 -179t-322.5 -61.5zM996 1561
h-7h-281l-280 267l2 6h358z" />
    <glyph glyph-name="Uacute" unicode="&#xda;" horiz-adv-x="1575" 
d="M789 -21q-188 0 -327.5 60.5t-215.5 177.5t-76 286v715l-150 32v206h652v-206l-151 -32v-715q0 -88 31 -145.5t90.5 -85.5t144.5 -28q88 0 147.5 28t90 85.5t30.5 145.5v715l-150 32v206h652v-206l-151 -32v-715q0 -166 -78 -283.5t-216.5 -179t-322.5 -61.5zM580 1561
l208 273h358l2 -6l-280 -267h-281h-7z" />
    <glyph glyph-name="Ucircumflex" unicode="&#xdb;" horiz-adv-x="1575" 
d="M789 -21q-188 0 -327.5 60.5t-215.5 177.5t-76 286v715l-150 32v206h652v-206l-151 -32v-715q0 -88 31 -145.5t90.5 -85.5t144.5 -28q88 0 147.5 28t90 85.5t30.5 145.5v715l-150 32v206h652v-206l-151 -32v-715q0 -166 -78 -283.5t-216.5 -179t-322.5 -61.5zM392 1561
v26l260 247h276l256 -251v-22h-270l-125 142l-132 -142h-265z" />
    <glyph glyph-name="Udieresis" unicode="&#xdc;" horiz-adv-x="1575" 
d="M789 -21q-188 0 -327.5 60.5t-215.5 177.5t-76 286v715l-150 32v206h652v-206l-151 -32v-715q0 -88 31 -145.5t90.5 -85.5t144.5 -28q88 0 147.5 28t90 85.5t30.5 145.5v715l-150 32v206h652v-206l-151 -32v-715q0 -166 -78 -283.5t-216.5 -179t-322.5 -61.5zM859 1561
v273h327v-273h-327zM390 1561v273h327v-273h-327z" />
    <glyph glyph-name="Yacute" unicode="&#xdd;" horiz-adv-x="1537" 
d="M441 0v205l151 32v243l-422 749l-152 21v206h630v-206l-90 -16l200 -399l23 -51h9l24 48l234 402l-152 16v206h618v-206l-154 -21l-418 -721v-271l152 -32v-205h-653zM561 1561l208 273h358l2 -6l-280 -267h-281h-7z" />
    <glyph glyph-name="Thorn" unicode="&#xde;" horiz-adv-x="1300" 
d="M65 0v205l152 32v981l-152 32v206h503h151v-206l-151 -32v-59h170q262 0 407 -116.5t145 -305.5q0 -190 -145 -307t-407 -117h-170v-76l151 -32v-205h-654zM568 572h170q68 0 112.5 21t66.5 58t22 84t-22 84.5t-66.5 59t-112.5 21.5h-170v-328z" />
    <glyph glyph-name="germandbls" unicode="&#xdf;" horiz-adv-x="1341" 
d="M845 -21q-48 0 -94.5 5t-84.5 15.5t-63 26.5l61 262q32 -18 78 -30t106 -12q56 0 94 33t38 89q0 43 -27.5 84.5t-67.5 84t-80.5 88.5t-68 99t-27.5 115q0 44 13.5 89t32 90t32 88t13.5 81q0 53 -30.5 90t-90.5 37q-70 0 -109 -54.5t-39 -143.5v-1116h-502v205l150 32v876
q0 151 61 255.5t174 158.5t269 54q138 0 243.5 -47.5t165.5 -133.5t60 -202q0 -49 -14 -94.5t-32 -87t-32 -80t-14 -73.5q0 -49 27 -88t67 -76.5t80.5 -82t67.5 -104.5t27 -144q0 -129 -54 -215.5t-161.5 -130t-268.5 -43.5z" />
    <glyph glyph-name="agrave" unicode="&#xe0;" horiz-adv-x="1167" 
d="M426 -21q-157 0 -256 89t-99 237q0 101 54.5 179t164 122.5t274.5 44.5h113v64q0 65 -37 110.5t-117 45.5q-34 0 -63.5 -8.5t-53.5 -24.5l-24 -138h-247l-5 301q92 41 192.5 71t224.5 30q221 0 351 -101.5t130 -289.5v-399q0 -23 0.5 -45t4.5 -42l117 -20v-205h-410
q-13 18 -28 48t-21 60q-49 -61 -110 -95t-155 -34zM534 227q38 0 76.5 15.5t66.5 46.5v156h-109q-71 0 -109.5 -31t-38.5 -82q0 -49 32 -77t82 -28zM763 1287h-7h-281l-280 267l2 6h358z" />
    <glyph glyph-name="aacute" unicode="&#xe1;" horiz-adv-x="1167" 
d="M426 -21q-157 0 -256 89t-99 237q0 101 54.5 179t164 122.5t274.5 44.5h113v64q0 65 -37 110.5t-117 45.5q-34 0 -63.5 -8.5t-53.5 -24.5l-24 -138h-247l-5 301q92 41 192.5 71t224.5 30q221 0 351 -101.5t130 -289.5v-399q0 -23 0.5 -45t4.5 -42l117 -20v-205h-410
q-13 18 -28 48t-21 60q-49 -61 -110 -95t-155 -34zM534 227q38 0 76.5 15.5t66.5 46.5v156h-109q-71 0 -109.5 -31t-38.5 -82q0 -49 32 -77t82 -28zM347 1287l208 273h358l2 -6l-280 -267h-281h-7z" />
    <glyph glyph-name="acircumflex" unicode="&#xe2;" horiz-adv-x="1167" 
d="M426 -21q-157 0 -256 89t-99 237q0 101 54.5 179t164 122.5t274.5 44.5h113v64q0 65 -37 110.5t-117 45.5q-34 0 -63.5 -8.5t-53.5 -24.5l-24 -138h-247l-5 301q92 41 192.5 71t224.5 30q221 0 351 -101.5t130 -289.5v-399q0 -23 0.5 -45t4.5 -42l117 -20v-205h-410
q-13 18 -28 48t-21 60q-49 -61 -110 -95t-155 -34zM534 227q38 0 76.5 15.5t66.5 46.5v156h-109q-71 0 -109.5 -31t-38.5 -82q0 -49 32 -77t82 -28zM159 1287v26l260 247h276l256 -251v-22h-270l-125 142l-132 -142h-265z" />
    <glyph glyph-name="atilde" unicode="&#xe3;" horiz-adv-x="1167" 
d="M426 -21q-157 0 -256 89t-99 237q0 101 54.5 179t164 122.5t274.5 44.5h113v64q0 65 -37 110.5t-117 45.5q-34 0 -63.5 -8.5t-53.5 -24.5l-24 -138h-247l-5 301q92 41 192.5 71t224.5 30q221 0 351 -101.5t130 -289.5v-399q0 -23 0.5 -45t4.5 -42l117 -20v-205h-410
q-13 18 -28 48t-21 60q-49 -61 -110 -95t-155 -34zM534 227q38 0 76.5 15.5t66.5 46.5v156h-109q-71 0 -109.5 -31t-38.5 -82q0 -49 32 -77t82 -28zM342 1270l-179 50q0 70 34 129.5t89 95.5t117 36q51 0 103.5 -23.5t99.5 -47t80 -24.5q41 2 62 31.5t21 75.5l178 -51
q0 -72 -33.5 -131.5t-88.5 -95t-119 -35.5q-54 0 -106.5 24t-97.5 48t-79 24q-41 0 -61 -31.5t-20 -74.5z" />
    <glyph glyph-name="adieresis" unicode="&#xe4;" horiz-adv-x="1167" 
d="M426 -21q-157 0 -256 89t-99 237q0 101 54.5 179t164 122.5t274.5 44.5h113v64q0 65 -37 110.5t-117 45.5q-34 0 -63.5 -8.5t-53.5 -24.5l-24 -138h-247l-5 301q92 41 192.5 71t224.5 30q221 0 351 -101.5t130 -289.5v-399q0 -23 0.5 -45t4.5 -42l117 -20v-205h-410
q-13 18 -28 48t-21 60q-49 -61 -110 -95t-155 -34zM534 227q38 0 76.5 15.5t66.5 46.5v156h-109q-71 0 -109.5 -31t-38.5 -82q0 -49 32 -77t82 -28zM626 1287v273h327v-273h-327zM157 1287v273h327v-273h-327z" />
    <glyph glyph-name="aring" unicode="&#xe5;" horiz-adv-x="1167" 
d="M426 -21q-157 0 -256 89t-99 237q0 101 54.5 179t164 122.5t274.5 44.5h113v64q0 65 -37 110.5t-117 45.5q-34 0 -63.5 -8.5t-53.5 -24.5l-24 -138h-247l-5 301q92 41 192.5 71t224.5 30q221 0 351 -101.5t130 -289.5v-399q0 -23 0.5 -45t4.5 -42l117 -20v-205h-410
q-13 18 -28 48t-21 60q-49 -61 -110 -95t-155 -34zM534 227q38 0 76.5 15.5t66.5 46.5v156h-109q-71 0 -109.5 -31t-38.5 -82q0 -49 32 -77t82 -28zM557 1230q-108 0 -179.5 64t-71.5 163q0 98 72.5 164.5t178.5 66.5q105 0 176 -67t71 -164q0 -99 -71 -163t-176 -64z
M557 1364q41 0 64 25t23 68t-23 68.5t-64 25.5q-40 0 -66 -25.5t-26 -68.5t25.5 -68t66.5 -25z" />
    <glyph glyph-name="ae" unicode="&#xe6;" horiz-adv-x="1710" 
d="M456 -21q-179 0 -282 89t-103 237q0 101 54.5 179t164 122.5t274.5 44.5h113v64q0 65 -37 110.5t-117 45.5q-34 0 -63.5 -8.5t-53.5 -24.5l-24 -138h-247l-5 301q92 41 192.5 71t224.5 30q103 0 185.5 -29.5t138.5 -91.5q42 42 90 68.5t103.5 39.5t118.5 13
q141 0 244 -60.5t159 -170.5t56 -260v-182h-613l-2 -7q6 -82 59 -129t162 -47q80 0 138.5 16t136.5 50l83 -213q-67 -49 -182 -84.5t-233 -35.5q-238 0 -366 136q-73 -64 -161.5 -100t-207.5 -36zM535 227q28 0 58 8t58 24t49 40q-13 32 -18 69t-5 66v11h-109
q-71 0 -109.5 -31t-38.5 -82q0 -49 32 -77t83 -28zM1029 646h272v27q0 77 -36 119t-95 42q-42 0 -73 -21.5t-49 -62t-21 -99.5z" />
    <glyph glyph-name="ccedilla" unicode="&#xe7;" horiz-adv-x="1092" 
d="M577 -21q-161 0 -277 71t-178 195t-62 283v23q0 163 64.5 287t180 194t269.5 70q155 0 265.5 -47t174.5 -98l-6 -341h-261l-42 196q-17 17 -45.5 28t-47.5 11q-75 0 -119 -32.5t-63 -98.5t-19 -169v-23q0 -107 25.5 -168.5t64.5 -87.5t80 -26q63 0 97.5 31.5t53.5 92.5
h294l4 -6q-24 -129 -75 -214.5t-141.5 -128t-236.5 -42.5zM420 -474l-7 191q53 0 83 17t30 53q0 40 -34.5 56t-102.5 18l30 149h262l-10 -64q68 -11 114 -50.5t46 -116.5q0 -115 -107.5 -184t-303.5 -69z" />
    <glyph glyph-name="egrave" unicode="&#xe8;" horiz-adv-x="1090" 
d="M590 -21q-159 0 -277.5 68.5t-184 187.5t-65.5 269v37q0 165 58 292t170 198.5t275 70.5q147 0 248.5 -56.5t154.5 -166t53 -269.5v-181h-595l-1 -7q8 -51 34.5 -90.5t73.5 -62.5t116 -23q68 0 133.5 15.5t138.5 49.5l80 -212q-73 -52 -178 -86t-234 -34zM427 646h275v26
q0 58 -11.5 97t-39.5 59t-77 20q-53 0 -84.5 -25.5t-46 -70t-20.5 -101.5zM766 1287h-7h-281l-280 267l2 6h358z" />
    <glyph glyph-name="eacute" unicode="&#xe9;" horiz-adv-x="1090" 
d="M590 -21q-159 0 -277.5 68.5t-184 187.5t-65.5 269v37q0 165 58 292t170 198.5t275 70.5q147 0 248.5 -56.5t154.5 -166t53 -269.5v-181h-595l-1 -7q8 -51 34.5 -90.5t73.5 -62.5t116 -23q68 0 133.5 15.5t138.5 49.5l80 -212q-73 -52 -178 -86t-234 -34zM427 646h275v26
q0 58 -11.5 97t-39.5 59t-77 20q-53 0 -84.5 -25.5t-46 -70t-20.5 -101.5zM350 1287l208 273h358l2 -6l-280 -267h-281h-7z" />
    <glyph glyph-name="ecircumflex" unicode="&#xea;" horiz-adv-x="1090" 
d="M590 -21q-159 0 -277.5 68.5t-184 187.5t-65.5 269v37q0 165 58 292t170 198.5t275 70.5q147 0 248.5 -56.5t154.5 -166t53 -269.5v-181h-595l-1 -7q8 -51 34.5 -90.5t73.5 -62.5t116 -23q68 0 133.5 15.5t138.5 49.5l80 -212q-73 -52 -178 -86t-234 -34zM427 646h275v26
q0 58 -11.5 97t-39.5 59t-77 20q-53 0 -84.5 -25.5t-46 -70t-20.5 -101.5zM162 1287v26l260 247h276l256 -251v-22h-270l-125 142l-132 -142h-265z" />
    <glyph glyph-name="edieresis" unicode="&#xeb;" horiz-adv-x="1090" 
d="M590 -21q-159 0 -277.5 68.5t-184 187.5t-65.5 269v37q0 165 58 292t170 198.5t275 70.5q147 0 248.5 -56.5t154.5 -166t53 -269.5v-181h-595l-1 -7q8 -51 34.5 -90.5t73.5 -62.5t116 -23q68 0 133.5 15.5t138.5 49.5l80 -212q-73 -52 -178 -86t-234 -34zM427 646h275v26
q0 58 -11.5 97t-39.5 59t-77 20q-53 0 -84.5 -25.5t-46 -70t-20.5 -101.5zM629 1287v273h327v-273h-327zM160 1287v273h327v-273h-327z" />
    <glyph glyph-name="igrave" unicode="&#xec;" horiz-adv-x="667" 
d="M46 0v205l127 32v607l-151 32v206h502v-845l126 -32v-205h-604zM552 1287h-7h-281l-280 267l2 6h358z" />
    <glyph glyph-name="iacute" unicode="&#xed;" horiz-adv-x="667" 
d="M46 0v205l127 32v607l-151 32v206h502v-845l126 -32v-205h-604zM136 1287l208 273h358l2 -6l-280 -267h-281h-7z" />
    <glyph glyph-name="icircumflex" unicode="&#xee;" horiz-adv-x="667" 
d="M46 0v205l127 32v607l-151 32v206h502v-845l126 -32v-205h-604zM-52 1287v26l260 247h276l256 -251v-22h-270l-125 142l-132 -142h-265z" />
    <glyph glyph-name="idieresis" unicode="&#xef;" horiz-adv-x="667" 
d="M46 0v205l127 32v607l-151 32v206h502v-845l126 -32v-205h-604zM415 1287v273h327v-273h-327zM-54 1287v273h327v-273h-327z" />
    <glyph glyph-name="eth" unicode="&#xf0;" horiz-adv-x="1233" 
d="M612 -21q-167 0 -294 65t-198 179.5t-71 260.5q0 143 58.5 250t170 166.5t268.5 59.5q76 0 141 -15.5t114 -46.5l4 3q-20 61 -57 115.5t-87 102.5l-205 -112l-79 120l156 84q-34 17 -69.5 30.5t-69.5 23.5l112 252q92 -20 176 -55.5t157 -85.5l192 106l77 -120l-153 -82
q113 -115 174.5 -267.5t61.5 -334.5v-62q0 -187 -76 -330.5t-207 -225t-296 -81.5zM606 246q77 0 129 47.5t78.5 130.5t26.5 192v14v19q-32 29 -86.5 46.5t-119.5 17.5q-79 0 -131.5 -28t-78.5 -80t-26 -125q0 -70 27 -123t74 -82t107 -29z" />
    <glyph glyph-name="ntilde" unicode="&#xf1;" horiz-adv-x="1285" 
d="M38 0v205l126 32v607l-150 32v206h482l12 -151q54 81 132.5 126t178.5 45q152 0 240 -103t88 -327v-435l126 -32v-205h-580v205l102 32v436q0 87 -35 123.5t-100 36.5q-49 0 -84 -17.5t-61 -52.5v-526l90 -32v-205h-567zM430 1270l-179 50q0 70 34 129.5t89 95.5t117 36
q51 0 103.5 -23.5t99.5 -47t80 -24.5q41 2 62 31.5t21 75.5l178 -51q0 -72 -33.5 -131.5t-88.5 -95t-119 -35.5q-54 0 -106.5 24t-97.5 48t-79 24q-41 0 -61 -31.5t-20 -74.5z" />
    <glyph glyph-name="ograve" unicode="&#xf2;" horiz-adv-x="1174" 
d="M589 -21q-167 0 -285.5 69.5t-181 194t-62.5 288.5v20q0 162 62.5 286t180.5 194.5t284 70.5q167 0 284.5 -70t180 -194t62.5 -287v-20q0 -163 -62.5 -287.5t-180 -194.5t-282.5 -70zM589 246q64 0 102.5 34.5t56 98.5t17.5 152v20q0 85 -17.5 148.5t-56.5 99t-104 35.5
q-64 0 -103 -35.5t-56 -99t-17 -148.5v-20q0 -89 17 -153t56 -98t105 -34zM796 1287h-7h-281l-280 267l2 6h358z" />
    <glyph glyph-name="oacute" unicode="&#xf3;" horiz-adv-x="1174" 
d="M589 -21q-167 0 -285.5 69.5t-181 194t-62.5 288.5v20q0 162 62.5 286t180.5 194.5t284 70.5q167 0 284.5 -70t180 -194t62.5 -287v-20q0 -163 -62.5 -287.5t-180 -194.5t-282.5 -70zM589 246q64 0 102.5 34.5t56 98.5t17.5 152v20q0 85 -17.5 148.5t-56.5 99t-104 35.5
q-64 0 -103 -35.5t-56 -99t-17 -148.5v-20q0 -89 17 -153t56 -98t105 -34zM380 1287l208 273h358l2 -6l-280 -267h-281h-7z" />
    <glyph glyph-name="ocircumflex" unicode="&#xf4;" horiz-adv-x="1174" 
d="M589 -21q-167 0 -285.5 69.5t-181 194t-62.5 288.5v20q0 162 62.5 286t180.5 194.5t284 70.5q167 0 284.5 -70t180 -194t62.5 -287v-20q0 -163 -62.5 -287.5t-180 -194.5t-282.5 -70zM589 246q64 0 102.5 34.5t56 98.5t17.5 152v20q0 85 -17.5 148.5t-56.5 99t-104 35.5
q-64 0 -103 -35.5t-56 -99t-17 -148.5v-20q0 -89 17 -153t56 -98t105 -34zM192 1287v26l260 247h276l256 -251v-22h-270l-125 142l-132 -142h-265z" />
    <glyph glyph-name="otilde" unicode="&#xf5;" horiz-adv-x="1174" 
d="M589 -21q-167 0 -285.5 69.5t-181 194t-62.5 288.5v20q0 162 62.5 286t180.5 194.5t284 70.5q167 0 284.5 -70t180 -194t62.5 -287v-20q0 -163 -62.5 -287.5t-180 -194.5t-282.5 -70zM589 246q64 0 102.5 34.5t56 98.5t17.5 152v20q0 85 -17.5 148.5t-56.5 99t-104 35.5
q-64 0 -103 -35.5t-56 -99t-17 -148.5v-20q0 -89 17 -153t56 -98t105 -34zM375 1270l-179 50q0 70 34 129.5t89 95.5t117 36q51 0 103.5 -23.5t99.5 -47t80 -24.5q41 2 62 31.5t21 75.5l178 -51q0 -72 -33.5 -131.5t-88.5 -95t-119 -35.5q-54 0 -106.5 24t-97.5 48t-79 24
q-41 0 -61 -31.5t-20 -74.5z" />
    <glyph glyph-name="odieresis" unicode="&#xf6;" horiz-adv-x="1174" 
d="M589 -21q-167 0 -285.5 69.5t-181 194t-62.5 288.5v20q0 162 62.5 286t180.5 194.5t284 70.5q167 0 284.5 -70t180 -194t62.5 -287v-20q0 -163 -62.5 -287.5t-180 -194.5t-282.5 -70zM589 246q64 0 102.5 34.5t56 98.5t17.5 152v20q0 85 -17.5 148.5t-56.5 99t-104 35.5
q-64 0 -103 -35.5t-56 -99t-17 -148.5v-20q0 -89 17 -153t56 -98t105 -34zM659 1287v273h327v-273h-327zM190 1287v273h327v-273h-327z" />
    <glyph glyph-name="divide" unicode="&#xf7;" horiz-adv-x="1124" 
d="M45 558v251h1046v-251h-1046zM394 154v252h350v-252h-350zM394 957v251h350v-251h-350z" />
    <glyph glyph-name="oslash" unicode="&#xf8;" horiz-adv-x="1174" 
d="M589 -21q-167 0 -285.5 69.5t-181 194t-62.5 288.5v20q0 162 62.5 286t180.5 194.5t284 70.5q167 0 284.5 -70t180 -194t62.5 -287v-20q0 -163 -62.5 -287.5t-180 -194.5t-282.5 -70zM589 246q64 0 102.5 34.5t56 98.5t17.5 152v20q0 85 -17.5 148.5t-56.5 99t-104 35.5
q-64 0 -103 -35.5t-56 -99t-17 -148.5v-20q0 -89 17 -153t56 -98t105 -34zM165 -141l663 1364h182l-662 -1364h-183z" />
    <glyph glyph-name="ugrave" unicode="&#xf9;" horiz-adv-x="1293" 
d="M504 -21q-168 0 -264 106t-96 328v431l-116 32v206h116h351v-671q0 -80 33.5 -121.5t100.5 -41.5q39 0 77.5 14.5t68.5 43.5v538l-118 32v206h118h351v-845l135 -32v-205h-440l-23 123q-52 -70 -126.5 -107t-167.5 -37zM852 1287h-7h-281l-280 267l2 6h358z" />
    <glyph glyph-name="uacute" unicode="&#xfa;" horiz-adv-x="1293" 
d="M504 -21q-168 0 -264 106t-96 328v431l-116 32v206h116h351v-671q0 -80 33.5 -121.5t100.5 -41.5q39 0 77.5 14.5t68.5 43.5v538l-118 32v206h118h351v-845l135 -32v-205h-440l-23 123q-52 -70 -126.5 -107t-167.5 -37zM436 1287l208 273h358l2 -6l-280 -267h-281h-7z
" />
    <glyph glyph-name="ucircumflex" unicode="&#xfb;" horiz-adv-x="1293" 
d="M504 -21q-168 0 -264 106t-96 328v431l-116 32v206h116h351v-671q0 -80 33.5 -121.5t100.5 -41.5q39 0 77.5 14.5t68.5 43.5v538l-118 32v206h118h351v-845l135 -32v-205h-440l-23 123q-52 -70 -126.5 -107t-167.5 -37zM248 1287v26l260 247h276l256 -251v-22h-270
l-125 142l-132 -142h-265z" />
    <glyph glyph-name="udieresis" unicode="&#xfc;" horiz-adv-x="1293" 
d="M504 -21q-168 0 -264 106t-96 328v431l-116 32v206h116h351v-671q0 -80 33.5 -121.5t100.5 -41.5q39 0 77.5 14.5t68.5 43.5v538l-118 32v206h118h351v-845l135 -32v-205h-440l-23 123q-52 -70 -126.5 -107t-167.5 -37zM715 1287v273h327v-273h-327zM246 1287v273h327
v-273h-327z" />
    <glyph glyph-name="yacute" unicode="&#xfd;" horiz-adv-x="1343" 
d="M396 -437q-46 0 -92.5 7.5t-95.5 21.5l42 251q20 -5 38.5 -7.5t38.5 -2.5q64 0 113.5 23.5t62.5 72.5l10 38l-348 888l-145 21v206h650v-206l-134 -20l145 -438l2 -8h6l171 449l-124 17v206h591v-206l-128 -18l-405 -1016q-29 -73 -78 -136.5t-127 -103t-193 -39.5z
M470 1287l208 273h358l2 -6l-280 -267h-281h-7z" />
    <glyph glyph-name="thorn" unicode="&#xfe;" horiz-adv-x="1261" 
d="M64 -416v206l127 32v1500l-151 32v206h501v-587q43 62 103 95.5t146 33.5q129 0 221 -70.5t141 -197.5t49 -295v-21q0 -162 -49.5 -283.5t-142.5 -188.5t-224 -67q-80 0 -140.5 30t-103.5 88v-275l127 -32v-206h-604zM679 246q96 0 133.5 71.5t37.5 200.5v21
q0 89 -17.5 155t-55.5 102.5t-100 36.5q-43 0 -79.5 -19.5t-56.5 -59.5v-443q20 -33 56.5 -49t81.5 -16z" />
    <glyph glyph-name="ydieresis" unicode="&#xff;" horiz-adv-x="1343" 
d="M396 -437q-46 0 -92.5 7.5t-95.5 21.5l42 251q20 -5 38.5 -7.5t38.5 -2.5q64 0 113.5 23.5t62.5 72.5l10 38l-348 888l-145 21v206h650v-206l-134 -20l145 -438l2 -8h6l171 449l-124 17v206h591v-206l-128 -18l-405 -1016q-29 -73 -78 -136.5t-127 -103t-193 -39.5z
M749 1287v273h327v-273h-327zM280 1287v273h327v-273h-327z" />
    <glyph glyph-name="Amacron" unicode="&#x100;" horiz-adv-x="1499" 
d="M23 0v205l102 15l434 1236h380l435 -1236l102 -15v-205h-544v205l95 18l-44 158h-468l-42 -158l95 -18v-205h-545zM589 627h319l-142 441l-16 51h-6l-17 -56zM381 1562v195h737v-195h-737z" />
    <glyph glyph-name="amacron" unicode="&#x101;" horiz-adv-x="1167" 
d="M426 -21q-157 0 -256 89t-99 237q0 101 54.5 179t164 122.5t274.5 44.5h113v64q0 65 -37 110.5t-117 45.5q-34 0 -63.5 -8.5t-53.5 -24.5l-24 -138h-247l-5 301q92 41 192.5 71t224.5 30q221 0 351 -101.5t130 -289.5v-399q0 -23 0.5 -45t4.5 -42l117 -20v-205h-410
q-13 18 -28 48t-21 60q-49 -61 -110 -95t-155 -34zM534 227q38 0 76.5 15.5t66.5 46.5v156h-109q-71 0 -109.5 -31t-38.5 -82q0 -49 32 -77t82 -28zM186 1288v195h737v-195h-737z" />
    <glyph glyph-name="Abreve" unicode="&#x102;" horiz-adv-x="1499" 
d="M23 0v205l102 15l434 1236h380l435 -1236l102 -15v-205h-544v205l95 18l-44 158h-468l-42 -158l95 -18v-205h-545zM589 627h319l-142 441l-16 51h-6l-17 -56zM751 1532q-172 0 -274.5 83t-95.5 213l2 6h228q0 -50 33.5 -83.5t106.5 -33.5q71 0 104 32.5t33 84.5h229l2 -6
q5 -130 -96 -213t-272 -83z" />
    <glyph glyph-name="abreve" unicode="&#x103;" horiz-adv-x="1167" 
d="M426 -21q-157 0 -256 89t-99 237q0 101 54.5 179t164 122.5t274.5 44.5h113v64q0 65 -37 110.5t-117 45.5q-34 0 -63.5 -8.5t-53.5 -24.5l-24 -138h-247l-5 301q92 41 192.5 71t224.5 30q221 0 351 -101.5t130 -289.5v-399q0 -23 0.5 -45t4.5 -42l117 -20v-205h-410
q-13 18 -28 48t-21 60q-49 -61 -110 -95t-155 -34zM534 227q38 0 76.5 15.5t66.5 46.5v156h-109q-71 0 -109.5 -31t-38.5 -82q0 -49 32 -77t82 -28zM556 1258q-172 0 -274.5 83t-95.5 213l2 6h228q0 -50 33.5 -83.5t106.5 -33.5q71 0 104 32.5t33 84.5h229l2 -6
q5 -130 -96 -213t-272 -83z" />
    <glyph glyph-name="Aogonek" unicode="&#x104;" horiz-adv-x="1499" 
d="M23 0v205l102 15l434 1236h380l435 -1236l102 -15v-205h-544v205l95 18l-44 158h-468l-42 -158l95 -18v-205h-545zM589 627h319l-142 441l-16 51h-6l-17 -56zM1362 -419q-118 0 -193.5 59t-75.5 165q0 71 50 142.5t173 114.5l160 -62q-75 -41 -104 -76.5t-29 -74.5
q0 -35 19.5 -51t61.5 -16q22 0 40.5 3t33.5 7l36 -173q-33 -16 -74 -27t-98 -11z" />
    <glyph glyph-name="aogonek" unicode="&#x105;" horiz-adv-x="1167" 
d="M426 -21q-157 0 -256 89t-99 237q0 101 54.5 179t164 122.5t274.5 44.5h113v64q0 65 -37 110.5t-117 45.5q-34 0 -63.5 -8.5t-53.5 -24.5l-24 -138h-247l-5 301q92 41 192.5 71t224.5 30q221 0 351 -101.5t130 -289.5v-399q0 -23 0.5 -45t4.5 -42l117 -20v-205h-410
q-13 18 -28 48t-21 60q-49 -61 -110 -95t-155 -34zM534 227q38 0 76.5 15.5t66.5 46.5v156h-109q-71 0 -109.5 -31t-38.5 -82q0 -49 32 -77t82 -28zM1037 -419q-118 0 -193.5 59t-75.5 165q0 71 50 142.5t173 114.5l160 -62q-75 -41 -104 -76.5t-29 -74.5q0 -35 19.5 -51
t61.5 -16q22 0 40.5 3t33.5 7l36 -173q-33 -16 -74 -27t-98 -11z" />
    <glyph glyph-name="Cacute" unicode="&#x106;" horiz-adv-x="1340" 
d="M755 -21q-208 0 -371 84t-256 243.5t-93 387.5v67q0 210 85.5 371.5t244 253t376.5 91.5q152 0 289.5 -40.5t255.5 -138.5v-375h-255l-35 215q-34 23 -71.5 40t-80 26t-91.5 9q-111 0 -194 -53t-128.5 -153.5t-45.5 -243.5v-69q0 -134 47 -235.5t131.5 -158.5t195.5 -57
q59 0 120 12.5t118 33.5l35 206h256v-367q-87 -60 -222 -104.5t-311 -44.5zM516 1561l208 273h358l2 -6l-280 -267h-281h-7z" />
    <glyph glyph-name="cacute" unicode="&#x107;" horiz-adv-x="1092" 
d="M577 -21q-161 0 -277 71t-178 195t-62 283v23q0 163 64.5 287t180 194t269.5 70q155 0 265.5 -47t174.5 -98l-6 -341h-261l-42 196q-17 17 -45.5 28t-47.5 11q-75 0 -119 -32.5t-63 -98.5t-19 -169v-23q0 -107 25.5 -168.5t64.5 -87.5t80 -26q63 0 97.5 31.5t53.5 92.5
h294l4 -6q-24 -129 -75 -214.5t-141.5 -128t-236.5 -42.5zM345 1287l208 273h358l2 -6l-280 -267h-281h-7z" />
    <glyph glyph-name="Ccircumflex" unicode="&#x108;" horiz-adv-x="1340" 
d="M755 -21q-208 0 -371 84t-256 243.5t-93 387.5v67q0 210 85.5 371.5t244 253t376.5 91.5q152 0 289.5 -40.5t255.5 -138.5v-375h-255l-35 215q-34 23 -71.5 40t-80 26t-91.5 9q-111 0 -194 -53t-128.5 -153.5t-45.5 -243.5v-69q0 -134 47 -235.5t131.5 -158.5t195.5 -57
q59 0 120 12.5t118 33.5l35 206h256v-367q-87 -60 -222 -104.5t-311 -44.5zM328 1561v26l260 247h276l256 -251v-22h-270l-125 142l-132 -142h-265z" />
    <glyph glyph-name="ccircumflex" unicode="&#x109;" horiz-adv-x="1092" 
d="M577 -21q-161 0 -277 71t-178 195t-62 283v23q0 163 64.5 287t180 194t269.5 70q155 0 265.5 -47t174.5 -98l-6 -341h-261l-42 196q-17 17 -45.5 28t-47.5 11q-75 0 -119 -32.5t-63 -98.5t-19 -169v-23q0 -107 25.5 -168.5t64.5 -87.5t80 -26q63 0 97.5 31.5t53.5 92.5
h294l4 -6q-24 -129 -75 -214.5t-141.5 -128t-236.5 -42.5zM157 1287v26l260 247h276l256 -251v-22h-270l-125 142l-132 -142h-265z" />
    <glyph glyph-name="Cdotaccent" unicode="&#x10a;" horiz-adv-x="1340" 
d="M755 -21q-208 0 -371 84t-256 243.5t-93 387.5v67q0 210 85.5 371.5t244 253t376.5 91.5q152 0 289.5 -40.5t255.5 -138.5v-375h-255l-35 215q-34 23 -71.5 40t-80 26t-91.5 9q-111 0 -194 -53t-128.5 -153.5t-45.5 -243.5v-69q0 -134 47 -235.5t131.5 -158.5t195.5 -57
q59 0 120 12.5t118 33.5l35 206h256v-367q-87 -60 -222 -104.5t-311 -44.5zM543 1561v273h361v-273h-361z" />
    <glyph glyph-name="cdotaccent" unicode="&#x10b;" horiz-adv-x="1092" 
d="M577 -21q-161 0 -277 71t-178 195t-62 283v23q0 163 64.5 287t180 194t269.5 70q155 0 265.5 -47t174.5 -98l-6 -341h-261l-42 196q-17 17 -45.5 28t-47.5 11q-75 0 -119 -32.5t-63 -98.5t-19 -169v-23q0 -107 25.5 -168.5t64.5 -87.5t80 -26q63 0 97.5 31.5t53.5 92.5
h294l4 -6q-24 -129 -75 -214.5t-141.5 -128t-236.5 -42.5zM372 1287v273h361v-273h-361z" />
    <glyph glyph-name="Ccaron" unicode="&#x10c;" horiz-adv-x="1340" 
d="M755 -21q-208 0 -371 84t-256 243.5t-93 387.5v67q0 210 85.5 371.5t244 253t376.5 91.5q152 0 289.5 -40.5t255.5 -138.5v-375h-255l-35 215q-34 23 -71.5 40t-80 26t-91.5 9q-111 0 -194 -53t-128.5 -153.5t-45.5 -243.5v-69q0 -134 47 -235.5t131.5 -158.5t195.5 -57
q59 0 120 12.5t118 33.5l35 206h256v-367q-87 -60 -222 -104.5t-311 -44.5zM1120 1834v-26l-260 -247h-276l-256 251v22h270l125 -142l132 142h265z" />
    <glyph glyph-name="ccaron" unicode="&#x10d;" horiz-adv-x="1092" 
d="M577 -21q-161 0 -277 71t-178 195t-62 283v23q0 163 64.5 287t180 194t269.5 70q155 0 265.5 -47t174.5 -98l-6 -341h-261l-42 196q-17 17 -45.5 28t-47.5 11q-75 0 -119 -32.5t-63 -98.5t-19 -169v-23q0 -107 25.5 -168.5t64.5 -87.5t80 -26q63 0 97.5 31.5t53.5 92.5
h294l4 -6q-24 -129 -75 -214.5t-141.5 -128t-236.5 -42.5zM949 1560v-26l-260 -247h-276l-256 251v22h270l125 -142l132 142h265z" />
    <glyph glyph-name="Dcaron" unicode="&#x10e;" horiz-adv-x="1470" 
d="M40 0v205l153 37v970l-153 38v206h153h529q197 0 349 -91.5t238 -253t86 -372.5v-23q0 -211 -86 -372.5t-238 -252.5t-349 -91h-682zM544 266h160q111 0 186 56t113.5 157.5t38.5 236.5v24q0 135 -38.5 236t-113.5 157t-186 56h-160v-923zM1088 1834v-26l-260 -247h-276
l-256 251v22h270l125 -142l132 142h265z" />
    <glyph glyph-name="dcaron" unicode="&#x10f;" horiz-adv-x="1210" 
d="M467 -21q-127 0 -218.5 67t-140 188.5t-48.5 283.5v21q0 169 49 295.5t139.5 197t214.5 70.5q86 0 148.5 -35.5t109.5 -99.5v355l-152 32v206h152h351v-1323l126 -32v-205h-430l-26 134q-49 -76 -116 -115.5t-159 -39.5zM576 248q44 0 82 17t63 51v433q-25 41 -61.5 62.5
t-81.5 21.5q-60 0 -97 -37t-53.5 -103t-16.5 -154v-21q0 -129 36 -199.5t129 -70.5zM1294 1141l-165 99q30 48 46 97t16 126v97h287v-77q0 -97 -55.5 -190t-128.5 -152z" />
    <glyph glyph-name="Dcroat" unicode="&#x110;" horiz-adv-x="1470" 
d="M40 0v205l153 37v970l-153 38v206h153h529q197 0 349 -91.5t238 -253t86 -372.5v-23q0 -211 -86 -372.5t-238 -252.5t-349 -91h-682zM544 266h160q111 0 186 56t113.5 157.5t38.5 236.5v24q0 135 -38.5 236t-113.5 157t-186 56h-160v-923zM23 664v155h694v-155h-694z" />
    <glyph glyph-name="dcroat" unicode="&#x111;" horiz-adv-x="1208" 
d="M467 -21q-127 0 -218.5 67t-140 188.5t-48.5 283.5v21q0 169 49 295.5t139.5 197t214.5 70.5q86 0 148.5 -35.5t109.5 -99.5v355l-152 32v206h152h351v-1323l126 -32v-205h-430l-26 134q-49 -76 -116 -115.5t-159 -39.5zM576 248q44 0 82 17t63 51v433q-25 41 -61.5 62.5
t-81.5 21.5q-60 0 -97 -37t-53.5 -103t-16.5 -154v-21q0 -129 36 -199.5t129 -70.5zM530 1120v155h694v-155h-694z" />
    <glyph glyph-name="Emacron" unicode="&#x112;" horiz-adv-x="1309" 
d="M40 0v205l151 32v981l-151 32v206h1163v-420h-265l-8 150h-388v-299h465v-269h-465v-347h407l8 157h262v-428h-1179zM286 1562v195h737v-195h-737z" />
    <glyph glyph-name="emacron" unicode="&#x113;" horiz-adv-x="1090" 
d="M590 -21q-159 0 -277.5 68.5t-184 187.5t-65.5 269v37q0 165 58 292t170 198.5t275 70.5q147 0 248.5 -56.5t154.5 -166t53 -269.5v-181h-595l-1 -7q8 -51 34.5 -90.5t73.5 -62.5t116 -23q68 0 133.5 15.5t138.5 49.5l80 -212q-73 -52 -178 -86t-234 -34zM427 646h275v26
q0 58 -11.5 97t-39.5 59t-77 20q-53 0 -84.5 -25.5t-46 -70t-20.5 -101.5zM189 1288v195h737v-195h-737z" />
    <glyph glyph-name="Ebreve" unicode="&#x114;" horiz-adv-x="1309" 
d="M40 0v205l151 32v981l-151 32v206h1163v-420h-265l-8 150h-388v-299h465v-269h-465v-347h407l8 157h262v-428h-1179zM656 1532q-172 0 -274.5 83t-95.5 213l2 6h228q0 -50 33.5 -83.5t106.5 -33.5q71 0 104 32.5t33 84.5h229l2 -6q5 -130 -96 -213t-272 -83z" />
    <glyph glyph-name="ebreve" unicode="&#x115;" horiz-adv-x="1090" 
d="M590 -21q-159 0 -277.5 68.5t-184 187.5t-65.5 269v37q0 165 58 292t170 198.5t275 70.5q147 0 248.5 -56.5t154.5 -166t53 -269.5v-181h-595l-1 -7q8 -51 34.5 -90.5t73.5 -62.5t116 -23q68 0 133.5 15.5t138.5 49.5l80 -212q-73 -52 -178 -86t-234 -34zM427 646h275v26
q0 58 -11.5 97t-39.5 59t-77 20q-53 0 -84.5 -25.5t-46 -70t-20.5 -101.5zM559 1258q-172 0 -274.5 83t-95.5 213l2 6h228q0 -50 33.5 -83.5t106.5 -33.5q71 0 104 32.5t33 84.5h229l2 -6q5 -130 -96 -213t-272 -83z" />
    <glyph glyph-name="Edotaccent" unicode="&#x116;" horiz-adv-x="1309" 
d="M40 0v205l151 32v981l-151 32v206h1163v-420h-265l-8 150h-388v-299h465v-269h-465v-347h407l8 157h262v-428h-1179zM474 1561v273h361v-273h-361z" />
    <glyph glyph-name="edotaccent" unicode="&#x117;" horiz-adv-x="1090" 
d="M590 -21q-159 0 -277.5 68.5t-184 187.5t-65.5 269v37q0 165 58 292t170 198.5t275 70.5q147 0 248.5 -56.5t154.5 -166t53 -269.5v-181h-595l-1 -7q8 -51 34.5 -90.5t73.5 -62.5t116 -23q68 0 133.5 15.5t138.5 49.5l80 -212q-73 -52 -178 -86t-234 -34zM427 646h275v26
q0 58 -11.5 97t-39.5 59t-77 20q-53 0 -84.5 -25.5t-46 -70t-20.5 -101.5zM377 1287v273h361v-273h-361z" />
    <glyph glyph-name="Eogonek" unicode="&#x118;" horiz-adv-x="1309" 
d="M40 0v205l151 32v981l-151 32v206h1163v-420h-265l-8 150h-388v-299h465v-269h-465v-347h407l8 157h262v-428h-1179zM1105 -419q-118 0 -193.5 59t-75.5 165q0 71 50 142.5t173 114.5l160 -62q-75 -41 -104 -76.5t-29 -74.5q0 -35 19.5 -51t61.5 -16q22 0 40.5 3t33.5 7
l36 -173q-33 -16 -74 -27t-98 -11z" />
    <glyph glyph-name="eogonek" unicode="&#x119;" horiz-adv-x="1090" 
d="M590 -21q-159 0 -277.5 68.5t-184 187.5t-65.5 269v37q0 165 58 292t170 198.5t275 70.5q147 0 248.5 -56.5t154.5 -166t53 -269.5v-181h-595l-1 -7q8 -51 34.5 -90.5t73.5 -62.5t116 -23q68 0 133.5 15.5t138.5 49.5l80 -212q-73 -52 -178 -86t-234 -34zM427 646h275v26
q0 58 -11.5 97t-39.5 59t-77 20q-53 0 -84.5 -25.5t-46 -70t-20.5 -101.5zM798 -419q-120 0 -196.5 61t-76.5 168q0 85 73 167.5t258 133.5l52 -65q-75 -43 -104 -87t-29 -94q0 -45 20.5 -64t64.5 -19q22 0 40.5 3t33.5 7l36 -173q-33 -16 -74 -27t-98 -11z" />
    <glyph glyph-name="Ecaron" unicode="&#x11a;" horiz-adv-x="1309" 
d="M40 0v205l151 32v981l-151 32v206h1163v-420h-265l-8 150h-388v-299h465v-269h-465v-347h407l8 157h262v-428h-1179zM1051 1834v-26l-260 -247h-276l-256 251v22h270l125 -142l132 142h265z" />
    <glyph glyph-name="ecaron" unicode="&#x11b;" horiz-adv-x="1090" 
d="M590 -21q-159 0 -277.5 68.5t-184 187.5t-65.5 269v37q0 165 58 292t170 198.5t275 70.5q147 0 248.5 -56.5t154.5 -166t53 -269.5v-181h-595l-1 -7q8 -51 34.5 -90.5t73.5 -62.5t116 -23q68 0 133.5 15.5t138.5 49.5l80 -212q-73 -52 -178 -86t-234 -34zM427 646h275v26
q0 58 -11.5 97t-39.5 59t-77 20q-53 0 -84.5 -25.5t-46 -70t-20.5 -101.5zM954 1560v-26l-260 -247h-276l-256 251v22h270l125 -142l132 142h265z" />
    <glyph glyph-name="Gcircumflex" unicode="&#x11c;" horiz-adv-x="1390" 
d="M730 -21q-226 0 -382.5 88t-238.5 244.5t-82 362.5v66q0 217 81 383t235 260t372 94q149 0 299 -45.5t264 -143.5v-341h-250l-53 185q-34 35 -96.5 58t-140.5 23q-120 0 -201 -59.5t-121.5 -165.5t-40.5 -246v-68q0 -132 42.5 -229t124.5 -150t202 -53q63 0 125 13t97 29
v188l-164 20v242h516v-604q-118 -76 -266.5 -113.5t-321.5 -37.5zM299 1561v26l260 247h276l256 -251v-22h-270l-125 142l-132 -142h-265z" />
    <glyph glyph-name="gcircumflex" unicode="&#x11d;" horiz-adv-x="1224" 
d="M535 -437q-85 0 -194 21t-192 61l56 242q79 -31 159.5 -47.5t146.5 -16.5q108 0 158.5 59.5t50.5 162.5v51q-45 -56 -104.5 -86.5t-136.5 -30.5q-132 0 -226 67t-143.5 188.5t-49.5 283.5v21q0 169 49 295.5t140.5 197t218.5 70.5q94 0 160 -41t113 -115l22 136h309
v-1039q0 -144 -65.5 -252t-186 -168t-285.5 -60zM582 248q44 0 80 14.5t58 44.5v453q-22 36 -58 54.5t-80 18.5q-63 0 -100.5 -36.5t-54 -102.5t-16.5 -155v-21q0 -129 37 -199.5t134 -70.5zM1031 840l-158 242h322v-207zM200 1287v26l260 247h276l256 -251v-22h-270
l-125 142l-132 -142h-265z" />
    <glyph glyph-name="Gbreve" unicode="&#x11e;" horiz-adv-x="1390" 
d="M730 -21q-226 0 -382.5 88t-238.5 244.5t-82 362.5v66q0 217 81 383t235 260t372 94q149 0 299 -45.5t264 -143.5v-341h-250l-53 185q-34 35 -96.5 58t-140.5 23q-120 0 -201 -59.5t-121.5 -165.5t-40.5 -246v-68q0 -132 42.5 -229t124.5 -150t202 -53q63 0 125 13t97 29
v188l-164 20v242h516v-604q-118 -76 -266.5 -113.5t-321.5 -37.5zM696 1532q-172 0 -274.5 83t-95.5 213l2 6h228q0 -50 33.5 -83.5t106.5 -33.5q71 0 104 32.5t33 84.5h229l2 -6q5 -130 -96 -213t-272 -83z" />
    <glyph glyph-name="gbreve" unicode="&#x11f;" horiz-adv-x="1224" 
d="M535 -437q-85 0 -194 21t-192 61l56 242q79 -31 159.5 -47.5t146.5 -16.5q108 0 158.5 59.5t50.5 162.5v51q-45 -56 -104.5 -86.5t-136.5 -30.5q-132 0 -226 67t-143.5 188.5t-49.5 283.5v21q0 169 49 295.5t140.5 197t218.5 70.5q94 0 160 -41t113 -115l22 136h309
v-1039q0 -144 -65.5 -252t-186 -168t-285.5 -60zM582 248q44 0 80 14.5t58 44.5v453q-22 36 -58 54.5t-80 18.5q-63 0 -100.5 -36.5t-54 -102.5t-16.5 -155v-21q0 -129 37 -199.5t134 -70.5zM1031 840l-158 242h322v-207zM597 1258q-172 0 -274.5 83t-95.5 213l2 6h228
q0 -50 33.5 -83.5t106.5 -33.5q71 0 104 32.5t33 84.5h229l2 -6q5 -130 -96 -213t-272 -83z" />
    <glyph glyph-name="Gdotaccent" unicode="&#x120;" horiz-adv-x="1390" 
d="M730 -21q-226 0 -382.5 88t-238.5 244.5t-82 362.5v66q0 217 81 383t235 260t372 94q149 0 299 -45.5t264 -143.5v-341h-250l-53 185q-34 35 -96.5 58t-140.5 23q-120 0 -201 -59.5t-121.5 -165.5t-40.5 -246v-68q0 -132 42.5 -229t124.5 -150t202 -53q63 0 125 13t97 29
v188l-164 20v242h516v-604q-118 -76 -266.5 -113.5t-321.5 -37.5zM514 1561v273h361v-273h-361z" />
    <glyph glyph-name="gdotaccent" unicode="&#x121;" horiz-adv-x="1224" 
d="M535 -437q-85 0 -194 21t-192 61l56 242q79 -31 159.5 -47.5t146.5 -16.5q108 0 158.5 59.5t50.5 162.5v51q-45 -56 -104.5 -86.5t-136.5 -30.5q-132 0 -226 67t-143.5 188.5t-49.5 283.5v21q0 169 49 295.5t140.5 197t218.5 70.5q94 0 160 -41t113 -115l22 136h309
v-1039q0 -144 -65.5 -252t-186 -168t-285.5 -60zM582 248q44 0 80 14.5t58 44.5v453q-22 36 -58 54.5t-80 18.5q-63 0 -100.5 -36.5t-54 -102.5t-16.5 -155v-21q0 -129 37 -199.5t134 -70.5zM1031 840l-158 242h322v-207zM415 1287v273h361v-273h-361z" />
    <glyph glyph-name="uni0122" unicode="&#x122;" horiz-adv-x="1390" 
d="M730 -21q-226 0 -382.5 88t-238.5 244.5t-82 362.5v66q0 217 81 383t235 260t372 94q149 0 299 -45.5t264 -143.5v-341h-250l-53 185q-34 35 -96.5 58t-140.5 23q-120 0 -201 -59.5t-121.5 -165.5t-40.5 -246v-68q0 -132 42.5 -229t124.5 -150t202 -53q63 0 125 13t97 29
v188l-164 20v242h516v-604q-118 -76 -266.5 -113.5t-321.5 -37.5zM662 -529l-165 99q30 48 46 97t16 126v97h287v-77q0 -97 -55.5 -190t-128.5 -152z" />
    <glyph glyph-name="uni0123" unicode="&#x123;" horiz-adv-x="1224" 
d="M535 -437q-85 0 -194 21t-192 61l56 242q79 -31 159.5 -47.5t146.5 -16.5q108 0 158.5 59.5t50.5 162.5v51q-45 -56 -104.5 -86.5t-136.5 -30.5q-132 0 -226 67t-143.5 188.5t-49.5 283.5v21q0 169 49 295.5t140.5 197t218.5 70.5q94 0 160 -41t113 -115l22 136h309
v-1039q0 -144 -65.5 -252t-186 -168t-285.5 -60zM582 248q44 0 80 14.5t58 44.5v453q-22 36 -58 54.5t-80 18.5q-63 0 -100.5 -36.5t-54 -102.5t-16.5 -155v-21q0 -129 37 -199.5t134 -70.5zM1031 840l-158 242h322v-207zM605 1685l165 -99q-30 -48 -46 -97t-16 -126v-97
h-287v77q0 98 55.5 190.5t128.5 151.5z" />
    <glyph glyph-name="Hcircumflex" unicode="&#x124;" horiz-adv-x="1613" 
d="M40 0v205l151 32v981l-151 32v206h653v-206l-151 -32v-368h530v368l-151 32v206h151h350h151v-206l-151 -32v-981l151 -32v-205h-652v205l151 32v344h-530v-344l151 -32v-205h-653zM411 1561v26l260 247h276l256 -251v-22h-270l-125 142l-132 -142h-265z" />
    <glyph glyph-name="hcircumflex" unicode="&#x125;" horiz-adv-x="1294" 
d="M46 0v205l127 32v1085l-152 32v206h501v-612q48 73 120 113.5t167 40.5q156 0 251 -111.5t95 -344.5v-409l126 -32v-205h-580v205l103 32v411q0 106 -35.5 145.5t-102.5 39.5q-46 0 -83 -16t-61 -51v-529l103 -32v-205h-579zM-44 1661v26l260 247h276l256 -251v-22h-270
l-125 142l-132 -142h-265z" />
    <glyph glyph-name="Hbar" unicode="&#x126;" horiz-adv-x="1613" 
d="M40 0v205l151 32v981l-151 32v206h653v-206l-151 -32v-368h530v368l-151 32v206h151h350h151v-206l-151 -32v-981l151 -32v-205h-652v205l151 32v344h-530v-344l151 -32v-205h-653zM40 961v155h1533v-155h-1533z" />
    <glyph glyph-name="hbar" unicode="&#x127;" horiz-adv-x="1294" 
d="M46 0v205l127 32v1085l-152 32v206h501v-612q48 73 120 113.5t167 40.5q156 0 251 -111.5t95 -344.5v-409l126 -32v-205h-580v205l103 32v411q0 106 -35.5 145.5t-102.5 39.5q-46 0 -83 -16t-61 -51v-529l103 -32v-205h-579zM21 1120v155h694v-155h-694z" />
    <glyph glyph-name="Itilde" unicode="&#x128;" horiz-adv-x="732" 
d="M40 0v205l151 32v981l-151 32v206h652v-206l-151 -32v-981l151 -32v-205h-652zM154 1544l-179 50q0 70 34 129.5t89 95.5t117 36q51 0 103.5 -23.5t99.5 -47t80 -24.5q41 2 62 31.5t21 75.5l178 -51q0 -72 -33.5 -131.5t-88.5 -95t-119 -35.5q-54 0 -106.5 24t-97.5 48
t-79 24q-41 0 -61 -31.5t-20 -74.5z" />
    <glyph glyph-name="itilde" unicode="&#x129;" horiz-adv-x="667" 
d="M46 0v205l127 32v607l-151 32v206h502v-845l126 -32v-205h-604zM131 1270l-179 50q0 70 34 129.5t89 95.5t117 36q51 0 103.5 -23.5t99.5 -47t80 -24.5q41 2 62 31.5t21 75.5l178 -51q0 -72 -33.5 -131.5t-88.5 -95t-119 -35.5q-54 0 -106.5 24t-97.5 48t-79 24
q-41 0 -61 -31.5t-20 -74.5z" />
    <glyph glyph-name="Imacron" unicode="&#x12a;" horiz-adv-x="732" 
d="M40 0v205l151 32v981l-151 32v206h652v-206l-151 -32v-981l151 -32v-205h-652zM-2 1562v195h737v-195h-737z" />
    <glyph glyph-name="imacron" unicode="&#x12b;" horiz-adv-x="667" 
d="M46 0v205l127 32v607l-151 32v206h502v-845l126 -32v-205h-604zM-25 1288v195h737v-195h-737z" />
    <glyph glyph-name="Ibreve" unicode="&#x12c;" horiz-adv-x="732" 
d="M40 0v205l151 32v981l-151 32v206h652v-206l-151 -32v-981l151 -32v-205h-652zM368 1532q-172 0 -274.5 83t-95.5 213l2 6h228q0 -50 33.5 -83.5t106.5 -33.5q71 0 104 32.5t33 84.5h229l2 -6q5 -130 -96 -213t-272 -83z" />
    <glyph glyph-name="ibreve" unicode="&#x12d;" horiz-adv-x="667" 
d="M46 0v205l127 32v607l-151 32v206h502v-845l126 -32v-205h-604zM345 1258q-172 0 -274.5 83t-95.5 213l2 6h228q0 -50 33.5 -83.5t106.5 -33.5q71 0 104 32.5t33 84.5h229l2 -6q5 -130 -96 -213t-272 -83z" />
    <glyph glyph-name="Iogonek" unicode="&#x12e;" horiz-adv-x="732" 
d="M40 0v205l151 32v981l-151 32v206h652v-206l-151 -32v-981l151 -32v-205h-652zM578 -419q-118 0 -193.5 59t-75.5 165q0 71 50 142.5t173 114.5l160 -62q-75 -41 -104 -76.5t-29 -74.5q0 -35 19.5 -51t61.5 -16q22 0 40.5 3t33.5 7l36 -173q-33 -16 -74 -27t-98 -11z" />
    <glyph glyph-name="iogonek" unicode="&#x12f;" horiz-adv-x="667" 
d="M46 0v205l127 32v607l-151 32v206h502v-845l126 -32v-205h-604zM163 1287v273h361v-273h-361zM536 -419q-118 0 -193.5 59t-75.5 165q0 71 50 142.5t173 114.5l160 -62q-75 -41 -104 -76.5t-29 -74.5q0 -35 19.5 -51t61.5 -16q22 0 40.5 3t33.5 7l36 -173
q-33 -16 -74 -27t-98 -11z" />
    <glyph glyph-name="Idotaccent" unicode="&#x130;" horiz-adv-x="732" 
d="M40 0v205l151 32v981l-151 32v206h652v-206l-151 -32v-981l151 -32v-205h-652zM186 1561v273h361v-273h-361z" />
    <glyph glyph-name="dotlessi" unicode="&#x131;" horiz-adv-x="667" 
d="M46 0v205l127 32v607l-151 32v206h502v-845l126 -32v-205h-604z" />
    <glyph glyph-name="IJ" unicode="&#x132;" horiz-adv-x="1942" 
d="M40 0v205l151 32v981l-151 32v206h652v-206l-151 -32v-981l151 -32v-205h-652zM1329 -21q-171 0 -295.5 54t-194 165.5t-75.5 284.5l2 6h327q10 -141 61.5 -189.5t129.5 -48.5q45 0 86.5 20t68.5 64.5t27 116.5v766l-198 33v205h699v-206l-152 -32v-766q0 -147 -57 -253
t-165.5 -163t-263.5 -57z" />
    <glyph glyph-name="ij" unicode="&#x133;" horiz-adv-x="1268" 
d="M46 0v205l127 32v607l-151 32v206h502v-845l126 -32v-205h-604zM163 1287v273h361v-273h-361zM788 -437q-47 0 -85 3.5t-79 12.5l16 265q26 -6 45.5 -9.5t51.5 -3.5q56 0 86.5 41.5t30.5 117.5v854l-152 32v206h501v-1092q0 -205 -109 -316t-306 -111zM838 1287v273h361
v-273h-361z" />
    <glyph glyph-name="Jcircumflex" unicode="&#x134;" horiz-adv-x="1222" 
d="M584 -21q-171 0 -295.5 54t-194 165.5t-75.5 284.5l2 6h327q10 -141 61.5 -189.5t129.5 -48.5q45 0 86.5 20t68.5 64.5t27 116.5v766l-198 33v205h699v-206l-152 -32v-766q0 -147 -57 -253t-165.5 -163t-263.5 -57zM493 1561v26l260 247h276l256 -251v-22h-270l-125 142
l-132 -142h-265z" />
    <glyph glyph-name="jcircumflex" unicode="&#x135;" horiz-adv-x="647" 
d="M136 -437q-47 0 -85 3.5t-79 12.5l16 265q26 -6 45.5 -9.5t51.5 -3.5q56 0 86.5 41.5t30.5 117.5v854l-152 32v206h501v-1092q0 -205 -109 -316t-306 -111zM-29 1287v26l260 247h276l256 -251v-22h-270l-125 142l-132 -142h-265z" />
    <glyph glyph-name="uni0136" unicode="&#x136;" horiz-adv-x="1573" 
d="M451 317l-179 205l726 715l1 2l-165 11v206h680v-206l-137 -29zM40 0v205l151 32v981l-151 32v206h640v-206l-138 -32v-981l138 -32v-205h-640zM865 0v205l146 11h2l-350 479l245 217l510 -682l149 -25v-205h-702zM751 -529l-165 99q30 48 46 97t16 126v97h287v-77
q0 -97 -55.5 -190t-128.5 -152z" />
    <glyph glyph-name="uni0137" unicode="&#x137;" horiz-adv-x="1334" 
d="M36 0v205l128 32v1085l-152 32v206h501v-1323l103 -32v-205h-580zM721 0v191l66 23l-2 4l-153 221l238 212l304 -410l121 -36v-205h-574zM472 285l-182 168l470 407v1l-108 18v203h623v-206l-140 -41zM634 -529l-165 99q30 48 46 97t16 126v97h287v-77q0 -97 -55.5 -190
t-128.5 -152z" />
    <glyph glyph-name="kgreenlandic" unicode="&#x138;" horiz-adv-x="1332" 
d="M492 280l-170 190l418 386l3 2l-94 20v204h603v-206l-139 -37zM43 0v205l136 37v596l-154 38v206h504v-840l123 -37v-205h-609zM890 0l-288 432l247 244l301 -435l129 -36v-205h-389z" />
    <glyph glyph-name="Lacute" unicode="&#x139;" horiz-adv-x="1194" 
d="M40 0v205l151 32v981l-151 32v206h151h351h184v-206l-184 -32v-949h346l8 203h268v-472h-1124zM175 1561l208 273h358l2 -6l-280 -267h-281h-7z" />
    <glyph glyph-name="lacute" unicode="&#x13a;" horiz-adv-x="653" 
d="M36 0v205l128 32v1085l-152 32v206h503v-1323l127 -32v-205h-606zM134 1661l208 273h358l2 -6l-280 -267h-281h-7z" />
    <glyph glyph-name="uni013B" unicode="&#x13b;" horiz-adv-x="1194" 
d="M40 0v205l151 32v981l-151 32v206h151h351h184v-206l-184 -32v-949h346l8 203h268v-472h-1124zM564 -529l-165 99q30 48 46 97t16 126v97h287v-77q0 -97 -55.5 -190t-128.5 -152z" />
    <glyph glyph-name="uni013C" unicode="&#x13c;" horiz-adv-x="653" 
d="M36 0v205l128 32v1085l-152 32v206h503v-1323l127 -32v-205h-606zM309 -529l-165 99q30 48 46 97t16 126v97h287v-77q0 -97 -55.5 -190t-128.5 -152z" />
    <glyph glyph-name="Lcaron" unicode="&#x13d;" horiz-adv-x="1194" 
d="M40 0v205l151 32v981l-151 32v206h151h351h184v-206l-184 -32v-949h346l8 203h268v-472h-1124zM1014 1037l-165 99q30 48 46 97t16 126v97h287v-77q0 -97 -55.5 -190t-128.5 -152z" />
    <glyph glyph-name="lcaron" unicode="&#x13e;" horiz-adv-x="653" 
d="M36 0v205l128 32v1085l-152 32v206h503v-1323l127 -32v-205h-606zM737 1141l-165 99q30 48 46 97t16 126v97h287v-77q0 -97 -55.5 -190t-128.5 -152z" />
    <glyph glyph-name="Ldot" unicode="&#x13f;" horiz-adv-x="1194" 
d="M40 0v205l151 32v981l-151 32v206h151h351h184v-206l-184 -32v-949h346l8 203h268v-472h-1124zM797 604v290h349v-290h-349z" />
    <glyph glyph-name="ldot" unicode="&#x140;" horiz-adv-x="653" 
d="M36 0v205l128 32v1085l-152 32v206h503v-1323l127 -32v-205h-606zM627 604v290h349v-290h-349z" />
    <glyph glyph-name="Lslash" unicode="&#x141;" horiz-adv-x="1194" 
d="M40 0v205l151 32v981l-151 32v206h151h351h184v-206l-184 -32v-949h346l8 203h268v-472h-1124zM71 568v213l688 187v-213z" />
    <glyph glyph-name="lslash" unicode="&#x142;" horiz-adv-x="653" 
d="M36 0v205l128 32v1085l-152 32v206h503v-1323l127 -32v-205h-606zM36 568v214l612 187v-214z" />
    <glyph glyph-name="Nacute" unicode="&#x143;" horiz-adv-x="1611" 
d="M39 0v205l150 32v981l-150 32v206h150h357l584 -932h6v694l-191 32v206h502h151v-206l-151 -32v-1218h-346l-595 912h-6v-675l192 -32v-205h-653zM598 1561l208 273h358l2 -6l-280 -267h-281h-7z" />
    <glyph glyph-name="nacute" unicode="&#x144;" horiz-adv-x="1285" 
d="M38 0v205l126 32v607l-150 32v206h482l12 -151q54 81 132.5 126t178.5 45q152 0 240 -103t88 -327v-435l126 -32v-205h-580v205l102 32v436q0 87 -35 123.5t-100 36.5q-49 0 -84 -17.5t-61 -52.5v-526l90 -32v-205h-567zM435 1287l208 273h358l2 -6l-280 -267h-281h-7z
" />
    <glyph glyph-name="uni0145" unicode="&#x145;" horiz-adv-x="1611" 
d="M39 0v205l150 32v981l-150 32v206h150h357l584 -932h6v694l-191 32v206h502h151v-206l-151 -32v-1218h-346l-595 912h-6v-675l192 -32v-205h-653zM773 -529l-165 99q30 48 46 97t16 126v97h287v-77q0 -97 -55.5 -190t-128.5 -152z" />
    <glyph glyph-name="uni0146" unicode="&#x146;" horiz-adv-x="1285" 
d="M38 0v205l126 32v607l-150 32v206h482l12 -151q54 81 132.5 126t178.5 45q152 0 240 -103t88 -327v-435l126 -32v-205h-580v205l102 32v436q0 87 -35 123.5t-100 36.5q-49 0 -84 -17.5t-61 -52.5v-526l90 -32v-205h-567zM610 -529l-165 99q30 48 46 97t16 126v97h287v-77
q0 -97 -55.5 -190t-128.5 -152z" />
    <glyph glyph-name="Ncaron" unicode="&#x147;" horiz-adv-x="1611" 
d="M39 0v205l150 32v981l-150 32v206h150h357l584 -932h6v694l-191 32v206h502h151v-206l-151 -32v-1218h-346l-595 912h-6v-675l192 -32v-205h-653zM1202 1834v-26l-260 -247h-276l-256 251v22h270l125 -142l132 142h265z" />
    <glyph glyph-name="ncaron" unicode="&#x148;" horiz-adv-x="1285" 
d="M38 0v205l126 32v607l-150 32v206h482l12 -151q54 81 132.5 126t178.5 45q152 0 240 -103t88 -327v-435l126 -32v-205h-580v205l102 32v436q0 87 -35 123.5t-100 36.5q-49 0 -84 -17.5t-61 -52.5v-526l90 -32v-205h-567zM1039 1560v-26l-260 -247h-276l-256 251v22h270
l125 -142l132 142h265z" />
    <glyph glyph-name="napostrophe" unicode="&#x149;" horiz-adv-x="1285" 
d="M38 0v205l126 32v607l-150 32v206h482l12 -151q54 81 132.5 126t178.5 45q152 0 240 -103t88 -327v-435l126 -32v-205h-580v205l102 32v436q0 87 -35 123.5t-100 36.5q-49 0 -84 -17.5t-61 -52.5v-526l90 -32v-205h-567zM175 1141l-165 99q30 48 46 97t16 126v97h287v-77
q0 -97 -55.5 -190t-128.5 -152z" />
    <glyph glyph-name="Eng" unicode="&#x14a;" horiz-adv-x="1600" 
d="M1026 -437q-46 0 -83.5 3.5t-79.5 12.5l14 265q29 -6 46.5 -9.5t45.5 -3.5q60 0 91.5 41.5t31.5 117.5v10l-517 901h-6v-664l150 -32v-205h-652v205l151 32v981l-151 32v206h502l517 -900l6 1v661l-150 32v206h651v-206l-150 -32v-1228q0 -204 -110 -315.5t-307 -111.5z
" />
    <glyph glyph-name="eng" unicode="&#x14b;" horiz-adv-x="1294" 
d="M789 -437q-46 0 -85 3.5t-80 12.5l14 264q28 -5 46.5 -8.5t48.5 -3.5q60 0 90 40.5t30 118.5v661q0 100 -30.5 141t-91.5 41q-49 0 -90 -23t-69 -64v-509l125 -32v-205h-602v205l126 32v607l-150 32v206h480l14 -154q53 82 132.5 128t179.5 46q151 0 239 -108t88 -343
v-661q0 -204 -110 -315.5t-305 -111.5z" />
    <glyph glyph-name="Omacron" unicode="&#x14c;" horiz-adv-x="1505" 
d="M753 -21q-151 0 -277.5 55.5t-219.5 155.5t-143.5 234.5t-50.5 292.5v23q0 157 50.5 291t143 234t218.5 156t277 56q148 0 275 -56t222.5 -156t148.5 -234t53 -291v-23q0 -158 -53 -292.5t-148 -234.5t-222 -155.5t-274 -55.5zM753 245q110 0 188 59t119 165t41 248v25
q0 139 -41.5 244.5t-119.5 164.5t-189 59q-117 0 -191.5 -58t-110.5 -163t-36 -247v-25q0 -142 36.5 -248.5t112 -165t191.5 -58.5zM384 1562v195h737v-195h-737z" />
    <glyph glyph-name="omacron" unicode="&#x14d;" horiz-adv-x="1174" 
d="M589 -21q-167 0 -285.5 69.5t-181 194t-62.5 288.5v20q0 162 62.5 286t180.5 194.5t284 70.5q167 0 284.5 -70t180 -194t62.5 -287v-20q0 -163 -62.5 -287.5t-180 -194.5t-282.5 -70zM589 246q64 0 102.5 34.5t56 98.5t17.5 152v20q0 85 -17.5 148.5t-56.5 99t-104 35.5
q-64 0 -103 -35.5t-56 -99t-17 -148.5v-20q0 -89 17 -153t56 -98t105 -34zM219 1288v195h737v-195h-737z" />
    <glyph glyph-name="Obreve" unicode="&#x14e;" horiz-adv-x="1505" 
d="M753 -21q-151 0 -277.5 55.5t-219.5 155.5t-143.5 234.5t-50.5 292.5v23q0 157 50.5 291t143 234t218.5 156t277 56q148 0 275 -56t222.5 -156t148.5 -234t53 -291v-23q0 -158 -53 -292.5t-148 -234.5t-222 -155.5t-274 -55.5zM753 245q110 0 188 59t119 165t41 248v25
q0 139 -41.5 244.5t-119.5 164.5t-189 59q-117 0 -191.5 -58t-110.5 -163t-36 -247v-25q0 -142 36.5 -248.5t112 -165t191.5 -58.5zM754 1532q-172 0 -274.5 83t-95.5 213l2 6h228q0 -50 33.5 -83.5t106.5 -33.5q71 0 104 32.5t33 84.5h229l2 -6q5 -130 -96 -213t-272 -83z
" />
    <glyph glyph-name="obreve" unicode="&#x14f;" horiz-adv-x="1174" 
d="M589 -21q-167 0 -285.5 69.5t-181 194t-62.5 288.5v20q0 162 62.5 286t180.5 194.5t284 70.5q167 0 284.5 -70t180 -194t62.5 -287v-20q0 -163 -62.5 -287.5t-180 -194.5t-282.5 -70zM589 246q64 0 102.5 34.5t56 98.5t17.5 152v20q0 85 -17.5 148.5t-56.5 99t-104 35.5
q-64 0 -103 -35.5t-56 -99t-17 -148.5v-20q0 -89 17 -153t56 -98t105 -34zM589 1258q-172 0 -274.5 83t-95.5 213l2 6h228q0 -50 33.5 -83.5t106.5 -33.5q71 0 104 32.5t33 84.5h229l2 -6q5 -130 -96 -213t-272 -83z" />
    <glyph glyph-name="Ohungarumlaut" unicode="&#x150;" horiz-adv-x="1505" 
d="M753 -21q-151 0 -277.5 55.5t-219.5 155.5t-143.5 234.5t-50.5 292.5v23q0 157 50.5 291t143 234t218.5 156t277 56q148 0 275 -56t222.5 -156t148.5 -234t53 -291v-23q0 -158 -53 -292.5t-148 -234.5t-222 -155.5t-274 -55.5zM753 245q110 0 188 59t119 165t41 248v25
q0 139 -41.5 244.5t-119.5 164.5t-189 59q-117 0 -191.5 -58t-110.5 -163t-36 -247v-25q0 -142 36.5 -248.5t112 -165t191.5 -58.5zM741 1561l-2 5l239 268h307l1 -6l-289 -267h-256zM355 1561h-7l209 273h290l2 -5l-240 -268h-254z" />
    <glyph glyph-name="ohungarumlaut" unicode="&#x151;" horiz-adv-x="1174" 
d="M589 -21q-167 0 -285.5 69.5t-181 194t-62.5 288.5v20q0 162 62.5 286t180.5 194.5t284 70.5q167 0 284.5 -70t180 -194t62.5 -287v-20q0 -163 -62.5 -287.5t-180 -194.5t-282.5 -70zM589 246q64 0 102.5 34.5t56 98.5t17.5 152v20q0 85 -17.5 148.5t-56.5 99t-104 35.5
q-64 0 -103 -35.5t-56 -99t-17 -148.5v-20q0 -89 17 -153t56 -98t105 -34zM576 1287l-2 5l239 268h307l1 -6l-289 -267h-256zM190 1287h-7l209 273h290l2 -5l-240 -268h-254z" />
    <glyph glyph-name="OE" unicode="&#x152;" horiz-adv-x="2055" 
d="M773 -21q-157 0 -287.5 55.5t-225.5 155.5t-146.5 234.5t-51.5 292.5v23q0 157 51.5 291t146 234t224.5 156t287 56q85 0 166.5 -12.5t155.5 -35.5v-330q-67 53 -150 82t-172 29q-125 0 -204.5 -58t-116.5 -163t-37 -247v-25q0 -142 38 -248.5t118 -165t204 -58.5
q86 0 168 26t152 72v-316q-74 -23 -155 -35.5t-165 -12.5zM873 0l72 214v1027l-72 215h1092v-429h-258l-11 161h-400v-301h453v-269h-453v-351h399l11 161h255v-428h-1088z" />
    <glyph glyph-name="oe" unicode="&#x153;" horiz-adv-x="1817" 
d="M589 -21q-167 0 -285.5 69.5t-181 194t-62.5 288.5v20q0 162 62.5 286t180.5 194.5t284 70.5q106 0 195 -34.5t158 -99.5q64 68 147 101t190 33q147 0 252.5 -59.5t162.5 -170t57 -262.5v-181h-613l-1 -7q8 -51 35.5 -90.5t73 -62.5t107.5 -23q64 0 108 6t87 20.5
t101 38.5l82 -212q-70 -50 -185 -85t-243 -35q-72 0 -136 15t-119.5 45t-101.5 75q-67 -68 -156.5 -101.5t-198.5 -33.5zM589 246q64 0 102 34.5t55.5 98.5t17.5 152v20q0 85 -17.5 148.5t-56 99t-103.5 35.5t-103.5 -35.5t-55.5 -99t-17 -148.5v-20q0 -89 17 -153t56 -98
t105 -34zM1136 646h272v26q0 53 -14 89t-43 54.5t-74 18.5q-46 0 -76 -22t-46 -63t-21 -98z" />
    <glyph glyph-name="Racute" unicode="&#x154;" horiz-adv-x="1422" 
d="M40 0v205l151 32v981l-151 32v207h716q173 0 300 -55t196 -156.5t69 -240.5q0 -128 -69.5 -238t-190.5 -176.5t-276 -65.5l-243 3v-291l151 -32v-205h-653zM962 0l-196 568l305 104l177 -433l138 -35v-204h-424zM542 797h218q102 0 157 47.5t55 137.5q0 93 -56 149.5
t-160 56.5h-214v-391zM496 1561l208 273h358l2 -6l-280 -267h-281h-7z" />
    <glyph glyph-name="racute" unicode="&#x155;" horiz-adv-x="906" 
d="M93 0v205l126 32v607l-150 32v206h481l8 -132l2 -27q36 92 89.5 135.5t133.5 43.5q22 0 52 -3.5t61 -12.5l-35 -322l-150 7q-52 2 -81.5 -11.5t-59.5 -44.5v-478l126 -32v-205h-603zM245 1287l208 273h358l2 -6l-280 -267h-281h-7z" />
    <glyph glyph-name="uni0156" unicode="&#x156;" horiz-adv-x="1422" 
d="M40 0v205l151 32v981l-151 32v207h716q173 0 300 -55t196 -156.5t69 -240.5q0 -128 -69.5 -238t-190.5 -176.5t-276 -65.5l-243 3v-291l151 -32v-205h-653zM962 0l-196 568l305 104l177 -433l138 -35v-204h-424zM542 797h218q102 0 157 47.5t55 137.5q0 93 -56 149.5
t-160 56.5h-214v-391zM678 -529l-165 99q30 48 46 97t16 126v97h287v-77q0 -97 -55.5 -190t-128.5 -152z" />
    <glyph glyph-name="uni0157" unicode="&#x157;" horiz-adv-x="906" 
d="M93 0v205l126 32v607l-150 32v206h481l8 -132l2 -27q36 92 89.5 135.5t133.5 43.5q22 0 52 -3.5t61 -12.5l-35 -322l-150 7q-52 2 -81.5 -11.5t-59.5 -44.5v-478l126 -32v-205h-603zM420 -529l-165 99q30 48 46 97t16 126v97h287v-77q0 -97 -55.5 -190t-128.5 -152z" />
    <glyph glyph-name="Rcaron" unicode="&#x158;" horiz-adv-x="1422" 
d="M40 0v205l151 32v981l-151 32v207h716q173 0 300 -55t196 -156.5t69 -240.5q0 -128 -69.5 -238t-190.5 -176.5t-276 -65.5l-243 3v-291l151 -32v-205h-653zM962 0l-196 568l305 104l177 -433l138 -35v-204h-424zM542 797h218q102 0 157 47.5t55 137.5q0 93 -56 149.5
t-160 56.5h-214v-391zM1100 1834v-26l-260 -247h-276l-256 251v22h270l125 -142l132 142h265z" />
    <glyph glyph-name="rcaron" unicode="&#x159;" horiz-adv-x="906" 
d="M93 0v205l126 32v607l-150 32v206h481l8 -132l2 -27q36 92 89.5 135.5t133.5 43.5q22 0 52 -3.5t61 -12.5l-35 -322l-150 7q-52 2 -81.5 -11.5t-59.5 -44.5v-478l126 -32v-205h-603zM849 1560v-26l-260 -247h-276l-256 251v22h270l125 -142l132 142h265z" />
    <glyph glyph-name="Sacute" unicode="&#x15a;" horiz-adv-x="1272" 
d="M677 -21q-178 0 -316 34t-275 128v378h271l30 -194q32 -36 113 -60.5t177 -24.5q67 0 112 16.5t68 48.5t23 77q0 43 -21.5 77t-70.5 64.5t-132 62.5q-187 60 -307 122t-178.5 147t-58.5 211q0 121 69 211.5t190 142.5t277 55q178 4 315 -35.5t242 -119.5v-351h-260
l-41 195q-34 17 -97 31t-134 14q-61 0 -108.5 -16t-75 -48t-27.5 -80q0 -39 23 -69.5t81 -61t162 -70.5q248 -73 376.5 -182.5t128.5 -297.5q0 -129 -70 -219.5t-195 -138t-291 -47.5zM428 1561l208 273h358l2 -6l-280 -267h-281h-7z" />
    <glyph glyph-name="sacute" unicode="&#x15b;" horiz-adv-x="1041" 
d="M536 -21q-128 0 -238.5 23.5t-199.5 64.5l-4 337h237l40 -157q21 -13 54 -22.5t79 -9.5q85 0 117 23t32 58q0 34 -36.5 62.5t-155.5 50.5q-190 37 -280 126.5t-90 223.5q0 91 42 168t137.5 124.5t255.5 47.5q122 0 232.5 -21t181.5 -53l-1 -326h-236l-30 140
q-23 16 -52 24t-65 8q-67 0 -98 -24t-31 -62q0 -22 13.5 -44t53.5 -42t117 -37q185 -41 278.5 -114t93.5 -222q0 -160 -114.5 -253.5t-332.5 -93.5zM313 1287l208 273h358l2 -6l-280 -267h-281h-7z" />
    <glyph glyph-name="Scircumflex" unicode="&#x15c;" horiz-adv-x="1272" 
d="M677 -21q-178 0 -316 34t-275 128v378h271l30 -194q32 -36 113 -60.5t177 -24.5q67 0 112 16.5t68 48.5t23 77q0 43 -21.5 77t-70.5 64.5t-132 62.5q-187 60 -307 122t-178.5 147t-58.5 211q0 121 69 211.5t190 142.5t277 55q178 4 315 -35.5t242 -119.5v-351h-260
l-41 195q-34 17 -97 31t-134 14q-61 0 -108.5 -16t-75 -48t-27.5 -80q0 -39 23 -69.5t81 -61t162 -70.5q248 -73 376.5 -182.5t128.5 -297.5q0 -129 -70 -219.5t-195 -138t-291 -47.5zM240 1561v26l260 247h276l256 -251v-22h-270l-125 142l-132 -142h-265z" />
    <glyph glyph-name="scircumflex" unicode="&#x15d;" horiz-adv-x="1041" 
d="M536 -21q-128 0 -238.5 23.5t-199.5 64.5l-4 337h237l40 -157q21 -13 54 -22.5t79 -9.5q85 0 117 23t32 58q0 34 -36.5 62.5t-155.5 50.5q-190 37 -280 126.5t-90 223.5q0 91 42 168t137.5 124.5t255.5 47.5q122 0 232.5 -21t181.5 -53l-1 -326h-236l-30 140
q-23 16 -52 24t-65 8q-67 0 -98 -24t-31 -62q0 -22 13.5 -44t53.5 -42t117 -37q185 -41 278.5 -114t93.5 -222q0 -160 -114.5 -253.5t-332.5 -93.5zM125 1287v26l260 247h276l256 -251v-22h-270l-125 142l-132 -142h-265z" />
    <glyph glyph-name="Scedilla" unicode="&#x15e;" horiz-adv-x="1272" 
d="M677 -21q-178 0 -316 34t-275 128v378h271l30 -194q32 -36 113 -60.5t177 -24.5q67 0 112 16.5t68 48.5t23 77q0 43 -21.5 77t-70.5 64.5t-132 62.5q-187 60 -307 122t-178.5 147t-58.5 211q0 121 69 211.5t190 142.5t277 55q178 4 315 -35.5t242 -119.5v-351h-260
l-41 195q-34 17 -97 31t-134 14q-61 0 -108.5 -16t-75 -48t-27.5 -80q0 -39 23 -69.5t81 -61t162 -70.5q248 -73 376.5 -182.5t128.5 -297.5q0 -129 -70 -219.5t-195 -138t-291 -47.5zM503 -474l-7 191q53 0 83 17t30 53q0 40 -34.5 56t-102.5 18l30 149h262l-10 -64
q68 -11 114 -50.5t46 -116.5q0 -115 -107.5 -184t-303.5 -69z" />
    <glyph glyph-name="scedilla" unicode="&#x15f;" horiz-adv-x="1041" 
d="M536 -21q-128 0 -238.5 23.5t-199.5 64.5l-4 337h237l40 -157q21 -13 54 -22.5t79 -9.5q85 0 117 23t32 58q0 34 -36.5 62.5t-155.5 50.5q-190 37 -280 126.5t-90 223.5q0 91 42 168t137.5 124.5t255.5 47.5q122 0 232.5 -21t181.5 -53l-1 -326h-236l-30 140
q-23 16 -52 24t-65 8q-67 0 -98 -24t-31 -62q0 -22 13.5 -44t53.5 -42t117 -37q185 -41 278.5 -114t93.5 -222q0 -160 -114.5 -253.5t-332.5 -93.5zM388 -474l-7 191q53 0 83 17t30 53q0 40 -34.5 56t-102.5 18l30 149h262l-10 -64q68 -11 114 -50.5t46 -116.5
q0 -115 -107.5 -184t-303.5 -69z" />
    <glyph glyph-name="Scaron" unicode="&#x160;" horiz-adv-x="1272" 
d="M677 -21q-178 0 -316 34t-275 128v378h271l30 -194q32 -36 113 -60.5t177 -24.5q67 0 112 16.5t68 48.5t23 77q0 43 -21.5 77t-70.5 64.5t-132 62.5q-187 60 -307 122t-178.5 147t-58.5 211q0 121 69 211.5t190 142.5t277 55q178 4 315 -35.5t242 -119.5v-351h-260
l-41 195q-34 17 -97 31t-134 14q-61 0 -108.5 -16t-75 -48t-27.5 -80q0 -39 23 -69.5t81 -61t162 -70.5q248 -73 376.5 -182.5t128.5 -297.5q0 -129 -70 -219.5t-195 -138t-291 -47.5zM1032 1834v-26l-260 -247h-276l-256 251v22h270l125 -142l132 142h265z" />
    <glyph glyph-name="scaron" unicode="&#x161;" horiz-adv-x="1041" 
d="M536 -21q-128 0 -238.5 23.5t-199.5 64.5l-4 337h237l40 -157q21 -13 54 -22.5t79 -9.5q85 0 117 23t32 58q0 34 -36.5 62.5t-155.5 50.5q-190 37 -280 126.5t-90 223.5q0 91 42 168t137.5 124.5t255.5 47.5q122 0 232.5 -21t181.5 -53l-1 -326h-236l-30 140
q-23 16 -52 24t-65 8q-67 0 -98 -24t-31 -62q0 -22 13.5 -44t53.5 -42t117 -37q185 -41 278.5 -114t93.5 -222q0 -160 -114.5 -253.5t-332.5 -93.5zM917 1560v-26l-260 -247h-276l-256 251v22h270l125 -142l132 142h265z" />
    <glyph glyph-name="uni0162" unicode="&#x162;" horiz-adv-x="1379" 
d="M361 0v205l152 32v947h-225l-9 -157h-265v429h1353v-429h-268l-8 157h-227v-947l152 -32v-205h-655zM557 -474l-7 191q53 0 83 17t30 53q0 40 -34.5 56t-102.5 18l30 149h262l-10 -64q68 -11 114 -50.5t46 -116.5q0 -115 -107.5 -184t-303.5 -69z" />
    <glyph glyph-name="uni0163" unicode="&#x163;" horiz-adv-x="738" 
d="M508 -23q-170 0 -258.5 90.5t-88.5 286.5v486h-135v242h135v267h349v-267h177v-242h-177v-485q0 -53 24 -74t66 -21q18 0 36 2t36 5l24 -262q-46 -13 -92.5 -20.5t-95.5 -7.5zM216 -474l-7 191q53 0 83 17t30 53q0 40 -34.5 56t-102.5 18l30 149h262l-10 -64
q68 -11 114 -50.5t46 -116.5q0 -115 -107.5 -184t-303.5 -69z" />
    <glyph glyph-name="Tcaron" unicode="&#x164;" horiz-adv-x="1379" 
d="M361 0v205l152 32v947h-225l-9 -157h-265v429h1353v-429h-268l-8 157h-227v-947l152 -32v-205h-655zM1086 1834v-26l-260 -247h-276l-256 251v22h270l125 -142l132 142h265z" />
    <glyph glyph-name="tcaron" unicode="&#x165;" horiz-adv-x="738" 
d="M508 -23q-170 0 -258.5 90.5t-88.5 286.5v486h-135v242h135v267h349v-267h177v-242h-177v-485q0 -53 24 -74t66 -21q18 0 36 2t36 5l24 -262q-46 -13 -92.5 -20.5t-95.5 -7.5zM732 1141l-165 99q30 48 46 97t16 126v97h287v-77q0 -97 -55.5 -190t-128.5 -152z" />
    <glyph glyph-name="Tbar" unicode="&#x166;" horiz-adv-x="1379" 
d="M361 0v205l152 32v947h-225l-9 -157h-265v429h1353v-429h-268l-8 157h-227v-947l152 -32v-205h-655zM343 653v155h694v-155h-694z" />
    <glyph glyph-name="tbar" unicode="&#x167;" horiz-adv-x="738" 
d="M508 -23q-170 0 -258.5 90.5t-88.5 286.5v486h-135v242h135v267h349v-267h177v-242h-177v-485q0 -53 24 -74t66 -21q18 0 36 2t36 5l24 -262q-46 -13 -92.5 -20.5t-95.5 -7.5zM9 601v155h694v-155h-694z" />
    <glyph glyph-name="Utilde" unicode="&#x168;" horiz-adv-x="1575" 
d="M789 -21q-188 0 -327.5 60.5t-215.5 177.5t-76 286v715l-150 32v206h652v-206l-151 -32v-715q0 -88 31 -145.5t90.5 -85.5t144.5 -28q88 0 147.5 28t90 85.5t30.5 145.5v715l-150 32v206h652v-206l-151 -32v-715q0 -166 -78 -283.5t-216.5 -179t-322.5 -61.5zM575 1544
l-179 50q0 70 34 129.5t89 95.5t117 36q51 0 103.5 -23.5t99.5 -47t80 -24.5q41 2 62 31.5t21 75.5l178 -51q0 -72 -33.5 -131.5t-88.5 -95t-119 -35.5q-54 0 -106.5 24t-97.5 48t-79 24q-41 0 -61 -31.5t-20 -74.5z" />
    <glyph glyph-name="utilde" unicode="&#x169;" horiz-adv-x="1293" 
d="M504 -21q-168 0 -264 106t-96 328v431l-116 32v206h116h351v-671q0 -80 33.5 -121.5t100.5 -41.5q39 0 77.5 14.5t68.5 43.5v538l-118 32v206h118h351v-845l135 -32v-205h-440l-23 123q-52 -70 -126.5 -107t-167.5 -37zM431 1270l-179 50q0 70 34 129.5t89 95.5t117 36
q51 0 103.5 -23.5t99.5 -47t80 -24.5q41 2 62 31.5t21 75.5l178 -51q0 -72 -33.5 -131.5t-88.5 -95t-119 -35.5q-54 0 -106.5 24t-97.5 48t-79 24q-41 0 -61 -31.5t-20 -74.5z" />
    <glyph glyph-name="Umacron" unicode="&#x16a;" horiz-adv-x="1575" 
d="M789 -21q-188 0 -327.5 60.5t-215.5 177.5t-76 286v715l-150 32v206h652v-206l-151 -32v-715q0 -88 31 -145.5t90.5 -85.5t144.5 -28q88 0 147.5 28t90 85.5t30.5 145.5v715l-150 32v206h652v-206l-151 -32v-715q0 -166 -78 -283.5t-216.5 -179t-322.5 -61.5zM419 1562
v195h737v-195h-737z" />
    <glyph glyph-name="umacron" unicode="&#x16b;" horiz-adv-x="1293" 
d="M504 -21q-168 0 -264 106t-96 328v431l-116 32v206h116h351v-671q0 -80 33.5 -121.5t100.5 -41.5q39 0 77.5 14.5t68.5 43.5v538l-118 32v206h118h351v-845l135 -32v-205h-440l-23 123q-52 -70 -126.5 -107t-167.5 -37zM275 1288v195h737v-195h-737z" />
    <glyph glyph-name="Ubreve" unicode="&#x16c;" horiz-adv-x="1575" 
d="M789 -21q-188 0 -327.5 60.5t-215.5 177.5t-76 286v715l-150 32v206h652v-206l-151 -32v-715q0 -88 31 -145.5t90.5 -85.5t144.5 -28q88 0 147.5 28t90 85.5t30.5 145.5v715l-150 32v206h652v-206l-151 -32v-715q0 -166 -78 -283.5t-216.5 -179t-322.5 -61.5zM789 1532
q-172 0 -274.5 83t-95.5 213l2 6h228q0 -50 33.5 -83.5t106.5 -33.5q71 0 104 32.5t33 84.5h229l2 -6q5 -130 -96 -213t-272 -83z" />
    <glyph glyph-name="ubreve" unicode="&#x16d;" horiz-adv-x="1293" 
d="M504 -21q-168 0 -264 106t-96 328v431l-116 32v206h116h351v-671q0 -80 33.5 -121.5t100.5 -41.5q39 0 77.5 14.5t68.5 43.5v538l-118 32v206h118h351v-845l135 -32v-205h-440l-23 123q-52 -70 -126.5 -107t-167.5 -37zM645 1258q-172 0 -274.5 83t-95.5 213l2 6h228
q0 -50 33.5 -83.5t106.5 -33.5q71 0 104 32.5t33 84.5h229l2 -6q5 -130 -96 -213t-272 -83z" />
    <glyph glyph-name="Uring" unicode="&#x16e;" horiz-adv-x="1575" 
d="M789 -21q-188 0 -327.5 60.5t-215.5 177.5t-76 286v715l-150 32v206h652v-206l-151 -32v-715q0 -88 31 -145.5t90.5 -85.5t144.5 -28q88 0 147.5 28t90 85.5t30.5 145.5v715l-150 32v206h652v-206l-151 -32v-715q0 -166 -78 -283.5t-216.5 -179t-322.5 -61.5zM790 1504
q-108 0 -179.5 64t-71.5 163q0 98 72.5 164.5t178.5 66.5q105 0 176 -67t71 -164q0 -99 -71 -163t-176 -64zM790 1638q41 0 64 25t23 68t-23 68.5t-64 25.5q-40 0 -66 -25.5t-26 -68.5t25.5 -68t66.5 -25z" />
    <glyph glyph-name="uring" unicode="&#x16f;" horiz-adv-x="1293" 
d="M504 -21q-168 0 -264 106t-96 328v431l-116 32v206h116h351v-671q0 -80 33.5 -121.5t100.5 -41.5q39 0 77.5 14.5t68.5 43.5v538l-118 32v206h118h351v-845l135 -32v-205h-440l-23 123q-52 -70 -126.5 -107t-167.5 -37zM646 1230q-108 0 -179.5 64t-71.5 163
q0 98 72.5 164.5t178.5 66.5q105 0 176 -67t71 -164q0 -99 -71 -163t-176 -64zM646 1364q41 0 64 25t23 68t-23 68.5t-64 25.5q-40 0 -66 -25.5t-26 -68.5t25.5 -68t66.5 -25z" />
    <glyph glyph-name="Uhungarumlaut" unicode="&#x170;" horiz-adv-x="1575" 
d="M789 -21q-188 0 -327.5 60.5t-215.5 177.5t-76 286v715l-150 32v206h652v-206l-151 -32v-715q0 -88 31 -145.5t90.5 -85.5t144.5 -28q88 0 147.5 28t90 85.5t30.5 145.5v715l-150 32v206h652v-206l-151 -32v-715q0 -166 -78 -283.5t-216.5 -179t-322.5 -61.5zM776 1561
l-2 5l239 268h307l1 -6l-289 -267h-256zM390 1561h-7l209 273h290l2 -5l-240 -268h-254z" />
    <glyph glyph-name="uhungarumlaut" unicode="&#x171;" horiz-adv-x="1293" 
d="M504 -21q-168 0 -264 106t-96 328v431l-116 32v206h116h351v-671q0 -80 33.5 -121.5t100.5 -41.5q39 0 77.5 14.5t68.5 43.5v538l-118 32v206h118h351v-845l135 -32v-205h-440l-23 123q-52 -70 -126.5 -107t-167.5 -37zM632 1287l-2 5l239 268h307l1 -6l-289 -267h-256z
M246 1287h-7l209 273h290l2 -5l-240 -268h-254z" />
    <glyph glyph-name="Uogonek" unicode="&#x172;" horiz-adv-x="1575" 
d="M789 -21q-188 0 -327.5 60.5t-215.5 177.5t-76 286v715l-150 32v206h652v-206l-151 -32v-715q0 -88 31 -145.5t90.5 -85.5t144.5 -28q88 0 147.5 28t90 85.5t30.5 145.5v715l-150 32v206h652v-206l-151 -32v-715q0 -166 -78 -283.5t-216.5 -179t-322.5 -61.5zM857 -419
q-118 0 -193.5 59t-75.5 165q0 71 50 142.5t173 114.5l160 -62q-75 -41 -104 -76.5t-29 -74.5q0 -35 19.5 -51t61.5 -16q22 0 40.5 3t33.5 7l36 -173q-33 -16 -74 -27t-98 -11z" />
    <glyph glyph-name="uogonek" unicode="&#x173;" horiz-adv-x="1293" 
d="M504 -21q-168 0 -264 106t-96 328v431l-116 32v206h116h351v-671q0 -80 33.5 -121.5t100.5 -41.5q39 0 77.5 14.5t68.5 43.5v538l-118 32v206h118h351v-845l135 -32v-205h-440l-23 123q-52 -70 -126.5 -107t-167.5 -37zM1147 -419q-118 0 -193.5 59t-75.5 165
q0 71 50 142.5t173 114.5l160 -62q-75 -41 -104 -76.5t-29 -74.5q0 -35 19.5 -51t61.5 -16q22 0 40.5 3t33.5 7l36 -173q-33 -16 -74 -27t-98 -11z" />
    <glyph glyph-name="Wcircumflex" unicode="&#x174;" horiz-adv-x="2247" 
d="M512 0l-336 1235l-165 15v206h657v-206l-162 -23l159 -651l23 -94h6l24 95l285 879h242l300 -920l21 -63h6l17 63l170 691l-167 23v206h644v-206l-155 -15l-351 -1235h-313l-251 753l-31 104h-6l-39 -110l-255 -747h-323zM728 1561v26l260 247h276l256 -251v-22h-270
l-125 142l-132 -142h-265z" />
    <glyph glyph-name="wcircumflex" unicode="&#x175;" horiz-adv-x="1821" 
d="M391 0l-231 845l-139 31v206h570v-205l-102 -22l70 -347l11 -55h6l17 55l213 574h215l210 -589l15 -48h6l13 48l97 360l-120 24v205h559v-206l-130 -29l-272 -847h-282l-185 465l-25 85h-6l-24 -86l-171 -464h-315zM515 1287v26l260 247h276l256 -251v-22h-270l-125 142
l-132 -142h-265z" />
    <glyph glyph-name="Ycircumflex" unicode="&#x176;" horiz-adv-x="1537" 
d="M441 0v205l151 32v243l-422 749l-152 21v206h630v-206l-90 -16l200 -399l23 -51h9l24 48l234 402l-152 16v206h618v-206l-154 -21l-418 -721v-271l152 -32v-205h-653zM373 1561v26l260 247h276l256 -251v-22h-270l-125 142l-132 -142h-265z" />
    <glyph glyph-name="ycircumflex" unicode="&#x177;" horiz-adv-x="1343" 
d="M396 -437q-46 0 -92.5 7.5t-95.5 21.5l42 251q20 -5 38.5 -7.5t38.5 -2.5q64 0 113.5 23.5t62.5 72.5l10 38l-348 888l-145 21v206h650v-206l-134 -20l145 -438l2 -8h6l171 449l-124 17v206h591v-206l-128 -18l-405 -1016q-29 -73 -78 -136.5t-127 -103t-193 -39.5z
M282 1287v26l260 247h276l256 -251v-22h-270l-125 142l-132 -142h-265z" />
    <glyph glyph-name="Ydieresis" unicode="&#x178;" horiz-adv-x="1537" 
d="M441 0v205l151 32v243l-422 749l-152 21v206h630v-206l-90 -16l200 -399l23 -51h9l24 48l234 402l-152 16v206h618v-206l-154 -21l-418 -721v-271l152 -32v-205h-653zM840 1561v273h327v-273h-327zM371 1561v273h327v-273h-327z" />
    <glyph glyph-name="Zacute" unicode="&#x179;" horiz-adv-x="1244" 
d="M64 0v219l681 968h-367l-26 -185h-263l19 454h1078v-211l-683 -977h437l28 173h262l-29 -441h-1137zM414 1561l208 273h358l2 -6l-280 -267h-281h-7z" />
    <glyph glyph-name="zacute" unicode="&#x17a;" horiz-adv-x="1154" 
d="M88 0v193l547 653h-223l-38 -187h-255v423h932v-220l-492 -616h210l54 209h241v-455h-976zM369 1287l208 273h358l2 -6l-280 -267h-281h-7z" />
    <glyph glyph-name="Zdotaccent" unicode="&#x17b;" horiz-adv-x="1244" 
d="M64 0v219l681 968h-367l-26 -185h-263l19 454h1078v-211l-683 -977h437l28 173h262l-29 -441h-1137zM441 1561v273h361v-273h-361z" />
    <glyph glyph-name="zdotaccent" unicode="&#x17c;" horiz-adv-x="1154" 
d="M88 0v193l547 653h-223l-38 -187h-255v423h932v-220l-492 -616h210l54 209h241v-455h-976zM396 1287v273h361v-273h-361z" />
    <glyph glyph-name="Zcaron" unicode="&#x17d;" horiz-adv-x="1244" 
d="M64 0v219l681 968h-367l-26 -185h-263l19 454h1078v-211l-683 -977h437l28 173h262l-29 -441h-1137zM1018 1834v-26l-260 -247h-276l-256 251v22h270l125 -142l132 142h265z" />
    <glyph glyph-name="zcaron" unicode="&#x17e;" horiz-adv-x="1154" 
d="M88 0v193l547 653h-223l-38 -187h-255v423h932v-220l-492 -616h210l54 209h241v-455h-976zM973 1560v-26l-260 -247h-276l-256 251v22h270l125 -142l132 142h265z" />
    <glyph glyph-name="longs" unicode="&#x17f;" horiz-adv-x="765" 
d="M36 0v205l126 32v954q0 188 114.5 289t313.5 101q47 0 91.5 -5.5t84.5 -15.5l-23 -259q-29 7 -52.5 9.5t-45.5 2.5q-64 0 -98 -32t-34 -90v-954l150 -32v-205h-627z" />
    <glyph glyph-name="uni018F" unicode="&#x18f;" horiz-adv-x="1399" 
d="M699 -21q-203 0 -345.5 83.5t-216.5 238.5t-74 369v175h912l5 5q4 93 -33.5 168t-120.5 119t-217 44q-122 0 -224 -17t-178 -38l-49 279q57 23 175 47.5t276 24.5q237 0 399.5 -83t246 -233.5t83.5 -354.5v-161q0 -196 -84 -346.5t-228.5 -235.5t-326.5 -84zM699 274
q84 0 143.5 37t93.5 102.5t40 152.5l-3 6h-559v-30q0 -80 30.5 -140.5t93.5 -94t161 -33.5z" />
    <glyph glyph-name="florin" unicode="&#x192;" horiz-adv-x="816" 
d="M124 -437q-33 0 -69.5 3.5t-83.5 12.5l16 265q26 -6 48 -9.5t44 -3.5q60 0 90.5 41.5t30.5 117.5v850h-154v242h154v109q0 188 117 289t315 101q44 0 85 -5t90 -16l-26 -259q-25 5 -48.5 7.5t-47.5 2.5q-64 0 -98.5 -31t-34.5 -89v-109h214v-242h-214l-1 -850
q0 -204 -110.5 -315.5t-316.5 -111.5z" />
    <glyph glyph-name="Ohorn" unicode="&#x1a0;" horiz-adv-x="1505" 
d="M753 -21q-151 0 -277.5 55.5t-219.5 155.5t-143.5 234.5t-50.5 292.5v23q0 157 50.5 291t143 234t218.5 156t277 56q148 0 275 -56t222.5 -156t148.5 -234t53 -291v-23q0 -158 -53 -292.5t-148 -234.5t-222 -155.5t-274 -55.5zM753 245q110 0 188 59t119 165t41 248v25
q0 139 -41.5 244.5t-119.5 164.5t-189 59q-117 0 -191.5 -58t-110.5 -163t-36 -247v-25q0 -142 36.5 -248.5t112 -165t191.5 -58.5zM1116 1127v174q79 0 105.5 58t26.5 197h266q0 -143 -45.5 -238.5t-134.5 -143t-218 -47.5z" />
    <glyph glyph-name="ohorn" unicode="&#x1a1;" horiz-adv-x="1226" 
d="M589 -21q-167 0 -285.5 69.5t-181 194t-62.5 288.5v20q0 162 62.5 286t180.5 194.5t284 70.5q167 0 284.5 -70t180 -194t62.5 -287v-20q0 -163 -62.5 -287.5t-180 -194.5t-282.5 -70zM589 246q64 0 102.5 34.5t56 98.5t17.5 152v20q0 85 -17.5 148.5t-56.5 99t-104 35.5
q-64 0 -103 -35.5t-56 -99t-17 -148.5v-20q0 -89 17 -153t56 -98t105 -34zM868 790v153q49 0 77 31t40 83.5t12 117.5h223q0 -112 -36.5 -199t-114 -136.5t-201.5 -49.5z" />
    <glyph glyph-name="Uhorn" unicode="&#x1af;" horiz-adv-x="1805" 
d="M779 -21q-182 0 -319.5 61.5t-213.5 179t-76 283.5v715l-150 32v206h652v-206l-150 -32v-715q0 -87 30 -144t87.5 -85t139.5 -28q81 0 137 27.5t85 84.5t29 145v715l-150 32v206h503v-953q0 -166 -76 -283.5t-212 -179t-316 -61.5zM1363 970l7 208q97 -2 121 61.5
t24 217.5h272v-5q3 -238 -89.5 -357.5t-334.5 -124.5z" />
    <glyph glyph-name="uhorn" unicode="&#x1b0;" horiz-adv-x="1422" 
d="M504 -21q-168 0 -264 106t-96 328v431l-116 32v206h116h351v-671q0 -80 33.5 -121.5t100.5 -41.5q39 0 77.5 14.5t68.5 43.5v538l-118 32v206h118h351v-845l135 -32v-205h-440l-23 123q-52 -70 -126.5 -107t-167.5 -37zM1078 790v153q49 0 77 31t40 83.5t12 117.5h223
q0 -112 -36.5 -199t-114 -136.5t-201.5 -49.5z" />
    <glyph glyph-name="uni01F0" unicode="&#x1f0;" horiz-adv-x="647" 
d="M136 -437q-47 0 -85 3.5t-79 12.5l16 265q26 -6 45.5 -9.5t51.5 -3.5q56 0 86.5 41.5t30.5 117.5v854l-152 32v206h501v-1092q0 -205 -109 -316t-306 -111zM763 1560v-26l-260 -247h-276l-256 251v22h270l125 -142l132 142h265z" />
    <glyph glyph-name="Aringacute" unicode="&#x1fa;" horiz-adv-x="1499" 
d="M23 0v205l102 15l434 1236h380l435 -1236l102 -15v-205h-544v205l95 18l-44 158h-468l-42 -158l95 -18v-205h-545zM589 627h319l-142 441l-16 51h-6l-17 -56zM752 1324q-108 0 -179 62.5t-71 159.5q0 95 72 160.5t178 65.5q105 0 175.5 -65.5t70.5 -160.5
q0 -97 -70.5 -159.5t-175.5 -62.5zM752 1458q40 0 63 24t23 64q0 41 -22 65t-64 24q-40 0 -65.5 -24t-25.5 -65q0 -40 25.5 -64t65.5 -24zM637 1826l128 200h288l2 -6l-210 -194h-201h-7z" />
    <glyph glyph-name="aringacute" unicode="&#x1fb;" horiz-adv-x="1167" 
d="M426 -21q-157 0 -256 89t-99 237q0 101 54.5 179t164 122.5t274.5 44.5h113v64q0 65 -37 110.5t-117 45.5q-34 0 -63.5 -8.5t-53.5 -24.5l-24 -138h-247l-5 301q92 41 192.5 71t224.5 30q221 0 351 -101.5t130 -289.5v-399q0 -23 0.5 -45t4.5 -42l117 -20v-205h-410
q-13 18 -28 48t-21 60q-49 -61 -110 -95t-155 -34zM534 227q38 0 76.5 15.5t66.5 46.5v156h-109q-71 0 -109.5 -31t-38.5 -82q0 -49 32 -77t82 -28zM557 1031q-108 0 -179 62.5t-71 159.5q0 95 72 160.5t178 65.5q105 0 175.5 -65.5t70.5 -160.5q0 -97 -70.5 -159.5
t-175.5 -62.5zM557 1165q40 0 63 24t23 64q0 41 -22 65t-64 24q-40 0 -65.5 -24t-25.5 -65q0 -40 25.5 -64t65.5 -24zM442 1533l128 200h288l2 -6l-210 -194h-201h-7z" />
    <glyph glyph-name="AEacute" unicode="&#x1fc;" horiz-adv-x="2090" 
d="M75 0v205l138 20l643 1231h1078v-398h-259l-10 125h-299l14 -304h470v-272h-459l15 -335h322l10 125h258v-397h-1085v205l146 29l-5 122h-381l-66 -137l88 -14v-205h-618zM795 615h245l-20 457h-5l-11 -25zM941 1561l208 273h358l2 -6l-280 -267h-281h-7z" />
    <glyph glyph-name="aeacute" unicode="&#x1fd;" horiz-adv-x="1710" 
d="M456 -21q-179 0 -282 89t-103 237q0 101 54.5 179t164 122.5t274.5 44.5h113v64q0 65 -37 110.5t-117 45.5q-34 0 -63.5 -8.5t-53.5 -24.5l-24 -138h-247l-5 301q92 41 192.5 71t224.5 30q103 0 185.5 -29.5t138.5 -91.5q42 42 90 68.5t103.5 39.5t118.5 13
q141 0 244 -60.5t159 -170.5t56 -260v-182h-613l-2 -7q6 -82 59 -129t162 -47q80 0 138.5 16t136.5 50l83 -213q-67 -49 -182 -84.5t-233 -35.5q-238 0 -366 136q-73 -64 -161.5 -100t-207.5 -36zM535 227q28 0 58 8t58 24t49 40q-13 32 -18 69t-5 66v11h-109
q-71 0 -109.5 -31t-38.5 -82q0 -49 32 -77t83 -28zM1029 646h272v27q0 77 -36 119t-95 42q-42 0 -73 -21.5t-49 -62t-21 -99.5zM655 1287l208 273h358l2 -6l-280 -267h-281h-7z" />
    <glyph glyph-name="Oslashacute" unicode="&#x1fe;" horiz-adv-x="1505" 
d="M753 -21q-151 0 -277.5 55.5t-219.5 155.5t-143.5 234.5t-50.5 292.5v23q0 157 50.5 291t143 234t218.5 156t277 56q148 0 275 -56t222.5 -156t148.5 -234t53 -291v-23q0 -158 -53 -292.5t-148 -234.5t-222 -155.5t-274 -55.5zM753 245q110 0 188 59t119 165t41 248v25
q0 139 -41.5 244.5t-119.5 164.5t-189 59q-117 0 -191.5 -58t-110.5 -163t-36 -247v-25q0 -142 36.5 -248.5t112 -165t191.5 -58.5zM189 -80l930 1615h197l-930 -1615h-197zM545 1561l208 273h358l2 -6l-280 -267h-281h-7z" />
    <glyph glyph-name="oslashacute" unicode="&#x1ff;" horiz-adv-x="1174" 
d="M589 -21q-167 0 -285.5 69.5t-181 194t-62.5 288.5v20q0 162 62.5 286t180.5 194.5t284 70.5q167 0 284.5 -70t180 -194t62.5 -287v-20q0 -163 -62.5 -287.5t-180 -194.5t-282.5 -70zM589 246q64 0 102.5 34.5t56 98.5t17.5 152v20q0 85 -17.5 148.5t-56.5 99t-104 35.5
q-64 0 -103 -35.5t-56 -99t-17 -148.5v-20q0 -89 17 -153t56 -98t105 -34zM165 -141l663 1364h182l-662 -1364h-183zM380 1287l208 273h358l2 -6l-280 -267h-281h-7z" />
    <glyph glyph-name="uni0218" unicode="&#x218;" horiz-adv-x="1272" 
d="M677 -21q-178 0 -316 34t-275 128v378h271l30 -194q32 -36 113 -60.5t177 -24.5q67 0 112 16.5t68 48.5t23 77q0 43 -21.5 77t-70.5 64.5t-132 62.5q-187 60 -307 122t-178.5 147t-58.5 211q0 121 69 211.5t190 142.5t277 55q178 4 315 -35.5t242 -119.5v-351h-260
l-41 195q-34 17 -97 31t-134 14q-61 0 -108.5 -16t-75 -48t-27.5 -80q0 -39 23 -69.5t81 -61t162 -70.5q248 -73 376.5 -182.5t128.5 -297.5q0 -129 -70 -219.5t-195 -138t-291 -47.5zM603 -529l-165 99q30 48 46 97t16 126v97h287v-77q0 -97 -55.5 -190t-128.5 -152z" />
    <glyph glyph-name="uni0219" unicode="&#x219;" horiz-adv-x="1041" 
d="M536 -21q-128 0 -238.5 23.5t-199.5 64.5l-4 337h237l40 -157q21 -13 54 -22.5t79 -9.5q85 0 117 23t32 58q0 34 -36.5 62.5t-155.5 50.5q-190 37 -280 126.5t-90 223.5q0 91 42 168t137.5 124.5t255.5 47.5q122 0 232.5 -21t181.5 -53l-1 -326h-236l-30 140
q-23 16 -52 24t-65 8q-67 0 -98 -24t-31 -62q0 -22 13.5 -44t53.5 -42t117 -37q185 -41 278.5 -114t93.5 -222q0 -160 -114.5 -253.5t-332.5 -93.5zM488 -529l-165 99q30 48 46 97t16 126v97h287v-77q0 -97 -55.5 -190t-128.5 -152z" />
    <glyph glyph-name="uni021A" unicode="&#x21a;" horiz-adv-x="1379" 
d="M361 0v205l152 32v947h-225l-9 -157h-265v429h1353v-429h-268l-8 157h-227v-947l152 -32v-205h-655zM657 -529l-165 99q30 48 46 97t16 126v97h287v-77q0 -97 -55.5 -190t-128.5 -152z" />
    <glyph glyph-name="uni021B" unicode="&#x21b;" horiz-adv-x="738" 
d="M508 -23q-170 0 -258.5 90.5t-88.5 286.5v486h-135v242h135v267h349v-267h177v-242h-177v-485q0 -53 24 -74t66 -21q18 0 36 2t36 5l24 -262q-46 -13 -92.5 -20.5t-95.5 -7.5zM316 -529l-165 99q30 48 46 97t16 126v97h287v-77q0 -97 -55.5 -190t-128.5 -152z" />
    <glyph glyph-name="uni0237" unicode="&#x237;" horiz-adv-x="647" 
d="M136 -437q-47 0 -85 3.5t-79 12.5l16 265q26 -6 45.5 -9.5t51.5 -3.5q56 0 86.5 41.5t30.5 117.5v854l-152 32v206h501v-1092q0 -205 -109 -316t-306 -111z" />
    <glyph glyph-name="uni0259" unicode="&#x259;" horiz-adv-x="1121" 
d="M558 -19q-147 0 -253 59.5t-163 170t-57 261.5v181h613v4v3q-7 51 -35 90.5t-76 62.5t-115 23q-71 0 -135 -14.5t-150 -50.5l-82 212q71 51 185.5 86.5t243.5 35.5q160 0 278 -69t183.5 -188t65.5 -270v-37q0 -166 -58 -292.5t-170 -197t-275 -70.5zM555 248q48 0 78 22
t46 63.5t22 98.5l-4 5h-269v-27q0 -53 13.5 -89t42 -54.5t71.5 -18.5z" />
    <glyph glyph-name="uni02BC" unicode="&#x2bc;" horiz-adv-x="504" 
d="M232 969l-164 82q34 68 53 142.5t19 173.5v193h275v-195q0 -67 -26 -141t-67.5 -141t-89.5 -114z" />
    <glyph glyph-name="circumflex" unicode="&#x2c6;" horiz-adv-x="872" 
d="M40 1287v26l260 247h276l256 -251v-22h-270l-125 142l-132 -142h-265z" />
    <glyph glyph-name="caron" unicode="&#x2c7;" horiz-adv-x="872" 
d="M832 1560v-26l-260 -247h-276l-256 251v22h270l125 -142l132 142h265z" />
    <glyph glyph-name="uni02C9" unicode="&#x2c9;" horiz-adv-x="817" 
d="M40 1288v195h737v-195h-737z" />
    <glyph glyph-name="breve" unicode="&#x2d8;" horiz-adv-x="818" 
d="M410 1258q-172 0 -274.5 83t-95.5 213l2 6h228q0 -50 33.5 -83.5t106.5 -33.5q71 0 104 32.5t33 84.5h229l2 -6q5 -130 -96 -213t-272 -83z" />
    <glyph glyph-name="dotaccent" unicode="&#x2d9;" horiz-adv-x="441" 
d="M40 1287v273h361v-273h-361z" />
    <glyph glyph-name="ring" unicode="&#x2da;" horiz-adv-x="578" 
d="M291 1230q-108 0 -179.5 64t-71.5 163q0 98 72.5 164.5t178.5 66.5q105 0 176 -67t71 -164q0 -99 -71 -163t-176 -64zM291 1364q41 0 64 25t23 68t-23 68.5t-64 25.5q-40 0 -66 -25.5t-26 -68.5t25.5 -68t66.5 -25z" />
    <glyph glyph-name="ogonek" unicode="&#x2db;" horiz-adv-x="463" 
d="M309 -419q-118 0 -193.5 59t-75.5 165q0 71 50 142.5t173 114.5l160 -62q-75 -41 -104 -76.5t-29 -74.5q0 -35 19.5 -51t61.5 -16q22 0 40.5 3t33.5 7l36 -173q-33 -16 -74 -27t-98 -11z" />
    <glyph glyph-name="tilde" unicode="&#x2dc;" horiz-adv-x="864" 
d="M219 1270l-179 50q0 70 34 129.5t89 95.5t117 36q51 0 103.5 -23.5t99.5 -47t80 -24.5q41 2 62 31.5t21 75.5l178 -51q0 -72 -33.5 -131.5t-88.5 -95t-119 -35.5q-54 0 -106.5 24t-97.5 48t-79 24q-41 0 -61 -31.5t-20 -74.5z" />
    <glyph glyph-name="hungarumlaut" unicode="&#x2dd;" horiz-adv-x="1000" 
d="M433 1287l-2 5l239 268h307l1 -6l-289 -267h-256zM47 1287h-7l209 273h290l2 -5l-240 -268h-254z" />
    <glyph glyph-name="uni02F3" unicode="&#x2f3;" horiz-adv-x="578" 
d="M291 -530q-108 0 -179.5 64t-71.5 163q0 98 72.5 164.5t178.5 66.5q105 0 176 -67t71 -164q0 -99 -71 -163t-176 -64zM291 -396q41 0 64 25t23 68t-23 68.5t-64 25.5q-40 0 -66 -25.5t-26 -68.5t25.5 -68t66.5 -25z" />
    <glyph glyph-name="gravecomb" unicode="&#x300;" 
d="M608 1287h-7h-281l-280 267l2 6h358z" />
    <glyph glyph-name="acutecomb" unicode="&#x301;" 
d="M40 1287l208 273h358l2 -6l-280 -267h-281h-7z" />
    <glyph glyph-name="uni0302" unicode="&#x302;" 
d="M40 1287v26l260 247h276l256 -251v-22h-270l-125 142l-132 -142h-265z" />
    <glyph glyph-name="tildecomb" unicode="&#x303;" 
d="M219 1270l-179 50q0 70 34 129.5t89 95.5t117 36q51 0 103.5 -23.5t99.5 -47t80 -24.5q41 2 62 31.5t21 75.5l178 -51q0 -72 -33.5 -131.5t-88.5 -95t-119 -35.5q-54 0 -106.5 24t-97.5 48t-79 24q-41 0 -61 -31.5t-20 -74.5z" />
    <glyph glyph-name="uni0304" unicode="&#x304;" 
d="M40 1288v195h737v-195h-737z" />
    <glyph glyph-name="uni0306" unicode="&#x306;" 
d="M410 1258q-172 0 -274.5 83t-95.5 213l2 6h228q0 -50 33.5 -83.5t106.5 -33.5q71 0 104 32.5t33 84.5h229l2 -6q5 -130 -96 -213t-272 -83z" />
    <glyph glyph-name="uni0307" unicode="&#x307;" 
d="M40 1287v273h361v-273h-361z" />
    <glyph glyph-name="uni0308" unicode="&#x308;" 
d="M509 1287v273h327v-273h-327zM40 1287v273h327v-273h-327z" />
    <glyph glyph-name="hookabovecomb" unicode="&#x309;" 
d="M64 1255l-24 126q71 2 102.5 17t31.5 45q0 35 -34 49.5t-97 14.5l7 148q209 0 319.5 -52t110.5 -146q0 -61 -43.5 -96.5t-105.5 -44.5l-1 -61h-266z" />
    <glyph glyph-name="uni030A" unicode="&#x30a;" 
d="M291 1230q-108 0 -179.5 64t-71.5 163q0 98 72.5 164.5t178.5 66.5q105 0 176 -67t71 -164q0 -99 -71 -163t-176 -64zM291 1364q41 0 64 25t23 68t-23 68.5t-64 25.5q-40 0 -66 -25.5t-26 -68.5t25.5 -68t66.5 -25z" />
    <glyph glyph-name="uni030B" unicode="&#x30b;" 
d="M433 1287l-2 5l239 268h307l1 -6l-289 -267h-256zM47 1287h-7l209 273h290l2 -5l-240 -268h-254z" />
    <glyph glyph-name="uni030C" unicode="&#x30c;" 
d="M832 1560v-26l-260 -247h-276l-256 251v22h270l125 -142l132 142h265z" />
    <glyph glyph-name="uni030F" unicode="&#x30f;" 
d="M585 1287h-256l-289 267l1 6h307l239 -268zM971 1287h-254l-240 268l2 5h290l209 -273h-7z" />
    <glyph glyph-name="uni0312" unicode="&#x312;" 
d="M224 1685l165 -99q-30 -48 -46 -97t-16 -126v-97h-287v77q0 98 55.5 190.5t128.5 151.5z" />
    <glyph glyph-name="uni031B" unicode="&#x31b;" 
d="M40 790v153q49 0 77 31t40 83.5t12 117.5h223q0 -112 -36.5 -199t-114 -136.5t-201.5 -49.5z" />
    <glyph glyph-name="dotbelowcomb" unicode="&#x323;" 
d="M40 -416v273h361v-273h-361z" />
    <glyph glyph-name="uni0325" unicode="&#x325;" 
d="M291 -530q-108 0 -179.5 64t-71.5 163q0 98 72.5 164.5t178.5 66.5q105 0 176 -67t71 -164q0 -99 -71 -163t-176 -64zM291 -396q41 0 64 25t23 68t-23 68.5t-64 25.5q-40 0 -66 -25.5t-26 -68.5t25.5 -68t66.5 -25z" />
    <glyph glyph-name="uni0326.1" unicode="&#x326;" 
d="M205 -529l-165 99q30 48 46 97t16 126v97h287v-77q0 -97 -55.5 -190t-128.5 -152z" />
    <glyph glyph-name="uni0327" unicode="&#x327;" 
d="M71 -474l-7 191q53 0 83 17t30 53q0 40 -34.5 56t-102.5 18l30 149h262l-10 -64q68 -11 114 -50.5t46 -116.5q0 -115 -107.5 -184t-303.5 -69z" />
    <glyph glyph-name="uni0328" unicode="&#x328;" 
d="M309 -419q-118 0 -193.5 59t-75.5 165q0 71 50 142.5t173 114.5l160 -62q-75 -41 -104 -76.5t-29 -74.5q0 -35 19.5 -51t61.5 -16q22 0 40.5 3t33.5 7l36 -173q-33 -16 -74 -27t-98 -11z" />
    <glyph glyph-name="uni0335" unicode="&#x335;" 
d="M40 669v155h694v-155h-694z" />
    <glyph glyph-name="uni0336" unicode="&#x336;" 
d="M40 669v155h1533v-155h-1533z" />
    <glyph glyph-name="uni0337" unicode="&#x337;" 
d="M40 568v214l612 187v-214z" />
    <glyph glyph-name="uni0338" unicode="&#x338;" 
d="M40 -145l663 1364h182l-662 -1364h-183z" />
    <glyph glyph-name="tonos" unicode="&#x384;" horiz-adv-x="527" 
d="M125 1270l86 348h321l-232 -348h-175z" />
    <glyph glyph-name="dieresistonos" unicode="&#x385;" horiz-adv-x="940" 
d="M381 1392l37 362h320l-207 -362h-150zM40 1197v259h298v-259h-298zM602 1197v259h298v-259h-298z" />
    <glyph glyph-name="Alphatonos" unicode="&#x386;" horiz-adv-x="1499" 
d="M23 0v205l102 15l434 1236h380l435 -1236l102 -15v-205h-544v205l95 18l-44 158h-468l-42 -158l95 -18v-205h-545zM589 627h319l-142 441l-16 51h-6l-17 -56zM137 1270l86 348h321l-232 -348h-175z" />
    <glyph glyph-name="anoteleia" unicode="&#x387;" horiz-adv-x="576" 
d="M137 534v290h349v-290h-349z" />
    <glyph glyph-name="Epsilontonos" unicode="&#x388;" horiz-adv-x="1606" 
d="M337 0v205l151 32v981l-151 32v206h1163v-420h-265l-8 150h-388v-299h465v-269h-465v-347h407l8 157h262v-428h-1179zM-10 1270l86 348h321l-232 -348h-175z" />
    <glyph glyph-name="Etatonos" unicode="&#x389;" horiz-adv-x="1920" 
d="M347 0v205l151 32v981l-151 32v206h653v-206l-151 -32v-368h530v368l-151 32v206h151h350h151v-206l-151 -32v-981l151 -32v-205h-652v205l151 32v344h-530v-344l151 -32v-205h-653zM-10 1270l86 348h321l-232 -348h-175z" />
    <glyph glyph-name="Iotatonos" unicode="&#x38a;" horiz-adv-x="1044" 
d="M352 0v205l151 32v981l-151 32v206h652v-206l-151 -32v-981l151 -32v-205h-652zM-10 1270l86 348h321l-232 -348h-175z" />
    <glyph glyph-name="Omicrontonos" unicode="&#x38c;" horiz-adv-x="1558" 
d="M806 -21q-151 0 -277.5 55.5t-219.5 155.5t-143.5 234.5t-50.5 292.5v23q0 157 50.5 291t143 234t218.5 156t277 56q148 0 275 -56t222.5 -156t148.5 -234t53 -291v-23q0 -158 -53 -292.5t-148 -234.5t-222 -155.5t-274 -55.5zM806 245q110 0 188 59t119 165t41 248v25
q0 139 -41.5 244.5t-119.5 164.5t-189 59q-117 0 -191.5 -58t-110.5 -163t-36 -247v-25q0 -142 36.5 -248.5t112 -165t191.5 -58.5zM-5 1270l86 348h321l-232 -348h-175z" />
    <glyph glyph-name="Upsilontonos" unicode="&#x38e;" horiz-adv-x="1848" 
d="M752 0v205l151 32v243l-422 749l-152 21v206h630v-206l-90 -16l200 -399l23 -51h9l24 48l234 402l-152 16v206h618v-206l-154 -21l-418 -721v-271l152 -32v-205h-653zM-29 1270l86 348h321l-232 -348h-175z" />
    <glyph glyph-name="Omegatonos" unicode="&#x38f;" horiz-adv-x="1466" 
d="M242 0v272h245q-87 61 -154 144.5t-105 183.5t-38 209v39q0 184 76.5 326t213 222.5t314.5 80.5q179 0 315.5 -80.5t214 -222.5t77.5 -326v-39q0 -110 -38 -209.5t-104.5 -182.5t-151.5 -145h249v-272h-510v275q48 26 82.5 90t53.5 170.5t19 261.5v41q0 121 -24 202
t-70 122.5t-113 41.5q-64 0 -109.5 -41.5t-69 -123t-23.5 -201.5v-41q0 -157 18.5 -264t54 -170t86.5 -88v-275h-509zM11 1270l86 348h321l-232 -348h-175z" />
    <glyph glyph-name="iotadieresistonos" unicode="&#x390;" horiz-adv-x="727" 
d="M541 -21q-181 0 -278 94.5t-97 280.5v490l-151 32v206h502v-728q0 -59 19.5 -82.5t67.5 -23.5q32 0 44.5 1.5t55.5 11.5l22 -258q-48 -13 -88.5 -18.5t-96.5 -5.5zM270 1392l37 362h320l-207 -362h-150zM-71 1197v259h298v-259h-298zM491 1197v259h298v-259h-298z" />
    <glyph glyph-name="Alpha" unicode="&#x391;" horiz-adv-x="1499" 
d="M23 0v205l102 15l434 1236h380l435 -1236l102 -15v-205h-544v205l95 18l-44 158h-468l-42 -158l95 -18v-205h-545zM589 627h319l-142 441l-16 51h-6l-17 -56z" />
    <glyph glyph-name="Beta" unicode="&#x392;" horiz-adv-x="1358" 
d="M40 0v205l151 32v981l-151 32v206h151h508q275 0 429 -101t154 -301q0 -103 -49 -184.5t-151 -123.5q87 -19 142 -64.5t81 -110t26 -139.5q0 -214 -143 -323t-415 -109h-733zM542 267h231q104 0 156.5 41t52.5 125q0 63 -20 104.5t-62 62t-110 20.5h-248v-353zM542 852
h142q124 0 185.5 39.5t61.5 122.5q0 91 -57.5 132.5t-174.5 41.5h-157v-336z" />
    <glyph glyph-name="Gamma" unicode="&#x393;" horiz-adv-x="1227" 
d="M58 0v205l150 32v981l-150 32v206h1133v-398h-258l-10 130h-364v-951l151 -32v-205h-652z" />
    <glyph glyph-name="uni0394" unicode="&#x394;" horiz-adv-x="1477" 
d="M0 0l563 1456h379l572 -1456h-1514zM468 267h576l-259 702l-30 83h-6l-36 -98z" />
    <glyph glyph-name="uni0394" unicode="&#x2206;" horiz-adv-x="1477" 
d="M0 0l563 1456h379l572 -1456h-1514zM468 267h576l-259 702l-30 83h-6l-36 -98z" />
    <glyph glyph-name="Epsilon" unicode="&#x395;" horiz-adv-x="1309" 
d="M40 0v205l151 32v981l-151 32v206h1163v-420h-265l-8 150h-388v-299h465v-269h-465v-347h407l8 157h262v-428h-1179z" />
    <glyph glyph-name="Zeta" unicode="&#x396;" horiz-adv-x="1244" 
d="M64 0v219l681 968h-367l-26 -185h-263l19 454h1078v-211l-683 -977h437l28 173h262l-29 -441h-1137z" />
    <glyph glyph-name="Eta" unicode="&#x397;" horiz-adv-x="1613" 
d="M40 0v205l151 32v981l-151 32v206h653v-206l-151 -32v-368h530v368l-151 32v206h151h350h151v-206l-151 -32v-981l151 -32v-205h-652v205l151 32v344h-530v-344l151 -32v-205h-653z" />
    <glyph glyph-name="Theta" unicode="&#x398;" horiz-adv-x="1508" 
d="M756 -21q-151 0 -277.5 55.5t-219.5 155.5t-143.5 234.5t-50.5 292.5v23q0 157 50.5 291t143 234t218.5 156t277 56q148 0 275 -56t222.5 -156t148.5 -234t53 -291v-23q0 -158 -53 -292.5t-148 -234.5t-222 -155.5t-274 -55.5zM756 245q110 0 188 59t119 165t41 248v25
q0 139 -41.5 244.5t-119.5 164.5t-189 59q-117 0 -191.5 -58t-110.5 -163t-36 -247v-25q0 -142 36.5 -248.5t112 -165t191.5 -58.5zM543 591v254h440v-254h-440z" />
    <glyph glyph-name="Iota" unicode="&#x399;" horiz-adv-x="745" 
d="M40 0v205l151 32v981l-151 32v206h652v-206l-151 -32v-981l151 -32v-205h-652z" />
    <glyph glyph-name="Kappa" unicode="&#x39a;" horiz-adv-x="1573" 
d="M451 317l-179 205l726 715l1 2l-165 11v206h680v-206l-137 -29zM40 0v205l151 32v981l-151 32v206h640v-206l-138 -32v-981l138 -32v-205h-640zM865 0v205l146 11h2l-350 479l245 217l510 -682l149 -25v-205h-702z" />
    <glyph glyph-name="Lambda" unicode="&#x39b;" horiz-adv-x="1478" 
d="M28 0v205l137 17l396 1234h379l396 -1234l137 -17v-205h-585v205l90 19l-185 752l-38 138h-6l-40 -143l-187 -747l91 -19v-205h-585z" />
    <glyph glyph-name="Mu" unicode="&#x39c;" horiz-adv-x="2118" 
d="M32 0v205l150 32v981l-150 32v206h150h537l352 -959h6l342 959h679v-206l-151 -32v-981l151 -32v-205h-652v205l157 32v190l8 685l-6 1l-412 -1113h-276l-418 1100l-7 -1l24 -624v-238l169 -32v-205h-653z" />
    <glyph glyph-name="Nu" unicode="&#x39d;" horiz-adv-x="1611" 
d="M39 0v205l150 32v981l-150 32v206h150h357l584 -932h6v694l-191 32v206h502h151v-206l-151 -32v-1218h-346l-595 912h-6v-675l192 -32v-205h-653z" />
    <glyph glyph-name="Xi" unicode="&#x39e;" horiz-adv-x="1286" 
d="M61 0v397h257l9 -130h644l10 130h258v-397h-1178zM335 603v256h634v-256h-634zM97 1058v398h1084v-398h-258l-11 130h-549l-8 -130h-258z" />
    <glyph glyph-name="Omicron" unicode="&#x39f;" horiz-adv-x="1505" 
d="M753 -21q-151 0 -277.5 55.5t-219.5 155.5t-143.5 234.5t-50.5 292.5v23q0 157 50.5 291t143 234t218.5 156t277 56q148 0 275 -56t222.5 -156t148.5 -234t53 -291v-23q0 -158 -53 -292.5t-148 -234.5t-222 -155.5t-274 -55.5zM753 245q110 0 188 59t119 165t41 248v25
q0 139 -41.5 244.5t-119.5 164.5t-189 59q-117 0 -191.5 -58t-110.5 -163t-36 -247v-25q0 -142 36.5 -248.5t112 -165t191.5 -58.5z" />
    <glyph glyph-name="Pi" unicode="&#x3a0;" horiz-adv-x="1618" 
d="M58 0v205l150 32v981l-150 32v206h1525v-206l-150 -32v-981l150 -32v-205h-651v205l150 32v951h-523v-951l151 -32v-205h-652z" />
    <glyph glyph-name="Rho" unicode="&#x3a1;" horiz-adv-x="1342" 
d="M40 0v205l151 32v981l-151 32v206h151h557q174 0 302 -61t197.5 -169.5t69.5 -252.5t-69.5 -252t-197.5 -168t-302 -60h-206v-256l151 -32v-205h-653zM542 762h206q107 0 162.5 58.5t55.5 150.5q0 95 -55.5 156t-162.5 61h-206v-426z" />
    <glyph glyph-name="Sigma" unicode="&#x3a3;" horiz-adv-x="1176" 
d="M64 0v155l419 581l-419 567v153h1085v-398h-257l-10 130h-315l-21 3l309 -449v-12l-312 -465l5 3h347l10 129h257v-397h-1098z" />
    <glyph glyph-name="Tau" unicode="&#x3a4;" horiz-adv-x="1379" 
d="M361 0v205l152 32v947h-225l-9 -157h-265v429h1353v-429h-268l-8 157h-227v-947l152 -32v-205h-655z" />
    <glyph glyph-name="Upsilon" unicode="&#x3a5;" horiz-adv-x="1537" 
d="M441 0v205l151 32v243l-422 749l-152 21v206h630v-206l-90 -16l200 -399l23 -51h9l24 48l234 402l-152 16v206h618v-206l-154 -21l-418 -721v-271l152 -32v-205h-653z" />
    <glyph glyph-name="Phi" unicode="&#x3a6;" horiz-adv-x="1529" 
d="M443 0v194l150 31v41l5 4q-170 7 -295.5 63t-194 154t-68.5 229q0 137 69.5 238t195 159t293.5 64l-5 2v51l-150 31v195h651v-195l-150 -31v-51l-3 -2q167 -7 291 -64.5t192.5 -158t68.5 -236.5q0 -131 -68 -229.5t-192 -155t-292 -63.5l3 -2v-43l150 -31v-194h-651z
M590 541l3 3v358l-3 3q-60 -2 -106.5 -24.5t-73.5 -64t-27 -100.5q0 -52 27 -91t73.5 -61t106.5 -23zM947 541q59 1 105 22.5t72.5 61t26.5 93.5q0 59 -26 100t-71.5 63t-106.5 24l-3 -3v-358z" />
    <glyph glyph-name="Chi" unicode="&#x3a7;" horiz-adv-x="1459" 
d="M8 0v205l129 26l387 479l-370 513l-112 27v206h629v-206l-140 -13l206 -289l214 289l-133 13v206h614v-206l-126 -27l-359 -471l406 -520l144 -27v-205h-648v205l116 12l-224 306l-233 -306l115 -12v-205h-615z" />
    <glyph glyph-name="Psi" unicode="&#x3a8;" horiz-adv-x="1775" 
d="M596 0v205l150 32v159q-176 14 -302.5 90t-194.5 209.5t-68 317.5v205l-126 32v206h476v-443q0 -100 23.5 -171t70 -111.5t115.5 -51.5l6 3v536l-126 32v206h603v-206l-126 -32v-537l6 -1q65 9 105.5 48t59.5 110.5t19 174.5v443h478v-206l-127 -32v-205q0 -180 -65 -311
t-186 -208.5t-290 -95.5v-161l150 -32v-205h-651z" />
    <glyph glyph-name="uni03A9" unicode="&#x3a9;" horiz-adv-x="1341" 
d="M117 0v272h245q-87 61 -154 144.5t-105 183.5t-38 209v39q0 184 76.5 326t213 222.5t314.5 80.5q179 0 315.5 -80.5t214 -222.5t77.5 -326v-39q0 -110 -38 -209.5t-104.5 -182.5t-151.5 -145h249v-272h-510v275q48 26 82.5 90t53.5 170.5t19 261.5v41q0 121 -24 202
t-70 122.5t-113 41.5q-64 0 -109.5 -41.5t-69 -123t-23.5 -201.5v-41q0 -157 18.5 -264t54 -170t86.5 -88v-275h-509z" />
    <glyph glyph-name="uni03A9" unicode="&#x2126;" horiz-adv-x="1341" 
d="M117 0v272h245q-87 61 -154 144.5t-105 183.5t-38 209v39q0 184 76.5 326t213 222.5t314.5 80.5q179 0 315.5 -80.5t214 -222.5t77.5 -326v-39q0 -110 -38 -209.5t-104.5 -182.5t-151.5 -145h249v-272h-510v275q48 26 82.5 90t53.5 170.5t19 261.5v41q0 121 -24 202
t-70 122.5t-113 41.5q-64 0 -109.5 -41.5t-69 -123t-23.5 -201.5v-41q0 -157 18.5 -264t54 -170t86.5 -88v-275h-509z" />
    <glyph glyph-name="Iotadieresis" unicode="&#x3aa;" horiz-adv-x="745" 
d="M40 0v205l151 32v981l-151 32v206h652v-206l-151 -32v-981l151 -32v-205h-652zM438 1561v273h327v-273h-327zM-31 1561v273h327v-273h-327z" />
    <glyph glyph-name="Upsilondieresis" unicode="&#x3ab;" horiz-adv-x="1537" 
d="M441 0v205l151 32v243l-422 749l-152 21v206h630v-206l-90 -16l200 -399l23 -51h9l24 48l234 402l-152 16v206h618v-206l-154 -21l-418 -721v-271l152 -32v-205h-653zM840 1561v273h327v-273h-327zM371 1561v273h327v-273h-327z" />
    <glyph glyph-name="alphatonos" unicode="&#x3ac;" horiz-adv-x="1219" 
d="M501 -21q-126 0 -217 67t-140.5 188.5t-49.5 283.5v21q0 169 49 295.5t140 197t216 70.5q89 0 148.5 -38t102.5 -107l25 123h307v-705q0 -69 18 -97.5t49 -28.5q5 0 9.5 0.5t6.5 1.5l25 -251q-35 -12 -66 -16.5t-61 -4.5q-102 0 -177 42.5t-114 125.5
q-45 -81 -109.5 -124.5t-161.5 -43.5zM608 246q41 0 71.5 14t51.5 41v468q-14 22 -32 36.5t-40 21.5t-47 7q-59 0 -95.5 -37t-53 -103t-16.5 -155v-21q0 -130 35.5 -201t125.5 -71zM493 1270l86 348h321l-232 -348h-175z" />
    <glyph glyph-name="epsilontonos" unicode="&#x3ad;" horiz-adv-x="1113" 
d="M592 -21q-146 0 -263 40t-185 113.5t-68 174.5q0 181 207 251q-89 36 -138.5 98t-49.5 142q0 94 64 162t175.5 105t254.5 37q144 0 254.5 -41.5t172.5 -115.5t58 -174l-2 -6h-340q0 30 -19.5 49t-52 28.5t-71.5 9.5q-73 0 -108 -30t-35 -68q0 -45 41 -70t110 -25h173
v-213h-173q-81 0 -126.5 -30t-45.5 -77q0 -45 42.5 -78t124.5 -33q71 0 114 25t43 67h341l2 -6q4 -108 -63 -182.5t-182 -113.5t-255 -39zM489 1270l86 348h321l-232 -348h-175z" />
    <glyph glyph-name="etatonos" unicode="&#x3ae;" horiz-adv-x="1270" 
d="M780 -415v1066q0 100 -31.5 141.5t-93.5 41.5q-49 0 -89 -22t-69 -62v-750h-351v753q0 38 -15.5 53t-51.5 15q-18 0 -22 1t-36 -5l-22 233q37 16 103.5 28.5t132.5 12.5q101 0 165 -37t83 -105q2 -5 3.5 -10.5t2.5 -10.5q54 83 133 128.5t174 45.5q156 0 245.5 -108
t89.5 -343v-1066h-351zM515 1270l86 348h321l-232 -348h-175z" />
    <glyph glyph-name="iotatonos" unicode="&#x3af;" horiz-adv-x="727" 
d="M541 -21q-181 0 -278 94.5t-97 280.5v490l-151 32v206h502v-728q0 -59 19.5 -82.5t67.5 -23.5q32 0 44.5 1.5t55.5 11.5l22 -258q-48 -13 -88.5 -18.5t-96.5 -5.5zM261 1270l86 348h321l-232 -348h-175z" />
    <glyph glyph-name="upsilondieresistonos" unicode="&#x3b0;" horiz-adv-x="1197" 
d="M602 -21q-206 0 -323.5 108.5t-117.5 325.5v350q0 37 -16.5 52.5t-54.5 15.5q-13 0 -26.5 -1.5t-29.5 -3.5l-20 234q35 15 102 27.5t134 12.5q124 0 193 -59t69 -174l-2 -478q0 -76 24 -109.5t65 -33.5q50 0 88 40.5t60 113t22 168.5q0 128 -23.5 257t-64.5 257h323
q34 -69 60 -149.5t40.5 -172t14.5 -192.5q0 -179 -56.5 -311.5t-171 -205t-289.5 -72.5zM487 1392l37 362h320l-207 -362h-150zM146 1197v259h298v-259h-298zM708 1197v259h298v-259h-298z" />
    <glyph glyph-name="alpha" unicode="&#x3b1;" horiz-adv-x="1219" 
d="M501 -21q-126 0 -217 67t-140.5 188.5t-49.5 283.5v21q0 169 49 295.5t140 197t216 70.5q89 0 148.5 -38t102.5 -107l25 123h307v-705q0 -69 18 -97.5t49 -28.5q5 0 9.5 0.5t6.5 1.5l25 -251q-35 -12 -66 -16.5t-61 -4.5q-102 0 -177 42.5t-114 125.5
q-45 -81 -109.5 -124.5t-161.5 -43.5zM608 246q41 0 71.5 14t51.5 41v468q-14 22 -32 36.5t-40 21.5t-47 7q-59 0 -95.5 -37t-53 -103t-16.5 -155v-21q0 -130 35.5 -201t125.5 -71z" />
    <glyph glyph-name="beta" unicode="&#x3b2;" horiz-adv-x="1216" 
d="M115 -415v1449q0 134 65 233.5t178.5 154.5t261.5 55q137 0 243.5 -48t168 -135.5t61.5 -208.5q0 -103 -47.5 -187t-130.5 -135q131 -43 197.5 -127.5t66.5 -234.5q0 -133 -51.5 -227.5t-147.5 -144.5t-232 -50q-75 0 -147 16.5t-135 49.5v-460h-351zM627 246
q96 0 149 49t53 140q0 58 -22.5 99.5t-66 64t-107.5 22.5h-67v237h30q77 0 112 45.5t35 125.5q0 56 -16 96t-46.5 62t-74.5 22t-75.5 -21.5t-48 -60.5t-16.5 -93v-756q42 -17 84 -24.5t77 -7.5z" />
    <glyph glyph-name="gamma" unicode="&#x3b3;" horiz-adv-x="1130" 
d="M391 -418v477l-201 679q-10 41 -34.5 58t-65.5 17q-13 0 -21.5 -1t-12.5 -2l-26 266q39 10 81 13t81 3q84 0 130.5 -14t72 -51t47.5 -106l132 -466l8 -47h6l6 47l79 400l-93 21v206h536v-206l-94 -14l-280 -877v-403h-351z" />
    <glyph glyph-name="delta" unicode="&#x3b4;" horiz-adv-x="1151" 
d="M585 -20q-166 0 -286 68t-184.5 187.5t-64.5 275.5v19q0 107 39 196.5t106.5 151.5t151.5 85l4 11q-85 47 -131 112.5t-46 159.5q0 103 53.5 176.5t152 113t231.5 39.5q87 0 158 -18.5t159 -62.5l-44 -218q-35 14 -73.5 25.5t-79 18.5t-83.5 7q-72 0 -110.5 -21.5
t-38.5 -62.5q0 -26 22.5 -54t92.5 -55q166 -58 277.5 -141t168 -193t56.5 -251v-19q0 -161 -64.5 -285t-183.5 -194.5t-283 -70.5zM585 246q60 0 100.5 39.5t61 108t20.5 156.5v19q0 65 -23 126.5t-64 106t-95 56.5q-60 0 -101.5 -38t-63 -103.5t-21.5 -147.5v-19
q0 -88 20.5 -156.5t62 -108t103.5 -39.5z" />
    <glyph glyph-name="epsilon" unicode="&#x3b5;" horiz-adv-x="1113" 
d="M592 -21q-146 0 -263 40t-185 113.5t-68 174.5q0 181 207 251q-89 36 -138.5 98t-49.5 142q0 94 64 162t175.5 105t254.5 37q144 0 254.5 -41.5t172.5 -115.5t58 -174l-2 -6h-340q0 30 -19.5 49t-52 28.5t-71.5 9.5q-73 0 -108 -30t-35 -68q0 -45 41 -70t110 -25h173
v-213h-173q-81 0 -126.5 -30t-45.5 -77q0 -45 42.5 -78t124.5 -33q71 0 114 25t43 67h341l2 -6q4 -108 -63 -182.5t-182 -113.5t-255 -39z" />
    <glyph glyph-name="zeta" unicode="&#x3b6;" horiz-adv-x="997" 
d="M677 -391l-175 123q35 35 54.5 65.5t28.5 56t9 45.5q1 31 -18.5 53.5t-69.5 35.5l-64 16q-187 49 -278.5 145t-91.5 265q0 100 28.5 185.5t87 176.5t148.5 205l166 203l-2 5h-450v267h917v-185l-371 -430q-64 -76 -103 -136.5t-56 -117t-17 -121.5q0 -100 41.5 -141
t130.5 -67l44 -15q106 -31 174.5 -65.5t102 -82t31.5 -119.5q1 -66 -28 -129.5t-88.5 -122.5t-150.5 -115z" />
    <glyph glyph-name="eta" unicode="&#x3b7;" horiz-adv-x="1270" 
d="M780 -415v1066q0 100 -31.5 141.5t-93.5 41.5q-49 0 -89 -22t-69 -62v-750h-351v753q0 38 -15.5 53t-51.5 15q-18 0 -22 1t-36 -5l-22 233q37 16 103.5 28.5t132.5 12.5q101 0 165 -37t83 -105q2 -5 3.5 -10.5t2.5 -10.5q54 83 133 128.5t174 45.5q156 0 245.5 -108
t89.5 -343v-1066h-351z" />
    <glyph glyph-name="theta" unicode="&#x3b8;" horiz-adv-x="1194" 
d="M617 -21q-232 0 -369 148t-137 438v324q0 290 136.5 439t367.5 149q230 0 367.5 -149t137.5 -439v-324q0 -289 -136.5 -437.5t-366.5 -148.5zM617 245q75 0 114 64t39 221v75h-310v-75q0 -157 39.5 -221t117.5 -64zM460 863h310v64q0 153 -40 218t-115 65
q-76 0 -115.5 -64.5t-39.5 -218.5v-64z" />
    <glyph glyph-name="iota" unicode="&#x3b9;" horiz-adv-x="727" 
d="M541 -21q-181 0 -278 94.5t-97 280.5v490l-151 32v206h502v-728q0 -59 19.5 -82.5t67.5 -23.5q32 0 44.5 1.5t55.5 11.5l22 -258q-48 -13 -88.5 -18.5t-96.5 -5.5z" />
    <glyph glyph-name="kappa" unicode="&#x3ba;" horiz-adv-x="1332" 
d="M492 280l-170 190l418 386l3 2l-94 20v204h603v-206l-139 -37zM43 0v205l136 37v596l-154 38v206h504v-840l123 -37v-205h-609zM890 0l-288 432l247 244l301 -435l129 -36v-205h-389z" />
    <glyph glyph-name="lambda" unicode="&#x3bb;" horiz-adv-x="1116" 
d="M1008 -19q-91 0 -157.5 27.5t-109.5 79.5t-66 123l-135 407l-6 1l-1 -25l-170 -594h-373l377 1075l-53 107q-19 40 -56 63.5t-83 23.5h-35t-31 -4l-9 247q38 13 93 19t105 6q109 0 181 -44.5t109 -126.5l406 -1004q23 -52 47.5 -83t63.5 -31q11 0 17.5 -0.5t15.5 0.5
l-1 -263q-26 -2 -56.5 -3t-72.5 -1z" />
    <glyph glyph-name="uni03BC" unicode="&#x3bc;" horiz-adv-x="1367" 
d="M200 -416v1260l-152 32v206h152h350v-619q0 -124 38 -168t120 -44q62 0 105.5 22t69.5 64v507l-152 32v206h501v-845l127 -32v-205h-456l-5 75q-39 -48 -91.5 -72t-119.5 -24q-34 0 -69.5 7t-67.5 20v-422h-350z" />
    <glyph glyph-name="nu" unicode="&#x3bd;" horiz-adv-x="1182" 
d="M431 0l-291 856l-120 20v206h569v-205l-97 -20l115 -413l22 -82h6l27 82l151 412l-125 21v205h568v-206l-124 -24l-328 -852h-373z" />
    <glyph glyph-name="xi" unicode="&#x3be;" horiz-adv-x="1140" 
d="M811 -394l-177 125q44 41 67 88t23 82q0 28 -17.5 51.5t-66.5 34.5l-23 8q-175 32 -288 84t-168 140.5t-55 228.5t72 231t225 140q-97 36 -148 101t-51 171q0 173 129.5 280t352.5 107q80 0 162 -15t160 -41l-57 -259q-83 23 -133 30.5t-88 7.5q-89 0 -132 -31.5
t-43 -88.5q0 -54 41.5 -86.5t127.5 -32.5h156v-280h-143q-92 0 -155 -25t-95 -72.5t-32 -116.5q0 -89 58.5 -134.5t167.5 -70.5l87 -20q102 -24 170.5 -60.5t103.5 -86.5t35 -116q0 -72 -38 -141.5t-98.5 -129.5t-129.5 -103z" />
    <glyph glyph-name="omicron" unicode="&#x3bf;" horiz-adv-x="1147" 
d="M589 -21q-167 0 -285.5 69.5t-181 194t-62.5 288.5v20q0 162 62.5 286t180.5 194.5t284 70.5q167 0 284.5 -70t180 -194t62.5 -287v-20q0 -163 -62.5 -287.5t-180 -194.5t-282.5 -70zM589 246q64 0 102.5 34.5t56 98.5t17.5 152v20q0 85 -17.5 148.5t-56.5 99t-104 35.5
q-64 0 -103 -35.5t-56 -99t-17 -148.5v-20q0 -89 17 -153t56 -98t105 -34z" />
    <glyph glyph-name="pi" unicode="&#x3c0;" horiz-adv-x="1320" 
d="M1168 -19q-185 0 -282.5 94.5t-97.5 279.5v477h-224v-832h-351v832h-166v250h1211v-250h-120v-476q0 -60 21 -83.5t76 -23.5q21 0 42 3t48 10l22 -258q-43 -11 -87.5 -17t-91.5 -6z" />
    <glyph glyph-name="rho" unicode="&#x3c1;" horiz-adv-x="1188" 
d="M106 -416v993q0 152 61 270.5t175 186.5t272 68q162 0 274 -70.5t170.5 -197t58.5 -295.5v-21q0 -162 -49 -283.5t-140.5 -188.5t-220.5 -67q-85 0 -145.5 31t-104.5 89v-515h-351zM595 246q98 0 134.5 71.5t36.5 200.5v21q0 91 -17 157t-52 102t-91 36q-51 0 -84 -31.5
t-49 -95t-16 -159.5v-236q21 -33 57 -49.5t81 -16.5z" />
    <glyph glyph-name="uni03C2" unicode="&#x3c2;" horiz-adv-x="1058" 
d="M671 -374l-183 127q47 47 69.5 86.5t22.5 74.5q0 37 -21 60t-53 32q-229 64 -332.5 183.5t-103.5 338.5v23q0 163 59.5 287t174.5 194t280 70q139 0 241 -52.5t157.5 -149t52.5 -229.5l-2 -6h-319q0 74 -33.5 121.5t-104.5 47.5q-58 0 -92.5 -34.5t-49.5 -98t-15 -150.5
v-23q0 -84 18.5 -134.5t61 -80t113.5 -52.5q118 -37 187 -77t99 -87.5t30 -107.5q0 -73 -35.5 -141.5t-94 -125.5t-127.5 -96z" />
    <glyph glyph-name="sigma" unicode="&#x3c3;" horiz-adv-x="1238" 
d="M586 -21q-165 0 -282.5 69.5t-180 194t-62.5 288.5v20q0 157 63 276.5t181 187t284 67.5h577v-269h-253q74 -40 126 -116.5t52 -206.5v-21q0 -137 -61 -248t-174 -176.5t-270 -65.5zM581 246q60 0 95 34.5t50 98.5t15 152v20q0 79 -15 138t-50 91.5t-95 32.5t-97 -33
t-54.5 -92t-17.5 -137v-20q0 -89 17 -153t54 -98t98 -34z" />
    <glyph glyph-name="tau" unicode="&#x3c4;" horiz-adv-x="970" 
d="M666 -21q-181 0 -278 94.5t-97 280.5v462h-270l2 266h903v-266h-284v-462q0 -60 20.5 -83t72.5 -23q14 0 29 1.5t31.5 4.5t34.5 7l20 -259q-40 -10 -87.5 -16.5t-96.5 -6.5z" />
    <glyph glyph-name="upsilon" unicode="&#x3c5;" horiz-adv-x="1197" 
d="M602 -21q-206 0 -323.5 108.5t-117.5 325.5v350q0 37 -16.5 52.5t-54.5 15.5q-13 0 -26.5 -1.5t-29.5 -3.5l-20 234q35 15 102 27.5t134 12.5q124 0 193 -59t69 -174l-2 -478q0 -76 24 -109.5t65 -33.5q50 0 88 40.5t60 113t22 168.5q0 128 -23.5 257t-64.5 257h323
q34 -69 60 -149.5t40.5 -172t14.5 -192.5q0 -179 -56.5 -311.5t-171 -205t-289.5 -72.5z" />
    <glyph glyph-name="phi" unicode="&#x3c6;" horiz-adv-x="1581" 
d="M645 -478v468q-201 28 -327 113t-185 213t-59 283t60.5 290t145.5 212l258 -161q-34 -44 -59.5 -96t-39 -112.5t-13.5 -132.5q0 -88 20.5 -153t67 -107t125.5 -62l6 2v503q0 92 45.5 164.5t132 114.5t209.5 42q169 0 287 -73.5t180.5 -196.5t62.5 -272q0 -145 -59 -266
t-183.5 -202t-323.5 -106v-465h-351zM1002 271q76 17 122 56t66.5 99t20.5 139q0 85 -22.5 145t-59.5 92.5t-82 32.5q-29 0 -40 -13.5t-11 -37.5v-511z" />
    <glyph glyph-name="chi" unicode="&#x3c7;" horiz-adv-x="1190" 
d="M13 0v205l92 12l281 330l-271 315l-92 14v206l308 -1l270 -373l124 166l-103 13v195h527v-206l-87 -14l-259 -316l278 -329l93 -12v-205h-309l-291 380l-125 -175l81 -11v-194h-517z" />
    <glyph glyph-name="psi" unicode="&#x3c8;" horiz-adv-x="1713" 
d="M739 -480v472q-259 39 -401 185t-142 409v178q0 36 -16 52.5t-56 16.5q-12 0 -25 -1.5t-30 -5.5l-21 235q37 15 104 28t133 13q125 0 193.5 -59.5t68.5 -174.5v-285q0 -128 49 -202t137 -100l6 2v800h351v-809l6 -2q78 19 126 62.5t70.5 112t22.5 161.5q-1 112 -27 228.5
t-71 245.5h312q41 -63 71.5 -137.5t48 -159t17.5 -177.5q0 -163 -60 -294.5t-187 -216.5t-329 -109v-468h-351z" />
    <glyph glyph-name="omega" unicode="&#x3c9;" horiz-adv-x="1703" 
d="M546 -21q-162 0 -262 70.5t-146 202.5t-46 316q0 102 20 193t55.5 171.5t83.5 149.5h323q-60 -126 -95.5 -255.5t-35.5 -258.5q0 -92 12 -165t39.5 -115t73.5 -42q52 0 86.5 61t34.5 195v375h375v-375q0 -134 34 -195t85 -61q46 0 74 42.5t40.5 115.5t12.5 164
q0 129 -36 258.5t-97 255.5h323q48 -69 84 -149t56 -171.5t20 -193.5q0 -185 -46 -317t-146 -202t-261 -70q-118 0 -196.5 45.5t-134.5 148.5q-61 -106 -137.5 -150t-192.5 -44z" />
    <glyph glyph-name="iotadieresis" unicode="&#x3ca;" horiz-adv-x="727" 
d="M541 -21q-181 0 -278 94.5t-97 280.5v490l-151 32v206h502v-728q0 -59 19.5 -82.5t67.5 -23.5q32 0 44.5 1.5t55.5 11.5l22 -258q-48 -13 -88.5 -18.5t-96.5 -5.5zM434 1287v273h327v-273h-327zM-35 1287v273h327v-273h-327z" />
    <glyph glyph-name="upsilondieresis" unicode="&#x3cb;" horiz-adv-x="1197" 
d="M602 -21q-206 0 -323.5 108.5t-117.5 325.5v350q0 37 -16.5 52.5t-54.5 15.5q-13 0 -26.5 -1.5t-29.5 -3.5l-20 234q35 15 102 27.5t134 12.5q124 0 193 -59t69 -174l-2 -478q0 -76 24 -109.5t65 -33.5q50 0 88 40.5t60 113t22 168.5q0 128 -23.5 257t-64.5 257h323
q34 -69 60 -149.5t40.5 -172t14.5 -192.5q0 -179 -56.5 -311.5t-171 -205t-289.5 -72.5zM651 1287v273h327v-273h-327zM182 1287v273h327v-273h-327z" />
    <glyph glyph-name="omicrontonos" unicode="&#x3cc;" horiz-adv-x="1147" 
d="M589 -21q-167 0 -285.5 69.5t-181 194t-62.5 288.5v20q0 162 62.5 286t180.5 194.5t284 70.5q167 0 284.5 -70t180 -194t62.5 -287v-20q0 -163 -62.5 -287.5t-180 -194.5t-282.5 -70zM589 246q64 0 102.5 34.5t56 98.5t17.5 152v20q0 85 -17.5 148.5t-56.5 99t-104 35.5
q-64 0 -103 -35.5t-56 -99t-17 -148.5v-20q0 -89 17 -153t56 -98t105 -34zM486 1270l86 348h321l-232 -348h-175z" />
    <glyph glyph-name="upsilontonos" unicode="&#x3cd;" horiz-adv-x="1197" 
d="M602 -21q-206 0 -323.5 108.5t-117.5 325.5v350q0 37 -16.5 52.5t-54.5 15.5q-13 0 -26.5 -1.5t-29.5 -3.5l-20 234q35 15 102 27.5t134 12.5q124 0 193 -59t69 -174l-2 -478q0 -76 24 -109.5t65 -33.5q50 0 88 40.5t60 113t22 168.5q0 128 -23.5 257t-64.5 257h323
q34 -69 60 -149.5t40.5 -172t14.5 -192.5q0 -179 -56.5 -311.5t-171 -205t-289.5 -72.5zM478 1270l86 348h321l-232 -348h-175z" />
    <glyph glyph-name="omegatonos" unicode="&#x3ce;" horiz-adv-x="1703" 
d="M546 -21q-162 0 -262 70.5t-146 202.5t-46 316q0 102 20 193t55.5 171.5t83.5 149.5h323q-60 -126 -95.5 -255.5t-35.5 -258.5q0 -92 12 -165t39.5 -115t73.5 -42q52 0 86.5 61t34.5 195v375h375v-375q0 -134 34 -195t85 -61q46 0 74 42.5t40.5 115.5t12.5 164
q0 129 -36 258.5t-97 255.5h323q48 -69 84 -149t56 -171.5t20 -193.5q0 -185 -46 -317t-146 -202t-261 -70q-118 0 -196.5 45.5t-134.5 148.5q-61 -106 -137.5 -150t-192.5 -44zM775 1270l86 348h321l-232 -348h-175z" />
    <glyph glyph-name="uni03D1" unicode="&#x3d1;" horiz-adv-x="1407" 
d="M738 -21q-189 0 -332.5 72.5t-223.5 198t-80 284.5v718l376 2v-720q0 -82 31.5 -144t89 -97t135.5 -35q104 0 165 66.5t68 185.5v5v5q-120 12 -218 67.5t-156 143t-58 195.5v128q0 129 53 224t147 147t217 52q180 0 285.5 -113t105.5 -310v-520q0 -167 -75.5 -292
t-211.5 -194t-318 -69zM961 767l6 2v329q0 38 -12.5 58t-36.5 20q-25 0 -40.5 -20.5t-15.5 -57.5v-174q0 -40 12 -73t34 -55t53 -29z" />
    <glyph glyph-name="uni03D2" unicode="&#x3d2;" horiz-adv-x="1307" 
d="M491 0v439l-267 663q-23 58 -51 83t-73 25q-8 0 -21.5 -0.5t-27.5 -2.5l-23 265q32 9 60.5 12.5t62.5 3.5q96 0 162.5 -27t115.5 -91.5t92 -177.5l131 -372l18 -104h6l19 104l128 361q45 114 95 181.5t117 96.5t162 29q35 0 63.5 -4t57.5 -12l-26 -265q-13 2 -23 2.5
t-18 0.5q-50 0 -79.5 -28t-50.5 -80l-278 -689v-413h-352z" />
    <glyph glyph-name="uni03D6" unicode="&#x3d6;" horiz-adv-x="1885" 
d="M616 -21q-165 0 -267 70.5t-148.5 202.5t-46.5 316q0 77 12 148t34 137h-124v229h1786v-229h-124q21 -68 33 -138.5t12 -146.5q0 -185 -46.5 -317t-147.5 -202t-266 -70q-122 0 -208 49t-145 158q-65 -115 -149.5 -161t-204.5 -46zM642 246q58 0 99 58.5t41 197.5v177
h373v-177q0 -93 18.5 -149.5t50 -81.5t70.5 -25q53 0 84 40.5t44.5 113.5t13.5 168q-3 70 -14.5 141.5t-30.5 143.5h-845q-20 -70 -30.5 -141.5t-12.5 -143.5q0 -96 13 -168.5t43.5 -113t82.5 -40.5z" />
    <glyph glyph-name="uni0400" unicode="&#x400;" horiz-adv-x="1309" 
d="M40 0v205l151 32v981l-151 32v206h1163v-420h-265l-8 150h-388v-299h465v-269h-465v-347h407l8 157h262v-428h-1179zM863 1561h-7h-281l-280 267l2 6h358z" />
    <glyph glyph-name="uni0401" unicode="&#x401;" horiz-adv-x="1309" 
d="M40 0v205l151 32v981l-151 32v206h1163v-420h-265l-8 150h-388v-299h465v-269h-465v-347h407l8 157h262v-428h-1179zM726 1561v273h327v-273h-327zM257 1561v273h327v-273h-327z" />
    <glyph glyph-name="uni0402" unicode="&#x402;" horiz-adv-x="1620" 
d="M1030 -16l-5 2v245q89 0 134 31.5t60.5 76.5t15.5 86q0 93 -55.5 148t-159.5 55q-60 0 -108.5 -8t-97.5 -25v-358l118 -32v-205h-621v205l150 32v951h-165l-9 -130h-257v398h1288v-398h-258l-10 130h-236v-328q47 17 100 26t120 9q249 0 400 -113.5t151 -335.5
q0 -125 -56 -231t-178.5 -169.5t-320.5 -61.5z" />
    <glyph glyph-name="uni0403" unicode="&#x403;" horiz-adv-x="1227" 
d="M58 0v205l150 32v981l-150 32v206h1133v-398h-258l-10 130h-364v-951l151 -32v-205h-652zM456 1561l208 273h358l2 -6l-280 -267h-281h-7z" />
    <glyph glyph-name="uni0404" unicode="&#x404;" horiz-adv-x="1310" 
d="M683 -20q-203 0 -358.5 90.5t-242.5 251.5t-87 373v67q0 210 87.5 371.5t242.5 253t358 91.5q164 0 305 -59.5t246 -173.5v-306h-265l-26 186q-40 41 -101.5 63t-138.5 22q-100 0 -173.5 -41.5t-116.5 -117t-54 -178.5l1 -10h494v-270h-493l-1 -10q11 -103 54 -178.5
t117 -116.5t176 -41q68 0 130.5 21.5t105.5 63.5l26 186h265v-306q-103 -115 -245 -173.5t-306 -58.5z" />
    <glyph glyph-name="uni0405" unicode="&#x405;" horiz-adv-x="1272" 
d="M677 -21q-178 0 -316 34t-275 128v378h271l30 -194q32 -36 113 -60.5t177 -24.5q67 0 112 16.5t68 48.5t23 77q0 43 -21.5 77t-70.5 64.5t-132 62.5q-187 60 -307 122t-178.5 147t-58.5 211q0 121 69 211.5t190 142.5t277 55q178 4 315 -35.5t242 -119.5v-351h-260
l-41 195q-34 17 -97 31t-134 14q-61 0 -108.5 -16t-75 -48t-27.5 -80q0 -39 23 -69.5t81 -61t162 -70.5q248 -73 376.5 -182.5t128.5 -297.5q0 -129 -70 -219.5t-195 -138t-291 -47.5z" />
    <glyph glyph-name="uni0406" unicode="&#x406;" horiz-adv-x="745" 
d="M40 0v205l151 32v981l-151 32v206h652v-206l-151 -32v-981l151 -32v-205h-652z" />
    <glyph glyph-name="uni0407" unicode="&#x407;" horiz-adv-x="732" 
d="M40 0v205l151 32v981l-151 32v206h652v-206l-151 -32v-981l151 -32v-205h-652zM438 1561v273h327v-273h-327zM-31 1561v273h327v-273h-327z" />
    <glyph glyph-name="uni0408" unicode="&#x408;" horiz-adv-x="1198" 
d="M584 -21q-171 0 -295.5 54t-194 165.5t-75.5 284.5l2 6h327q10 -141 61.5 -189.5t129.5 -48.5q45 0 86.5 20t68.5 64.5t27 116.5v766l-198 33v205h699v-206l-152 -32v-766q0 -147 -57 -253t-165.5 -163t-263.5 -57z" />
    <glyph glyph-name="uni0409" unicode="&#x409;" horiz-adv-x="2133" 
d="M42 0v267h40q75 0 123 25.5t74.5 86t36.5 165.5t10 263v411l-151 32v206h1316v-206l-150 -32v-235h182q175 0 305.5 -63t203 -173.5t72.5 -253.5q0 -145 -72.5 -256t-203 -174t-305.5 -63h-533v1188h-313l1 -381q0 -217 -38 -370.5t-114 -250t-187.5 -141.5t-258.5 -45
h-38zM1341 267h182q107 0 169 65.5t62 159.5q0 62 -28 112t-80 80t-123 30h-182v-447z" />
    <glyph glyph-name="uni040A" unicode="&#x40a;" horiz-adv-x="2206" 
d="M40 0v205l150 32v981l-150 32v206h652v-206l-151 -32v-368h521v368l-150 32v206h150h351h150v-206l-150 -32v-234h182q175 0 306 -63t203.5 -174t72.5 -255t-73 -255t-203.5 -174t-305.5 -63h-683v205l150 32v344h-521v-344l151 -32v-205h-652zM1413 267h182
q108 0 169.5 65.5t61.5 158.5q0 62 -27.5 113t-79.5 81.5t-124 30.5h-182v-449z" />
    <glyph glyph-name="uni040B" unicode="&#x40b;" horiz-adv-x="1740" 
d="M302 0v205l151 32v951h-138l-9 -130h-256v398h1239v-398h-257l-10 130h-218v-255q29 2 72 4.5t86 2.5q284 0 445 -123.5t161 -369.5v-209l150 -31v-207h-652v207l151 31v209q0 127 -60.5 176.5t-194.5 49.5q-36 0 -81 -2.5t-77 -4.5v-429l150 -32v-205h-652z" />
    <glyph glyph-name="uni040C" unicode="&#x40c;" horiz-adv-x="1471" 
d="M47 0v205l150 32v981l-150 32v206h639v-206l-138 -32v-319h113l239 343q91 128 173.5 179t180.5 51q61 0 113.5 -15.5t89.5 -39.5l-61 -269q-18 6 -33 9t-31 3q-40 0 -87.5 -26t-109.5 -105l-175 -235l352 -564l163 -25v-205h-638v205l66 11l-1 2l-194 354h-160v-335
l138 -32v-205h-639zM528 1561l208 273h358l2 -6l-280 -267h-281h-7z" />
    <glyph glyph-name="uni040D" unicode="&#x40d;" horiz-adv-x="1624" 
d="M64 0v205l152 32v981l-152 32v206h152h349h152v-206l-152 -32v-571l6 -2l517 499v74l-150 32v206h150h353h150v-206l-150 -32v-981l150 -32v-205h-653v205l150 32v562l-6 2l-517 -500v-64l152 -32v-205h-653zM1036 1561h-7h-281l-280 267l2 6h358z" />
    <glyph glyph-name="uni040E" unicode="&#x40e;" horiz-adv-x="1436" 
d="M462 -21q-25 0 -55.5 1t-50.5 2l-7 268q11 -1 34.5 -2.5t35.5 -1.5q84 0 129.5 35t64.5 100l11 37l-415 809l-178 23v206h643v-206l-99 -16l185 -385l12 -28h6l151 408l-84 21v206h594v-206l-159 -21l-394 -930q-44 -100 -100.5 -172t-135 -110t-188.5 -38zM757 1532
q-172 0 -274.5 83t-95.5 213l2 6h228q0 -50 33.5 -83.5t106.5 -33.5q71 0 104 32.5t33 84.5h229l2 -6q5 -130 -96 -213t-272 -83z" />
    <glyph glyph-name="uni040F" unicode="&#x40f;" horiz-adv-x="1619" 
d="M660 -361v361h-602v205l150 32v981l-150 32v206h501h150v-206l-150 -32v-951h521v951l-150 32v206h653v-206l-150 -32v-981l150 -32v-205h-570v-361h-353z" />
    <glyph glyph-name="uni0410" unicode="&#x410;" horiz-adv-x="1499" 
d="M23 0v205l102 15l434 1236h380l435 -1236l102 -15v-205h-544v205l95 18l-44 158h-468l-42 -158l95 -18v-205h-545zM589 627h319l-142 441l-16 51h-6l-17 -56z" />
    <glyph glyph-name="uni0411" unicode="&#x411;" horiz-adv-x="1374" 
d="M66 0v205l151 32v981l-151 32v206h1134v-398h-258l-10 130h-364v-236h182q177 0 307.5 -58.5t202.5 -163.5t72 -247q0 -144 -72.5 -253t-203.5 -169.5t-306 -60.5h-684zM568 267h182q107 0 169.5 62t62.5 156q0 89 -61 144t-171 55h-182v-417z" />
    <glyph glyph-name="uni0412" unicode="&#x412;" horiz-adv-x="1360" 
d="M40 0v205l151 32v981l-151 32v206h151h508q275 0 429 -101t154 -301q0 -103 -49 -184.5t-151 -123.5q87 -19 142 -64.5t81 -110t26 -139.5q0 -214 -143 -323t-415 -109h-733zM542 267h231q104 0 156.5 41t52.5 125q0 63 -20 104.5t-62 62t-110 20.5h-248v-353zM542 852
h142q124 0 185.5 39.5t61.5 122.5q0 91 -57.5 132.5t-174.5 41.5h-157v-336z" />
    <glyph glyph-name="uni0413" unicode="&#x413;" horiz-adv-x="1227" 
d="M58 0v205l150 32v981l-150 32v206h1133v-398h-258l-10 130h-364v-951l151 -32v-205h-652z" />
    <glyph glyph-name="uni0414" unicode="&#x414;" horiz-adv-x="1578" 
d="M52 -357l-18 624h104q53 36 95 104t69.5 185t35.5 300l29 365l-135 29v206h1293v-206l-150 -32v-951h155l-32 -626h-319v359h-796v-357h-331zM539 267h485v921h-310l-24 -332q-6 -140 -25.5 -247.5t-51 -190.5t-74.5 -151z" />
    <glyph glyph-name="uni0415" unicode="&#x415;" horiz-adv-x="1309" 
d="M40 0v205l151 32v981l-151 32v206h1163v-420h-265l-8 150h-388v-299h465v-269h-465v-347h407l8 157h262v-428h-1179z" />
    <glyph glyph-name="uni0416" unicode="&#x416;" horiz-adv-x="2224" 
d="M24 0v205l144 21l320 584l-134 219q-55 79 -93.5 105t-76.5 26q-16 0 -32 -3.5t-32 -9.5l-52 270q38 24 90 39.5t119 15.5q75 0 127.5 -22.5t96.5 -73t93 -134.5l187 -343h156v319l-152 32v206h654v-206l-152 -32v-319h155l180 343q67 127 136.5 178.5t181.5 51.5
q67 0 117 -15t90 -40l-49 -270q-16 6 -31.5 9.5t-32.5 3.5q-34 0 -77.5 -24.5t-90.5 -106.5l-128 -220l311 -583l154 -21v-205h-617v205l46 10l-1 2l-163 355h-181v-335l152 -32v-205h-654v205l152 32v335h-180l-168 -351l-2 -6l42 -10v-205h-605z" />
    <glyph glyph-name="uni0417" unicode="&#x417;" horiz-adv-x="1220" 
d="M599 -21q-150 0 -277 48t-202.5 141.5t-72.5 229.5l2 6h343q0 -44 26.5 -80t74.5 -57t110 -21q98 0 157.5 50.5t59.5 141.5q0 80 -50.5 128t-154.5 48h-185v258h185q94 0 138.5 44.5t44.5 117.5q0 81 -55 128t-165 47q-79 0 -141 -22.5t-97 -62.5l-25 -166h-266v286
q100 113 242 173t308 60q254 0 401.5 -106t147.5 -294q0 -113 -58 -198t-160 -130q117 -44 179 -130t62 -210q0 -134 -72.5 -230.5t-201 -148t-298.5 -51.5z" />
    <glyph glyph-name="uni0418" unicode="&#x418;" horiz-adv-x="1624" 
d="M64 0v205l152 32v981l-152 32v206h152h349h152v-206l-152 -32v-571l6 -2l517 499v74l-150 32v206h150h353h150v-206l-150 -32v-981l150 -32v-205h-653v205l150 32v562l-6 2l-517 -500v-64l152 -32v-205h-653z" />
    <glyph glyph-name="uni0419" unicode="&#x419;" horiz-adv-x="1624" 
d="M64 0v205l152 32v981l-152 32v206h152h349h152v-206l-152 -32v-571l6 -2l517 499v74l-150 32v206h150h353h150v-206l-150 -32v-981l150 -32v-205h-653v205l150 32v562l-6 2l-517 -500v-64l152 -32v-205h-653zM829 1532q-172 0 -274.5 83t-95.5 213l2 6h228
q0 -50 33.5 -83.5t106.5 -33.5q71 0 104 32.5t33 84.5h229l2 -6q5 -130 -96 -213t-272 -83z" />
    <glyph glyph-name="uni041A" unicode="&#x41a;" horiz-adv-x="1471" 
d="M47 0v205l150 32v981l-150 32v206h639v-206l-138 -32v-319h113l239 343q91 128 173.5 179t180.5 51q61 0 113.5 -15.5t89.5 -39.5l-61 -269q-18 6 -33 9t-31 3q-40 0 -87.5 -26t-109.5 -105l-175 -235l352 -564l163 -25v-205h-638v205l66 11l-1 2l-194 354h-160v-335
l138 -32v-205h-639z" />
    <glyph glyph-name="uni041B" unicode="&#x41b;" horiz-adv-x="1535" 
d="M42 0v267h39q68 9 111 37t66 86.5t31 159.5t6 257l-7 411l-151 32v206h1354v-206l-151 -32v-981l151 -32v-205h-652v205l151 32v951h-352l8 -381q2 -216 -30.5 -369.5t-98.5 -250t-163.5 -142t-226.5 -45.5h-85z" />
    <glyph glyph-name="uni041C" unicode="&#x41c;" horiz-adv-x="2118" 
d="M32 0v205l150 32v981l-150 32v206h150h537l352 -959h6l342 959h679v-206l-151 -32v-981l151 -32v-205h-652v205l157 32v190l8 685l-6 1l-412 -1113h-276l-418 1100l-7 -1l24 -624v-238l169 -32v-205h-653z" />
    <glyph glyph-name="uni041D" unicode="&#x41d;" horiz-adv-x="1613" 
d="M40 0v205l151 32v981l-151 32v206h653v-206l-151 -32v-368h530v368l-151 32v206h151h350h151v-206l-151 -32v-981l151 -32v-205h-652v205l151 32v344h-530v-344l151 -32v-205h-653z" />
    <glyph glyph-name="uni041E" unicode="&#x41e;" horiz-adv-x="1450" 
d="M753 -21q-151 0 -277.5 55.5t-219.5 155.5t-143.5 234.5t-50.5 292.5v23q0 157 50.5 291t143 234t218.5 156t277 56q148 0 275 -56t222.5 -156t148.5 -234t53 -291v-23q0 -158 -53 -292.5t-148 -234.5t-222 -155.5t-274 -55.5zM753 245q110 0 188 59t119 165t41 248v25
q0 139 -41.5 244.5t-119.5 164.5t-189 59q-117 0 -191.5 -58t-110.5 -163t-36 -247v-25q0 -142 36.5 -248.5t112 -165t191.5 -58.5z" />
    <glyph glyph-name="uni041F" unicode="&#x41f;" horiz-adv-x="1618" 
d="M58 0v205l150 32v981l-150 32v206h1525v-206l-150 -32v-981l150 -32v-205h-651v205l150 32v951h-523v-951l151 -32v-205h-652z" />
    <glyph glyph-name="uni0420" unicode="&#x420;" horiz-adv-x="1342" 
d="M40 0v205l151 32v981l-151 32v206h151h557q174 0 302 -61t197.5 -169.5t69.5 -252.5t-69.5 -252t-197.5 -168t-302 -60h-206v-256l151 -32v-205h-653zM542 762h206q107 0 162.5 58.5t55.5 150.5q0 95 -55.5 156t-162.5 61h-206v-426z" />
    <glyph glyph-name="uni0421" unicode="&#x421;" horiz-adv-x="1340" 
d="M755 -21q-208 0 -371 84t-256 243.5t-93 387.5v67q0 210 85.5 371.5t244 253t376.5 91.5q152 0 289.5 -40.5t255.5 -138.5v-375h-255l-35 215q-34 23 -71.5 40t-80 26t-91.5 9q-111 0 -194 -53t-128.5 -153.5t-45.5 -243.5v-69q0 -134 47 -235.5t131.5 -158.5t195.5 -57
q59 0 120 12.5t118 33.5l35 206h256v-367q-87 -60 -222 -104.5t-311 -44.5z" />
    <glyph glyph-name="uni0422" unicode="&#x422;" horiz-adv-x="1379" 
d="M361 0v205l152 32v947h-225l-9 -157h-265v429h1353v-429h-268l-8 157h-227v-947l152 -32v-205h-655z" />
    <glyph glyph-name="uni0423" unicode="&#x423;" horiz-adv-x="1436" 
d="M462 -21q-25 0 -55.5 1t-50.5 2l-7 268q11 -1 34.5 -2.5t35.5 -1.5q84 0 129.5 35t64.5 100l11 37l-415 809l-178 23v206h643v-206l-99 -16l185 -385l12 -28h6l151 408l-84 21v206h594v-206l-159 -21l-394 -930q-44 -100 -100.5 -172t-135 -110t-188.5 -38z" />
    <glyph glyph-name="uni0424" unicode="&#x424;" horiz-adv-x="1671" 
d="M523 -90v184l151 31v66h-7q-184 0 -323.5 63t-217.5 181t-78 282q0 167 78.5 289t217.5 189t323 67h7v69l-151 31v184h652v-184l-151 -31v-69h3q184 0 323 -66.5t217.5 -188t78.5 -288.5q0 -164 -78.5 -282.5t-218 -182t-322.5 -63.5h-3v-66l151 -31v-184h-652zM667 421
h7v607h-7q-81 0 -143 -34.5t-97.5 -103.5t-35.5 -173q0 -101 35.5 -166.5t97.5 -97.5t143 -32zM1024 421h5q81 0 143 32.5t97 99t35 166.5q0 106 -35 175t-97 103.5t-143 34.5l-5 -4v-607z" />
    <glyph glyph-name="uni0425" unicode="&#x425;" horiz-adv-x="1505" 
d="M8 0v205l129 26l387 479l-370 513l-112 27v206h629v-206l-140 -13l206 -289l214 289l-133 13v206h614v-206l-126 -27l-359 -471l406 -520l144 -27v-205h-648v205l116 12l-224 306l-233 -306l115 -12v-205h-615z" />
    <glyph glyph-name="uni0426" unicode="&#x426;" horiz-adv-x="1659" 
d="M1303 -351v351h-1245v205l150 32v981l-150 32v206h651v-206l-150 -32v-951h521v951l-150 32v206h653v-206l-150 -32v-952h212l-16 -617h-326z" />
    <glyph glyph-name="uni0427" unicode="&#x427;" horiz-adv-x="1570" 
d="M876 0v205l150 32v298q-55 -8 -113.5 -13.5t-119.5 -5.5q-286 0 -446.5 122.5t-160.5 368.5v211l-151 32v206h652v-206l-151 -32v-211q0 -127 60.5 -175.5t196.5 -48.5q51 0 116 5.5t117 14.5v415l-150 32v206h652v-206l-152 -32v-981l152 -32v-205h-652z" />
    <glyph glyph-name="uni0428" unicode="&#x428;" horiz-adv-x="2162" 
d="M64 0v205l152 32v981l-152 32v206h503h150v-206l-150 -32v-951h362v951l-152 32v206h652v-206l-150 -32v-951h357v951l-152 32v206h152h349h152v-206l-152 -32v-981l152 -32v-205h-2073z" />
    <glyph glyph-name="uni0429" unicode="&#x429;" horiz-adv-x="2185" 
d="M1830 -349v349h-1766v205l152 32v981l-152 32v206h653v-206l-150 -32v-951h362v951l-152 32v206h652v-206l-150 -32v-951h357v951l-152 32v206h653v-206l-152 -32v-951h192l-16 -616h-331z" />
    <glyph glyph-name="uni042A" unicode="&#x42a;" horiz-adv-x="1835" 
d="M547 0v205l152 32v951h-383l-9 -129h-257v397h1151v-206l-151 -32v-266h182q177 0 307.5 -58.5t202.5 -163.5t72 -247q0 -144 -72.5 -253t-203.5 -169.5t-306 -60.5h-685zM1050 267h182q107 0 170 62t63 156q0 89 -61.5 144t-171.5 55h-182v-417z" />
    <glyph glyph-name="uni042B" unicode="&#x42b;" horiz-adv-x="2016" 
d="M65 0v205l152 32v981l-152 32v206h654v-206l-151 -32v-266h182q177 0 307.5 -58.5t202.5 -163.5t72 -247q0 -144 -72.5 -253t-203.5 -169.5t-306 -60.5h-685zM568 267h182q107 0 169.5 62t62.5 156q0 89 -61 144t-171 55h-182v-417zM1311 0v205l151 32v981l-151 32v206
h652v-206l-151 -32v-981l151 -32v-205h-652z" />
    <glyph glyph-name="uni042C" unicode="&#x42c;" horiz-adv-x="1361" 
d="M65 0v205l152 32v981l-152 32v206h654v-206l-151 -32v-266h182q177 0 307.5 -58.5t202.5 -163.5t72 -247q0 -144 -72.5 -253t-203.5 -169.5t-306 -60.5h-685zM568 267h182q107 0 169.5 62t62.5 156q0 89 -61 144t-171 55h-182v-417z" />
    <glyph glyph-name="uni042D" unicode="&#x42d;" horiz-adv-x="1275" 
d="M587 -20q-172 0 -314 57.5t-248 173.5v306h266l25 -185q35 -42 101 -63.5t146 -21.5q96 0 166.5 41t113 117t53.5 182l-2 5h-481v270h481l2 5q-12 106 -54 182t-111 117.5t-164 41.5q-86 0 -149 -21.5t-102 -62.5l-25 -185h-266v306q71 77 157.5 128.5t188.5 77.5t216 26
q197 0 347.5 -90.5t235.5 -252t85 -374.5v-66q0 -212 -85 -373t-235.5 -251t-347.5 -90z" />
    <glyph glyph-name="uni042E" unicode="&#x42e;" horiz-adv-x="1970" 
d="M1264 -20q-175 0 -313.5 72t-228 202t-118.5 302h-101v-319l151 -32v-205h-652v205l151 32v981l-151 32v206h652v-206l-151 -32v-393h92q17 192 104 339t231 230.5t332 83.5q200 0 350.5 -96t234 -262.5t83.5 -379.5v-22q0 -214 -83.5 -380.5t-233 -262t-349.5 -95.5z
M1264 248q110 0 180 58.5t103.5 164t33.5 247.5v24q0 140 -34 245t-104.5 163.5t-180.5 58.5q-113 0 -184 -57.5t-103.5 -162.5t-32.5 -247v-24q0 -142 33.5 -248t105 -164t183.5 -58z" />
    <glyph glyph-name="uni042F" unicode="&#x42f;" horiz-adv-x="1373" 
d="M1351 205v-205h-652v205l152 30v298h-128l-85 -262q-57 -133 -146 -207t-217 -74q-56 0 -109.5 14.5t-93.5 39.5l44 270q39 -13 74 -13q44 0 83 25t85 105l55 166l2 4q-148 61 -219 156t-71 246q0 221 145 337t403 116h678v-206l-150 -32v-981zM673 1188
q-99 0 -148.5 -51.5t-49.5 -153.5q0 -100 49.5 -151t148.5 -51h178v407h-178z" />
    <glyph glyph-name="uni0430" unicode="&#x430;" horiz-adv-x="1167" 
d="M426 -21q-157 0 -256 89t-99 237q0 101 54.5 179t164 122.5t274.5 44.5h113v64q0 65 -37 110.5t-117 45.5q-34 0 -63.5 -8.5t-53.5 -24.5l-24 -138h-247l-5 301q92 41 192.5 71t224.5 30q221 0 351 -101.5t130 -289.5v-399q0 -23 0.5 -45t4.5 -42l117 -20v-205h-410
q-13 18 -28 48t-21 60q-49 -61 -110 -95t-155 -34zM534 227q38 0 76.5 15.5t66.5 46.5v156h-109q-71 0 -109.5 -31t-38.5 -82q0 -49 32 -77t82 -28z" />
    <glyph glyph-name="uni0431" unicode="&#x431;" horiz-adv-x="1176" 
d="M606 -21q-166 0 -284.5 67t-181 184.5t-62.5 269.5v138q0 263 64.5 432t178.5 260t261 120q79 11 119.5 34t40.5 75h272l3 -6q3 -103 -27.5 -168t-83 -103t-119 -59t-136.5 -36q-103 -21 -160 -56t-83 -83t-37 -111l4 -5q53 41 119 66t150 25q150 0 259.5 -64.5t169 -180
t59.5 -267.5v-21q0 -152 -62.5 -267t-180 -179.5t-283.5 -64.5zM606 246q64 0 102.5 29.5t55.5 84t17 130.5v21q0 73 -17.5 127.5t-56 85t-103.5 30.5q-63 0 -101.5 -30.5t-56 -85t-17.5 -127.5v-11q0 -77 17 -134.5t56 -88.5t104 -31z" />
    <glyph glyph-name="uni0432" unicode="&#x432;" horiz-adv-x="1287" 
d="M87 0v205l152 32v607l-152 32v206h152h468q218 0 339.5 -75.5t121.5 -218.5q0 -84 -49 -143t-156 -92q146 -25 209 -90.5t63 -162.5q0 -146 -117 -223t-340 -77h-691zM588 265h188q57 0 83 21t26 65q0 41 -22.5 63.5t-84.5 22.5h-190v-172zM588 651h131q55 2 76.5 23
t21.5 61q0 81 -107 81h-122v-165z" />
    <glyph glyph-name="uni0433" unicode="&#x433;" horiz-adv-x="1096" 
d="M53 0v205l150 32v607l-150 32v206h988v-444h-217l-11 175h-259v-576l150 -32v-205h-651z" />
    <glyph glyph-name="uni0434" unicode="&#x434;" horiz-adv-x="1375" 
d="M62 -328l-24 599h100q53 53 85.5 102t49.5 103t23 118.5t6 148.5v101l-151 32v206h1006h152v-206l-152 -32v-577h165l-20 -595h-331v328h-576v-328h-333zM538 269h272v544h-158v-70q0 -149 -31 -267t-83 -207z" />
    <glyph glyph-name="uni0435" unicode="&#x435;" horiz-adv-x="1090" 
d="M590 -21q-159 0 -277.5 68.5t-184 187.5t-65.5 269v37q0 165 58 292t170 198.5t275 70.5q147 0 248.5 -56.5t154.5 -166t53 -269.5v-181h-595l-1 -7q8 -51 34.5 -90.5t73.5 -62.5t116 -23q68 0 133.5 15.5t138.5 49.5l80 -212q-73 -52 -178 -86t-234 -34zM427 646h275v26
q0 58 -11.5 97t-39.5 59t-77 20q-53 0 -84.5 -25.5t-46 -70t-20.5 -101.5z" />
    <glyph glyph-name="uni0436" unicode="&#x436;" horiz-adv-x="1926" 
d="M41 0v205l144 22l197 362l-92 148q-21 34 -51.5 54.5t-65.5 20.5q-13 0 -25.5 -3t-28.5 -11l-62 245q41 26 85 40.5t107 14.5q111 0 182 -49t135 -150l118 -201h111v146l-102 32v206h554v-206l-103 -32v-146h109l118 201q64 101 134.5 150t181.5 49q62 0 106 -14.5
t87 -40.5l-63 -245q-16 8 -28.5 11t-25.5 3q-36 0 -66 -20.5t-50 -54.5l-88 -143l196 -367l146 -22v-205h-467l-161 371h-129v-134l103 -32v-205h-554v205l102 32v134h-124l-163 -371h-467z" />
    <glyph glyph-name="uni0437" unicode="&#x437;" horiz-adv-x="1071" 
d="M517 -21q-126 0 -231.5 39t-167 113.5t-57.5 182.5l1 6h342q0 -29 14.5 -50t43.5 -32.5t71 -11.5q73 0 102 33t29 83q0 56 -32.5 83.5t-99.5 27.5h-136v202h136q56 0 84.5 26t28.5 75q0 39 -23.5 67.5t-88.5 28.5q-34 0 -59 -9.5t-39 -28.5t-14 -49h-342l-2 6
q-4 100 53 174t158 115.5t229 41.5q219 0 348 -81.5t129 -225.5q0 -79 -44 -140.5t-121 -96.5q184 -66 184 -250q0 -102 -62.5 -175.5t-174.5 -113.5t-259 -40z" />
    <glyph glyph-name="uni0438" unicode="&#x438;" horiz-adv-x="1430" 
d="M78 0v205l151 32v607l-151 32v206h503h126v-206l-126 -32v-351l6 -1l274 590h351h150v-206l-150 -32v-607l150 -32v-205h-627v205l126 32v354h-6l-274 -591h-503z" />
    <glyph glyph-name="uni0439" unicode="&#x439;" horiz-adv-x="1430" 
d="M78 0v205l151 32v607l-151 32v206h503h126v-206l-126 -32v-351l6 -1l274 590h351h150v-206l-150 -32v-607l150 -32v-205h-627v205l126 32v354h-6l-274 -591h-503zM722 1258q-172 0 -274.5 83t-95.5 213l2 6h228q0 -50 33.5 -83.5t106.5 -33.5q71 0 104 32.5t33 84.5h229
l2 -6q5 -130 -96 -213t-272 -83z" />
    <glyph glyph-name="uni043A" unicode="&#x43a;" horiz-adv-x="1371" 
d="M87 0v205l152 32v607l-152 32v206h616v-206l-115 -32v-146h98l122 201q61 100 132 149.5t177 49.5q62 0 110 -15.5t88 -39.5l-62 -245q-18 8 -31 11t-25 3q-32 0 -62 -20t-53 -55l-97 -162l195 -346l152 -24v-205h-486l-156 371h-102v-134l115 -32v-205h-616z" />
    <glyph glyph-name="uni043B" unicode="&#x43b;" horiz-adv-x="1345" 
d="M82 0l-8 269l26 1q64 0 94 28.5t39 104.5t9 219v222l-152 32v206h1046h152v-206l-152 -32v-607l152 -32v-205h-653v205l152 32v576h-194v-191q0 -320 -107 -471t-364 -151h-40z" />
    <glyph glyph-name="uni043C" unicode="&#x43c;" horiz-adv-x="1789" 
d="M87 0v205l152 32v607l-152 32v206h152h427l229 -691h6l232 691h440h150v-206l-150 -32v-607l150 -32v-205h-579v205l78 32v341h-6l-201 -578h-233l-188 549l-6 -1v-311l79 -32v-205h-580z" />
    <glyph glyph-name="uni043D" unicode="&#x43d;" horiz-adv-x="1427" 
d="M78 0v205l151 32v607l-151 32v206h604v-206l-103 -32v-181h278v181l-101 32v206h101h350h152v-206l-152 -32v-607l152 -32v-205h-603v205l101 32v158h-278v-158l103 -32v-205h-604z" />
    <glyph glyph-name="uni043E" unicode="&#x43e;" horiz-adv-x="1147" 
d="M589 -21q-167 0 -285.5 69.5t-181 194t-62.5 288.5v20q0 162 62.5 286t180.5 194.5t284 70.5q167 0 284.5 -70t180 -194t62.5 -287v-20q0 -163 -62.5 -287.5t-180 -194.5t-282.5 -70zM589 246q64 0 102.5 34.5t56 98.5t17.5 152v20q0 85 -17.5 148.5t-56.5 99t-104 35.5
q-64 0 -103 -35.5t-56 -99t-17 -148.5v-20q0 -89 17 -153t56 -98t105 -34z" />
    <glyph glyph-name="uni043F" unicode="&#x43f;" horiz-adv-x="1430" 
d="M78 0v205l151 32v607l-151 32v206h1284v-206l-150 -32v-607l150 -32v-205h-604v205l103 32v576h-282v-576l103 -32v-205h-604z" />
    <glyph glyph-name="uni0440" unicode="&#x440;" horiz-adv-x="1240" 
d="M63 -416v206l134 32v1022l-152 32v206h481l12 -122q44 68 106 105t152 37q128 0 220 -70.5t141.5 -197.5t49.5 -295v-21q0 -162 -49.5 -283.5t-142.5 -188.5t-224 -67q-80 0 -140.5 30t-104.5 88v-275l122 -32v-206h-605zM687 246q95 0 132 71.5t37 200.5v21
q0 89 -17 155t-54.5 102.5t-99.5 36.5q-45 0 -81.5 -20t-57.5 -60v-441q21 -33 58 -49.5t83 -16.5z" />
    <glyph glyph-name="uni0441" unicode="&#x441;" horiz-adv-x="1092" 
d="M577 -21q-161 0 -277 71t-178 195t-62 283v23q0 163 64.5 287t180 194t269.5 70q155 0 265.5 -47t174.5 -98l-6 -341h-261l-42 196q-17 17 -45.5 28t-47.5 11q-75 0 -119 -32.5t-63 -98.5t-19 -169v-23q0 -107 25.5 -168.5t64.5 -87.5t80 -26q63 0 97.5 31.5t53.5 92.5
h294l4 -6q-24 -129 -75 -214.5t-141.5 -128t-236.5 -42.5z" />
    <glyph glyph-name="uni0442" unicode="&#x442;" horiz-adv-x="1278" 
d="M310 0v205l150 32v579h-152l-9 -132h-258v398h1196v-398h-259l-10 132h-156v-579l150 -32v-205h-652z" />
    <glyph glyph-name="uni0443" unicode="&#x443;" horiz-adv-x="1343" 
d="M396 -437q-46 0 -92.5 7.5t-95.5 21.5l42 251q20 -5 38.5 -7.5t38.5 -2.5q64 0 113.5 23.5t62.5 72.5l10 38l-348 888l-145 21v206h650v-206l-134 -20l145 -438l2 -8h6l171 449l-124 17v206h591v-206l-128 -18l-405 -1016q-29 -73 -78 -136.5t-127 -103t-193 -39.5z" />
    <glyph glyph-name="uni0444" unicode="&#x444;" horiz-adv-x="1505" 
d="M442 -416v206l150 32v181q-28 -12 -61 -18t-71 -6q-125 0 -214 67.5t-136 189t-47 282.5v21q0 168 47.5 294.5t137 197.5t214.5 71q40 0 70.5 -7t59.5 -19v246l-150 32v206h501v-484q26 12 58 19t72 7q124 0 212.5 -71t136 -197.5t47.5 -294.5v-21q0 -161 -47 -282.5
t-135.5 -189t-211.5 -67.5q-40 0 -71.5 6.5t-60.5 17.5v-181l150 -32v-206h-651zM554 246q8 0 17 1t21 5v576q-9 3 -17.5 4.5t-17.5 1.5q-46 0 -78 -36.5t-48.5 -103t-16.5 -155.5v-21q0 -128 32 -200t108 -72zM984 246q70 0 102.5 72.5t32.5 199.5v21q0 88 -15 154
t-46 103.5t-80 37.5q-9 0 -18 -1.5t-17 -3.5v-577q9 -2 19 -4t22 -2z" />
    <glyph glyph-name="uni0445" unicode="&#x445;" horiz-adv-x="1391" 
d="M23 0v205l150 15l302 319l-279 323l-145 14v206h605v-193l-69 -14l117 -162l120 161l-79 15v193h579v-206l-127 -14l-267 -305l291 -337l146 -15v-205h-614v192l71 15l-123 155l-122 -157l77 -13v-192h-633z" />
    <glyph glyph-name="uni0446" unicode="&#x446;" horiz-adv-x="1403" 
d="M1003 -321v321h-965v205l151 32v607l-151 32v206h615v-206l-114 -32v-577h281v577l-115 32v206h617v-206l-150 -33v-577h182l-21 -587h-330z" />
    <glyph glyph-name="uni0447" unicode="&#x447;" horiz-adv-x="1387" 
d="M673 0v205l152 32v79q-24 -4 -50.5 -5t-47.5 -1q-172 0 -292 44.5t-183 137.5t-63 236v117l-150 31v205h501h101v-205l-101 -31v-117q0 -62 17.5 -94.5t58.5 -44t111 -11.5q26 0 49.5 1.5t48.5 5.5v259l-103 32v206h605v-206l-151 -32v-607l151 -32v-205h-654z" />
    <glyph glyph-name="uni0448" unicode="&#x448;" horiz-adv-x="1961" 
d="M78 0v205l151 32v607l-151 32v206h501h151v-206l-151 -32v-577h242v815h351v-815h241v577l-151 32v206h501h151v-206l-151 -32v-607l151 -32v-205h-1836z" />
    <glyph glyph-name="uni0449" unicode="&#x449;" horiz-adv-x="1985" 
d="M1582 -321v321h-1502v205l152 32v607l-152 32v206h152h349h152v-206l-152 -32v-577h242v815h351v-815h242v577l-152 32v206h653v-206l-152 -32v-577h168l-20 -588h-331z" />
    <glyph glyph-name="uni044A" unicode="&#x44a;" horiz-adv-x="1515" 
d="M321 0v205l152 32v575h-171l-9 -127h-258v397h940v-206l-151 -32v-97h162q238 0 373.5 -99t135.5 -268q0 -175 -136 -277.5t-373 -102.5h-665zM824 266h162q80 0 120 30.5t40 84.5q0 59 -39 89.5t-121 30.5h-162v-235z" />
    <glyph glyph-name="uni044B" unicode="&#x44b;" horiz-adv-x="1883" 
d="M590 266h163q79 0 119 30.5t40 84.5q0 59 -39 89.5t-120 30.5h-163v-235zM1276 0v205l128 32v607l-152 32v206h503v-845l125 -32v-205h-604zM753 747q237 0 372.5 -99t135.5 -268q0 -175 -136 -277.5t-372 -102.5h-666v205l152 32v607l-152 32v206h655v-206l-152 -32v-97
h163z" />
    <glyph glyph-name="uni044C" unicode="&#x44c;" horiz-adv-x="1280" 
d="M753 747q237 0 372.5 -99t135.5 -268q0 -175 -136 -277.5t-372 -102.5h-666v205l152 32v607l-152 32v206h655v-206l-152 -32v-97h163zM753 266q79 0 119 30.5t40 84.5q0 59 -39 89.5t-120 30.5h-163v-235h163z" />
    <glyph glyph-name="uni044D" unicode="&#x44d;" horiz-adv-x="1071" 
d="M501 -21q-132 0 -234 51t-158.5 141.5t-53.5 209.5l3 6h320q0 -45 12.5 -76.5t39.5 -48t71 -16.5q51 0 84.5 23t52 67.5t23.5 106.5l-4 5h-197v188h196l2 5q-6 59 -26 102.5t-55.5 67t-89.5 23.5q-31 0 -58 -7t-47 -18l-27 -137h-285l-1 288q60 62 173.5 102t237.5 40
q170 0 290 -70t183.5 -194t63.5 -287v-23q0 -163 -60.5 -286.5t-175.5 -193t-280 -69.5z" />
    <glyph glyph-name="uni044E" unicode="&#x44e;" horiz-adv-x="1742" 
d="M1170 -21q-147 0 -257 53.5t-177.5 152.5t-87.5 233h-73v-181l126 -32v-205h-604v205l127 32v607l-152 32v206h503v-395h77q24 126 91.5 219.5t175 144.5t249.5 51q167 0 284.5 -70t180 -194t62.5 -287v-20q0 -163 -62.5 -287.5t-180 -194.5t-282.5 -70zM1170 246
q64 0 102.5 34.5t55.5 98.5t17 152v20q0 85 -17.5 148.5t-56.5 99t-103 35.5t-103 -35.5t-56 -99t-17 -148.5v-20q0 -89 17 -153t56 -98t105 -34z" />
    <glyph glyph-name="uni044F" unicode="&#x44f;" horiz-adv-x="1320" 
d="M97 0v205l99 16l108 206q-84 50 -128.5 121t-44.5 158q0 110 61 195t172 133t260 48h639v-206l-150 -32v-607l150 -32v-205h-602v205l103 32v117h-90l-157 -354h-420zM628 577h136v239h-140q-67 0 -105.5 -38.5t-38.5 -83.5q0 -46 39.5 -81.5t108.5 -35.5z" />
    <glyph glyph-name="uni0450" unicode="&#x450;" horiz-adv-x="1090" 
d="M590 -21q-159 0 -277.5 68.5t-184 187.5t-65.5 269v37q0 165 58 292t170 198.5t275 70.5q147 0 248.5 -56.5t154.5 -166t53 -269.5v-181h-595l-1 -7q8 -51 34.5 -90.5t73.5 -62.5t116 -23q68 0 133.5 15.5t138.5 49.5l80 -212q-73 -52 -178 -86t-234 -34zM427 646h275v26
q0 58 -11.5 97t-39.5 59t-77 20q-53 0 -84.5 -25.5t-46 -70t-20.5 -101.5zM766 1287h-7h-281l-280 267l2 6h358z" />
    <glyph glyph-name="uni0451" unicode="&#x451;" horiz-adv-x="1090" 
d="M590 -21q-159 0 -277.5 68.5t-184 187.5t-65.5 269v37q0 165 58 292t170 198.5t275 70.5q147 0 248.5 -56.5t154.5 -166t53 -269.5v-181h-595l-1 -7q8 -51 34.5 -90.5t73.5 -62.5t116 -23q68 0 133.5 15.5t138.5 49.5l80 -212q-73 -52 -178 -86t-234 -34zM427 646h275v26
q0 58 -11.5 97t-39.5 59t-77 20q-53 0 -84.5 -25.5t-46 -70t-20.5 -101.5zM629 1287v273h327v-273h-327zM160 1287v273h327v-273h-327z" />
    <glyph glyph-name="uni0452" unicode="&#x452;" horiz-adv-x="1306" 
d="M719 -437q-32 0 -68.5 3.5t-80.5 12.5l13 265q25 -6 47 -9.5t42 -3.5q65 0 96 40.5t31 118.5v632q0 121 -36.5 166t-107.5 45q-45 0 -79.5 -15.5t-56.5 -48.5v-532l102 -32v-205h-578v205l125 32v920h-212v155h212v43l-150 31v174h501v-248h183v-155h-183v-208
q48 72 119 112.5t163 40.5q158 0 253.5 -117.5t95.5 -364.5v-630q0 -204 -112.5 -315.5t-318.5 -111.5z" />
    <glyph glyph-name="uni0453" unicode="&#x453;" horiz-adv-x="1096" 
d="M53 0v205l150 32v607l-150 32v206h988v-444h-217l-11 175h-259v-576l150 -32v-205h-651zM340 1287l208 273h358l2 -6l-280 -267h-281h-7z" />
    <glyph glyph-name="uni0454" unicode="&#x454;" horiz-adv-x="1100" 
d="M578 -21q-164 0 -279.5 69.5t-176 193t-60.5 286.5v23q0 163 63 287t183.5 194t292.5 70q131 0 235.5 -36.5t173.5 -105.5l1 -319h-286l-51 168q-14 10 -33 17.5t-51 7.5q-55 0 -91.5 -26t-55.5 -73.5t-23 -112.5l2 -5h246v-188h-243l-2 -5q6 -57 23.5 -97t50 -60.5
t81.5 -20.5q44 0 71.5 16.5t40.5 48t13 76.5h318l4 -6q3 -119 -54 -209.5t-158.5 -141.5t-234.5 -51z" />
    <glyph glyph-name="uni0455" unicode="&#x455;" horiz-adv-x="1041" 
d="M536 -21q-128 0 -238.5 23.5t-199.5 64.5l-4 337h237l40 -157q21 -13 54 -22.5t79 -9.5q85 0 117 23t32 58q0 34 -36.5 62.5t-155.5 50.5q-190 37 -280 126.5t-90 223.5q0 91 42 168t137.5 124.5t255.5 47.5q122 0 232.5 -21t181.5 -53l-1 -326h-236l-30 140
q-23 16 -52 24t-65 8q-67 0 -98 -24t-31 -62q0 -22 13.5 -44t53.5 -42t117 -37q185 -41 278.5 -114t93.5 -222q0 -160 -114.5 -253.5t-332.5 -93.5z" />
    <glyph glyph-name="uni0456" unicode="&#x456;" horiz-adv-x="652" 
d="M46 0v205l127 32v607l-151 32v206h502v-845l126 -32v-205h-604zM163 1287v273h361v-273h-361z" />
    <glyph glyph-name="uni0457" unicode="&#x457;" horiz-adv-x="667" 
d="M46 0v205l127 32v607l-151 32v206h502v-845l126 -32v-205h-604zM415 1287v273h327v-273h-327zM-54 1287v273h327v-273h-327z" />
    <glyph glyph-name="uni0458" unicode="&#x458;" horiz-adv-x="616" 
d="M136 -437q-47 0 -85 3.5t-79 12.5l16 265q26 -6 45.5 -9.5t51.5 -3.5q56 0 86.5 41.5t30.5 117.5v854l-152 32v206h501v-1092q0 -205 -109 -316t-306 -111zM186 1287v273h361v-273h-361z" />
    <glyph glyph-name="uni0459" unicode="&#x459;" horiz-adv-x="1812" 
d="M65 0l-8 270l24 -1q54 0 90.5 39t55.5 117.5t19 196.5v222l-150 32v206h1089h94v-206l-150 -32v-94h162q234 0 370.5 -102t136.5 -273q0 -174 -136 -274.5t-371 -100.5h-665v205l150 32v576h-179v-191q0 -315 -116 -468.5t-376 -153.5h-40zM1129 265h162q80 0 119 28.5
t39 81.5t-39 79.5t-119 26.5h-162v-216z" />
    <glyph glyph-name="uni045A" unicode="&#x45a;" horiz-adv-x="1902" 
d="M78 0v205l151 32v607l-151 32v206h604v-206l-103 -32v-185h278v185l-101 32v206h105h346h152v-206l-152 -32v-95h165q236 0 371 -101.5t135 -272.5q0 -174 -136 -274.5t-370 -100.5h-616v205l101 32v154h-278v-154l103 -32v-205h-604zM1207 265h165q80 0 118.5 28.5
t38.5 81.5t-38.5 79.5t-118.5 26.5h-165v-216z" />
    <glyph glyph-name="uni045B" unicode="&#x45b;" horiz-adv-x="1294" 
d="M46 0v205l127 32v1085l-152 32v206h501v-612q48 73 120 113.5t167 40.5q156 0 251 -111.5t95 -344.5v-409l126 -32v-205h-580v205l103 32v411q0 106 -35.5 145.5t-102.5 39.5q-46 0 -83 -16t-61 -51v-529l103 -32v-205h-579zM21 1120v155h694v-155h-694z" />
    <glyph glyph-name="uni045C" unicode="&#x45c;" horiz-adv-x="1371" 
d="M87 0v205l152 32v607l-152 32v206h616v-206l-115 -32v-146h98l122 201q61 100 132 149.5t177 49.5q62 0 110 -15.5t88 -39.5l-62 -245q-18 8 -31 11t-25 3q-32 0 -62 -20t-53 -55l-97 -162l195 -346l152 -24v-205h-486l-156 371h-102v-134l115 -32v-205h-616zM478 1287
l208 273h358l2 -6l-280 -267h-281h-7z" />
    <glyph glyph-name="uni045D" unicode="&#x45d;" horiz-adv-x="1430" 
d="M78 0v205l151 32v607l-151 32v206h503h126v-206l-126 -32v-351l6 -1l274 590h351h150v-206l-150 -32v-607l150 -32v-205h-627v205l126 32v354h-6l-274 -591h-503zM929 1287h-7h-281l-280 267l2 6h358z" />
    <glyph glyph-name="uni045E" unicode="&#x45e;" horiz-adv-x="1343" 
d="M396 -437q-46 0 -92.5 7.5t-95.5 21.5l42 251q20 -5 38.5 -7.5t38.5 -2.5q64 0 113.5 23.5t62.5 72.5l10 38l-348 888l-145 21v206h650v-206l-134 -20l145 -438l2 -8h6l171 449l-124 17v206h591v-206l-128 -18l-405 -1016q-29 -73 -78 -136.5t-127 -103t-193 -39.5z
M679 1258q-172 0 -274.5 83t-95.5 213l2 6h228q0 -50 33.5 -83.5t106.5 -33.5q71 0 104 32.5t33 84.5h229l2 -6q5 -130 -96 -213t-272 -83z" />
    <glyph glyph-name="uni045F" unicode="&#x45f;" horiz-adv-x="1429" 
d="M545 -359v359h-466v205l150 32v607l-150 32v206h501h101v-206l-101 -32v-577h281v577l-103 32v206h605v-206l-151 -32v-607l151 -32v-205h-469v-359h-349z" />
    <glyph glyph-name="uni0460" unicode="&#x460;" horiz-adv-x="1959" 
d="M656 -21q-161 0 -283 60t-190 173t-68 273v971h352v-971q0 -123 49 -181t140 -58q89 0 134.5 57.5t45.5 181.5v971h350v-971q0 -123 49 -181t137 -58q91 0 137.5 57.5t46.5 181.5v971h351v-971q0 -161 -67.5 -274t-187.5 -172.5t-280 -59.5q-112 0 -204.5 38t-155.5 111
q-64 -73 -155.5 -111t-200.5 -38z" />
    <glyph glyph-name="uni0461" unicode="&#x461;" horiz-adv-x="1775" 
d="M603 -21q-222 0 -356 132t-134 376v595h351v-595q0 -124 33 -182.5t109 -58.5q75 0 111 58t36 183v595h352v-595q0 -126 33 -183.5t109 -57.5q75 0 105 58t30 183v595h351v-595q0 -244 -132 -376t-351 -132q-102 0 -183 33.5t-141 104.5q-60 -71 -141 -104.5t-182 -33.5z
" />
    <glyph glyph-name="uni0462" unicode="&#x462;" horiz-adv-x="1361" 
d="M65 0v205l152 32v981l-152 32v206h654v-206l-151 -32v-266h182q177 0 307.5 -58.5t202.5 -163.5t72 -247q0 -144 -72.5 -253t-203.5 -169.5t-306 -60.5h-685zM568 267h182q107 0 169.5 62t62.5 156q0 89 -61 144t-171 55h-182v-417zM65 1009v155h694v-155h-694z" />
    <glyph glyph-name="uni0463" unicode="&#x463;" horiz-adv-x="1267" 
d="M80 0v205l150 32v810h-134v197h134v80l-150 31v207h503v-318h214v-197h-214v-237h163q156 0 269.5 -51t175 -141.5t61.5 -211.5q0 -184 -136.5 -295t-369.5 -111h-666zM583 266h163q77 0 117 38.5t40 102.5q0 61 -39.5 98t-117.5 37h-163v-276z" />
    <glyph glyph-name="uni0464" unicode="&#x464;" horiz-adv-x="1979" 
d="M1345 -20q-188 0 -336 81.5t-238 227.5t-104 340v2.5v2.5h-111v-397l152 -32v-205h-653v205l152 32v981l-152 32v206h152h349h152v-206l-152 -32v-378h114q16 191 106 334.5t237 223.5t332 80q171 0 313 -59.5t248 -173.5v-306h-266l-26 186q-39 40 -101.5 62.5
t-147.5 22.5q-100 0 -173 -45t-115.5 -126.5t-50.5 -192.5l3 -6h457v-206h-459l-1 -5q6 -117 48 -202.5t117 -132.5t178 -47q79 0 144.5 22t100.5 63l26 186h266v-306q-103 -115 -246.5 -173.5t-314.5 -58.5z" />
    <glyph glyph-name="uni0465" unicode="&#x465;" horiz-adv-x="1643" 
d="M1165 -21q-150 0 -259 58t-173 163t-80 246h-98v-209l126 -32v-205h-604v205l127 32v607l-152 32v206h152h351v-440h100q17 139 84 242t180.5 160.5t268.5 57.5q132 0 236 -36.5t174 -105.5l1 -319h-287l-51 168q-13 10 -32 17.5t-51 7.5q-51 0 -86 -23t-55 -65t-26 -99
l2 -5h177v-196h-179l-2 -5q5 -91 42.5 -143t113.5 -52q44 0 72 16.5t41 48t13 76.5h318l4 -6q2 -119 -54.5 -209.5t-158 -141.5t-235.5 -51z" />
    <glyph glyph-name="uni0466" unicode="&#x466;" horiz-adv-x="1534" 
d="M52 0v205l117 15l430 1236h382l431 -1236l117 -15v-205h-561v205l78 16l-74 233h-46v-454h-275v454h-44l-73 -233l79 -16v-205h-561zM680 678h218l-98 308l-9 27h-6l-11 -33z" />
    <glyph glyph-name="uni0467" unicode="&#x467;" horiz-adv-x="1279" 
d="M50 0v205l93 15l309 862h382l306 -862l92 -15v-205h-369l-102 333h-35v-333h-186v333h-18l-101 -333h-371zM578 515h125l-25 110l-33 142h-6l-34 -142z" />
    <glyph glyph-name="uni0468" unicode="&#x468;" horiz-adv-x="2199" 
d="M10 0v205l151 32v981l-151 32v206h151h350h151v-206l-151 -32v-539h479l271 777h382l431 -1236l116 -15v-205h-560v205l77 16l-74 233h-44v-454h-275v454h-46l-72 -233l79 -16v-205h-562v205l117 15l80 232h-399v-215l151 -32v-205h-652zM1341 678h218l-95 298l-12 37h-6
l-13 -44z" />
    <glyph glyph-name="uni0469" unicode="&#x469;" horiz-adv-x="1955" 
d="M48 0v205l128 32v607l-152 32v206h152h351v-567h373l203 567h381l307 -862l91 -15v-205h-368l-103 333h-29v-333h-186v333h-23l-102 -333h-370v205l92 15l41 115h-307v-98l126 -32v-205h-605zM1229 515h125l-26 110l-32 142h-6l-34 -142z" />
    <glyph glyph-name="uni046A" unicode="&#x46a;" horiz-adv-x="1953" 
d="M60 0v205l127 32v90q0 240 132.5 351t391.5 121h4.5h3.5l-236 426l-192 25v206h1457v-206l-195 -25l-235 -427h9.5t14.5 -1q225 -19 343.5 -130.5t118.5 -339.5v-90l127 -32v-205h-580v205l103 32v90q0 113 -50.5 156t-163.5 43h-56h-11v-289l103 -32v-205h-555v205
l103 32v289h-17h-55q-114 0 -164.5 -43t-50.5 -156v-90l103 -32v-205h-580zM1015 863h4l15 35l132 285h-294l127 -285z" />
    <glyph glyph-name="uni046B" unicode="&#x46b;" horiz-adv-x="1699" 
d="M73 0v205l132 33v10q0 147 85.5 238t242.5 125q11 2 20.5 3.5t15.5 2.5l-135 234l-199 25v206h1257v-206l-198 -25l-137 -236q6 -1 16 -2.5t23 -4.5q146 -36 228.5 -126.5t82.5 -212.5v-32l132 -32v-205h-473v190q0 95 -32.5 133t-94.5 38h-8v-17v-107l98 -32v-205h-545
v205l98 32v113v11h-9q-64 0 -96 -38t-32 -133v-190h-472zM859 648h7l94 226h-192z" />
    <glyph glyph-name="uni046C" unicode="&#x46c;" horiz-adv-x="2620" 
d="M30 0v205l152 32v981l-152 32v206h653v-206l-152 -32v-418h992v-273h-992v-290l152 -32v-205h-653zM719 0v205l127 32v90q0 240 132.5 351t391.5 121h4.5h3.5l-236 426l-192 25v206h1457v-206l-195 -25l-235 -427h9.5t14.5 -1q225 -19 343.5 -130.5t118.5 -339.5v-90
l127 -32v-205h-580v205l103 32v90q0 113 -50.5 156t-163.5 43h-56h-11v-289l103 -32v-205h-555v205l103 32v289h-17h-55q-114 0 -164.5 -43t-50.5 -156v-90l103 -32v-205h-580zM1674 863h4l15 35l132 285h-294l127 -285z" />
    <glyph glyph-name="uni046D" unicode="&#x46d;" horiz-adv-x="2323" 
d="M50 -1v205l128 32v607l-152 32v206h503v-466h847v-241h-847v-138l125 -32v-205h-604zM717 0v205l132 33v10q0 147 85.5 238t242.5 125q11 2 20.5 3.5t15.5 2.5l-135 234l-199 25v206h1257v-206l-198 -25l-137 -236q6 -1 16 -2.5t23 -4.5q146 -36 228.5 -126.5
t82.5 -212.5v-32l132 -32v-205h-473v190q0 95 -32.5 133t-94.5 38h-8v-17v-107l98 -32v-205h-545v205l98 32v113v11h-9q-64 0 -96 -38t-32 -133v-190h-472zM1503 648h7l94 226h-192z" />
    <glyph glyph-name="uni046E" unicode="&#x46e;" horiz-adv-x="1178" 
d="M505 -450q-126 19 -206.5 71.5t-119 132t-39.5 178.5q-1 164 96 245t271 81h76q92 0 146 43t54 122q0 82 -62.5 129t-183.5 47h-130v281h143q88 0 130 45t42 117q0 68 -42 112t-143 44q-52 0 -105.5 -12t-93.5 -32l-31 -155h-249v275q81 92 206.5 142t296.5 50
q160 0 275 -41.5t177 -126.5t62 -215q0 -127 -57 -211.5t-165 -130.5q149 -47 214.5 -129.5t65.5 -207.5q0 -133 -64 -228.5t-181.5 -146.5t-278.5 -51h-60q-49 0 -72 -26.5t-23 -63.5q0 -35 18 -61t49 -45t68 -34zM168 1812l256 -251h276l260 247v26h-265l-132 -142
l-125 142h-270v-22z" />
    <glyph glyph-name="uni046F" unicode="&#x46f;" horiz-adv-x="1033" 
d="M393 -428q-95 26 -166.5 80.5t-110.5 129.5t-40 164q0 132 84.5 200t233.5 68h66q96 0 151.5 30.5t55.5 85.5q0 51 -51.5 79.5t-151.5 28.5h-83v190h95q67 0 99.5 31t32.5 79q0 53 -39.5 80.5t-114.5 27.5q-46 0 -78.5 -9.5t-58.5 -26.5l-32 -147h-237l1 267
q74 82 178 117.5t252 35.5q147 0 254 -31t165.5 -95.5t58.5 -166.5q0 -90 -43.5 -153t-125.5 -100q110 -33 170 -94t60 -154q0 -95 -59 -165t-167.5 -108t-257.5 -38h-49q-61 0 -89 -23t-28 -67q0 -33 14.5 -59t39 -45.5t54.5 -35.5zM349 1287l-256 251v22h270l125 -142
l132 142h265v-26l-260 -247h-276z" />
    <glyph glyph-name="uni0470" unicode="&#x470;" horiz-adv-x="1775" 
d="M596 0v205l150 32v159q-176 14 -302.5 90t-194.5 209.5t-68 317.5v205l-126 32v206h476v-443q0 -100 23.5 -171t70 -111.5t115.5 -51.5l6 3v536l-126 32v206h603v-206l-126 -32v-537l6 -1q65 9 105.5 48t59.5 110.5t19 174.5v443h478v-206l-127 -32v-205q0 -180 -65 -311
t-186 -208.5t-290 -95.5v-161l150 -32v-205h-651z" />
    <glyph glyph-name="uni0471" unicode="&#x471;" horiz-adv-x="1713" 
d="M739 -480v472q-259 39 -401 185t-142 409v178q0 36 -16 52.5t-56 16.5q-12 0 -25 -1.5t-30 -5.5l-21 235q37 15 104 28t133 13q125 0 193.5 -59.5t68.5 -174.5v-285q0 -128 49 -202t137 -100l6 2v800h351v-809l6 -2q78 19 126 62.5t70.5 112t22.5 161.5q-1 112 -27 228.5
t-71 245.5h312q41 -63 71.5 -137.5t48 -159t17.5 -177.5q0 -163 -60 -294.5t-187 -216.5t-329 -109v-468h-351z" />
    <glyph glyph-name="uni0472" unicode="&#x472;" horiz-adv-x="1398" 
d="M741 -21q-202 0 -353.5 95.5t-235.5 262t-84 380.5v23q0 212 83.5 378.5t234.5 262.5t353 96q200 0 350.5 -96t234 -262.5t83.5 -378.5v-23q0 -214 -83.5 -380.5t-233 -262t-349.5 -95.5zM741 247q98 0 164 48t102 135t43 204l-2 5h-619l-2 -5q6 -117 41.5 -204t103 -135
t169.5 -48zM430 835h617l2 5q-9 112 -46 194.5t-102.5 128t-161.5 45.5q-100 0 -166 -45t-101.5 -127.5t-43.5 -195.5z" />
    <glyph glyph-name="uni0473" unicode="&#x473;" horiz-adv-x="1194" 
d="M591 -21q-167 0 -285.5 69.5t-181 194t-62.5 288.5v20q0 162 62.5 286t180.5 194.5t284 70.5q167 0 284.5 -70t180 -194t62.5 -287v-20q0 -163 -62.5 -287.5t-180 -194.5t-282.5 -70zM591 246q51 0 85 22t53.5 64t25.5 100l-2 5h-328l-2 -5q6 -58 25.5 -100t54.5 -64
t88 -22zM424 632h331l2 5q-5 59 -24.5 103.5t-55 69t-88.5 24.5q-54 0 -89.5 -24.5t-54 -69t-23.5 -103.5z" />
    <glyph glyph-name="uni0474" unicode="&#x474;" horiz-adv-x="1424" 
d="M568 0l-401 1231l-139 19v206h584v-206l-90 -19l223 -828l9 -56h6l7 51l185 705q56 182 149 279t262 92l34 -1l-3 -277h-38q-30 0 -50.5 -11.5t-33.5 -35t-23 -59.5l-301 -1090h-380z" />
    <glyph glyph-name="uni0475" unicode="&#x475;" horiz-adv-x="1203" 
d="M429 0l-259 859l-134 17v206h587v-206l-105 -22l68 -399l16 -95h6l15 95l57 274q52 184 146.5 279t246.5 95q26 0 52.5 -3.5t54.5 -12.5l-26 -266q-15 2 -28.5 2.5t-22.5 0.5q-46 0 -75.5 -24t-46.5 -83l-192 -717h-360z" />
    <glyph glyph-name="uni0476" unicode="&#x476;" horiz-adv-x="1424" 
d="M568 0l-401 1231l-139 19v206h584v-206l-90 -19l223 -828l9 -56h6l7 51l185 705q56 182 149 279t262 92l34 -1l-3 -277h-38q-30 0 -50.5 -11.5t-33.5 -35t-23 -59.5l-301 -1090h-380zM781 1561h-256l-289 267l1 6h307l239 -268zM1167 1561h-254l-240 268l2 5h290
l209 -273h-7z" />
    <glyph glyph-name="uni0477" unicode="&#x477;" horiz-adv-x="1203" 
d="M429 0l-259 859l-134 17v206h587v-206l-105 -22l68 -399l16 -95h6l15 95l57 274q52 184 146.5 279t246.5 95q26 0 52.5 -3.5t54.5 -12.5l-26 -266q-15 2 -28.5 2.5t-22.5 0.5q-46 0 -75.5 -24t-46.5 -83l-192 -717h-360zM614 1287h-256l-289 267l1 6h307l239 -268z
M1000 1287h-254l-240 268l2 5h290l209 -273h-7z" />
    <glyph glyph-name="uni0478" unicode="&#x478;" horiz-adv-x="2848" 
d="M753 -21q-151 0 -277.5 55.5t-219.5 155.5t-143.5 234.5t-50.5 292.5v23q0 157 50.5 291t143 234t218.5 156t277 56q148 0 275 -56t222.5 -156t148.5 -234t53 -291v-23q0 -158 -53 -292.5t-148 -234.5t-222 -155.5t-274 -55.5zM753 245q110 0 188 59t119 165t41 248v25
q0 139 -41.5 244.5t-119.5 164.5t-189 59q-117 0 -191.5 -58t-110.5 -163t-36 -247v-25q0 -142 36.5 -248.5t112 -165t191.5 -58.5zM1901 -437q-46 0 -92.5 7.5t-95.5 21.5l42 251q20 -5 38.5 -7.5t38.5 -2.5q64 0 113.5 23.5t62.5 72.5l10 38l-348 888l-145 21v206h650
v-206l-134 -20l145 -438l2 -8h6l171 449l-124 17v206h591v-206l-128 -18l-405 -1016q-29 -73 -78 -136.5t-127 -103t-193 -39.5z" />
    <glyph glyph-name="uni0479" unicode="&#x479;" horiz-adv-x="2460" 
d="M589 -21q-167 0 -285.5 69.5t-181 194t-62.5 288.5v20q0 162 62.5 286t180.5 194.5t284 70.5q167 0 284.5 -70t180 -194t62.5 -287v-20q0 -163 -62.5 -287.5t-180 -194.5t-282.5 -70zM589 246q64 0 102.5 34.5t56 98.5t17.5 152v20q0 85 -17.5 148.5t-56.5 99t-104 35.5
q-64 0 -103 -35.5t-56 -99t-17 -148.5v-20q0 -89 17 -153t56 -98t105 -34zM1513 -437q-46 0 -92.5 7.5t-95.5 21.5l42 251q20 -5 38.5 -7.5t38.5 -2.5q64 0 113.5 23.5t62.5 72.5l10 38l-348 888l-145 21v206h650v-206l-134 -20l145 -438l2 -8h6l171 449l-124 17v206h591
v-206l-128 -18l-405 -1016q-29 -73 -78 -136.5t-127 -103t-193 -39.5z" />
    <glyph glyph-name="uni047A" unicode="&#x47a;" horiz-adv-x="1451" 
d="M732 -21q-202 0 -353 95.5t-235 262t-84 380.5v23q0 212 83.5 378.5t234.5 262.5t353 96q200 0 350 -96t234 -262.5t84 -378.5v-23q0 -214 -83.5 -380.5t-233.5 -262t-350 -95.5zM732 247q110 0 180 58.5t103.5 164t33.5 247.5v25q0 139 -34 244t-104 163.5t-180 58.5
q-113 0 -184 -57.5t-103.5 -162t-32.5 -246.5v-25q0 -142 33.5 -248t104.5 -164t183 -58zM630 -133v505h216v-505h-216zM625 1075v495h218v-495h-218z" />
    <glyph glyph-name="uni047B" unicode="&#x47b;" horiz-adv-x="1145" 
d="M573 -21q-167 0 -285.5 69.5t-181 194t-62.5 288.5v20q0 162 62.5 286t180.5 194.5t284 70.5q167 0 284.5 -70t180 -194t62.5 -287v-20q0 -163 -62.5 -287.5t-180 -194.5t-282.5 -70zM573 246q64 0 102.5 34.5t56 98.5t17.5 152v20q0 85 -17.5 148.5t-56.5 99t-104 35.5
q-64 0 -103 -35.5t-56 -99t-17 -148.5v-20q0 -89 17 -153t55.5 -98t105.5 -34zM493 -126v507h146v-507h-146zM502 718v485h147v-485h-147z" />
    <glyph glyph-name="uni047C" unicode="&#x47c;" horiz-adv-x="1898" 
d="M640 -21q-161 0 -283 59.5t-190 172.5t-68 273v466q0 160 68 273t189 172t278 56l6 -2v-261q-91 0 -140.5 -58t-49.5 -180v-466q0 -122 49.5 -180t140.5 -58q89 0 134.5 57.5t45.5 181.5v327h327v-327q0 -124 45 -181.5t135 -57.5t139.5 58t49.5 180v466q0 122 -49.5 180
t-139.5 58v261l6 2q158 3 278.5 -56t189 -172t68.5 -273v-466q0 -160 -68.5 -273t-190.5 -172.5t-283 -59.5q-104 0 -193 34.5t-152 101.5q-64 -67 -152 -101.5t-190 -34.5zM935 1276l-82 48l58 104l-1 151h178v-133zM708 1563v37q0 110 60 163.5t170 53.5q35 0 95.5 -18
t132.5 -41t142.5 -41t125.5 -18h8v-137h-8q-64 0 -141 18t-150 41t-127.5 41t-74.5 18q-49 0 -75 -24.5t-26 -74.5v-18h-132z" />
    <glyph glyph-name="uni047D" unicode="&#x47d;" horiz-adv-x="1603" 
d="M534 -21q-137 0 -242.5 57.5t-165 166.5t-59.5 262v151q0 154 66 262t183.5 164.5t270.5 54.5l6 -3v-261q-84 0 -129.5 -53.5t-45.5 -163.5v-151q0 -111 32 -165t90 -54q59 0 89 58.5t30 182.5v128h326v-128q0 -123 30 -182t90 -59q57 0 89 53.5t32 165.5v151
q0 110 -45.5 163.5t-128.5 53.5v261l6 3q152 2 269 -54.5t183.5 -164.5t66.5 -262v-151q0 -153 -59.5 -262t-164.5 -166.5t-242 -57.5q-100 0 -168 34.5t-121 109.5q-56 -76 -121.5 -110t-166.5 -34zM771 957l-84 49l60 105l-1 128h178v-110zM543 1223v38q0 110 59.5 163
t170.5 53q34 0 94.5 -17.5t133 -41t143.5 -41t126 -17.5h6v-137h-8q-63 0 -139.5 18t-150 41t-128.5 41t-75 18q-46 0 -73 -25t-27 -75v-18h-132z" />
    <glyph glyph-name="uni047E" unicode="&#x47e;" horiz-adv-x="1959" 
d="M656 -21q-161 0 -283 60t-190 173t-68 273v971h352v-971q0 -123 49 -181t140 -58q89 0 134.5 57.5t45.5 181.5v971h350v-971q0 -123 49 -181t137 -58q91 0 137.5 57.5t46.5 181.5v971h351v-971q0 -161 -67.5 -274t-187.5 -172.5t-280 -59.5q-112 0 -204.5 38t-155.5 111
q-64 -73 -155.5 -111t-200.5 -38zM914 1559v127h-364v114h927v-114h-381v-127h-182z" />
    <glyph glyph-name="uni047F" unicode="&#x47f;" horiz-adv-x="1784" 
d="M603 -21q-222 0 -356 132t-134 376v595h351v-595q0 -124 35 -182.5t111 -58.5q72 0 107.5 58t35.5 183v595h352v-595q0 -126 33.5 -183.5t109.5 -57.5q72 0 103 58t31 183v595h351v-595q0 -244 -132 -376t-351 -132q-102 0 -184 34.5t-140 103.5q-58 -69 -140 -103.5
t-183 -34.5zM852 1217v126h-313v114h826l8 -114h-340v-126h-181z" />
    <glyph glyph-name="uni0480" unicode="&#x480;" horiz-adv-x="1235" 
d="M543 -355v345q-139 24 -239.5 103t-154.5 202.5t-54 278.5v307q0 178 69.5 312t197 209t300.5 75q159 0 281.5 -57t191 -169.5t65.5 -279.5l-2 -6h-343q0 134 -58.5 189t-137.5 55q-72 0 -119.5 -40t-70.5 -113t-23 -173v-309q0 -100 23 -174t70.5 -114t119.5 -40h234
v-601h-350z" />
    <glyph glyph-name="uni0481" unicode="&#x481;" horiz-adv-x="1069" 
d="M485 -357v346q-132 22 -223.5 94.5t-138.5 186.5t-47 258v23q0 162 59 286t173 194.5t277 70.5q141 0 244.5 -52t160 -148.5t53.5 -230.5l-2 -6h-321q0 49 -14 87t-43.5 60t-78.5 22q-60 0 -94 -34.5t-48.5 -98t-14.5 -150.5v-23q0 -88 15 -151.5t51.5 -97t100.5 -33.5
h240v-603h-349z" />
    <glyph glyph-name="uni0482" unicode="&#x482;" horiz-adv-x="1076" 
d="M69 0l225 398l-289 171l72 130l293 -171l201 358l-290 171l74 132l291 -171l184 324h173l-228 -404l293 -171l-76 -129l-288 170l-204 -358l289 -172l-72 -130l-291 170l-181 -318h-176z" />
    <glyph glyph-name="uni0483" unicode="&#x483;" 
d="M218 1185l-178 1l1 240h547l-1 108l178 -1v-222h-547v-126z" />
    <glyph glyph-name="uni0484" unicode="&#x484;" 
d="M40 1303v136h8q57 0 130.5 18t148.5 41t138.5 41t99.5 18q113 0 175.5 -53t62.5 -163v-38h-137v18q0 50 -29 75t-76 25q-21 0 -78.5 -18t-133.5 -41t-155 -41t-144 -18h-10z" />
    <glyph glyph-name="uni0485" unicode="&#x485;" 
d="M207 1307l-167 193v152h192l-1 -171l57 -104z" />
    <glyph glyph-name="uni0486" unicode="&#x486;" 
d="M124 1307l-84 70l60 104l-1 171h190v-152z" />
    <glyph glyph-name="uni0488" unicode="&#x488;" horiz-adv-x="2016" 
d="M218 990l-2 6q-5 79 51.5 130.5t153.5 51.5q96 0 152.5 -51.5t52.5 -130.5l-2 -6h-104q0 43 -24.5 72t-74.5 29t-73.5 -29t-23.5 -72h-106zM208 -32l-2 6q-5 78 51.5 130t152.5 52t153 -51.5t53 -130.5l-2 -6h-105q0 44 -24 72.5t-75 28.5q-50 0 -73 -29t-23 -72h-106z
M796 -316l-2 6q-5 80 51 131t153 51q96 0 152.5 -51t52.5 -131l-2 -6h-104q0 44 -24.5 72.5t-74.5 28.5t-73.5 -28.5t-23.5 -72.5h-105zM42 487l-2 6q-5 78 51.5 130t152.5 52t152.5 -51.5t52.5 -130.5l-2 -6h-104q0 44 -24 72.5t-75 28.5q-50 0 -73.5 -29t-23.5 -72h-105z
M1372 -32l-2 6q-5 78 51.5 130t152.5 52t152.5 -51.5t52.5 -130.5l-2 -6h-104q0 44 -24 72.5t-75 28.5q-50 0 -73.5 -29t-23.5 -72h-105zM1569 487l-2 6q-5 78 51.5 130t152.5 52t152.5 -51.5t52.5 -130.5l-2 -6h-104q0 44 -24 72.5t-75 28.5q-50 0 -73.5 -29t-23.5 -72
h-105zM791 1267l-2 6q-5 79 51 130.5t153 51.5q96 0 152.5 -51.5t52.5 -130.5l-2 -6h-104q0 43 -24.5 72t-74.5 29t-73.5 -29t-23.5 -72h-105zM1382 990l-2 6q-5 78 51.5 130t152.5 52t153 -51.5t53 -130.5l-2 -6h-105q0 44 -24 72.5t-75 28.5q-50 0 -73 -29t-23 -72h-106z
" />
    <glyph glyph-name="uni0489" unicode="&#x489;" horiz-adv-x="1936" 
d="M304 -149l-69 69l294 200l97 -99l-2 -17zM860 -413l70 353h137l11 -14l-122 -339h-96zM373 421l-333 124v98l346 -71v-139zM1548 -237l-197 299l97 99l17 -2l149 -325zM486 860l-17 2l-148 326l65 69l198 -299zM1896 421l-346 71v139l13 12l333 -124v-98zM872 1126
l-12 14l122 338h96l-70 -352h-136zM1407 903l-97 99l2 16l321 153l68 -68q-19 -11 -92.5 -61t-201.5 -139z" />
    <glyph glyph-name="uni048A" unicode="&#x48a;" horiz-adv-x="1624" 
d="M64 0v205l152 32v981l-152 32v206h152h349h152v-206l-152 -32v-571l6 -2l517 499v74l-150 32v206h150h353h150v-206l-150 -32v-981l150 -32v-205h-653v205l150 32v562l-6 2l-517 -500v-64l152 -32v-205h-653zM829 1532q-172 0 -274.5 83t-95.5 213l2 6h228
q0 -50 33.5 -83.5t106.5 -33.5q71 0 104 32.5t33 84.5h229l2 -6q5 -130 -96 -213t-272 -83zM1381 -467l-164 81q34 68 53 142.5t19 171.5v259h302l-1 -238q0 -130 -63 -236t-146 -180z" />
    <glyph glyph-name="uni048B" unicode="&#x48b;" horiz-adv-x="1430" 
d="M78 0v205l151 32v607l-151 32v206h503h126v-206l-126 -32v-351l6 -1l274 590h351h150v-206l-150 -32v-607l150 -32v-205h-627v205l126 32v354h-6l-274 -591h-503zM722 1258q-172 0 -274.5 83t-95.5 213l2 6h228q0 -50 33.5 -83.5t106.5 -33.5q71 0 104 32.5t33 84.5h229
l2 -6q5 -130 -96 -213t-272 -83zM1152 -467l-164 81q34 68 53 142.5t19 171.5v259h302l-1 -238q0 -130 -63 -236t-146 -180z" />
    <glyph glyph-name="uni048C" unicode="&#x48c;" horiz-adv-x="1361" 
d="M65 0v205l152 32v981l-152 32v206h654v-206l-151 -32v-266h182q177 0 307.5 -58.5t202.5 -163.5t72 -247q0 -144 -72.5 -253t-203.5 -169.5t-306 -60.5h-685zM568 267h182q107 0 169.5 62t62.5 156q0 89 -61 144t-171 55h-182v-417zM65 1009v155h694v-155h-694z" />
    <glyph glyph-name="uni048D" unicode="&#x48d;" horiz-adv-x="1255" 
d="M61 0v205l150 32v847h-164v197h164v83l-150 30v206h501v-319h184v-197h-184v-274h164q156 0 270 -51t175.5 -141.5t61.5 -211.5q0 -184 -136.5 -295t-370.5 -111h-665zM562 266h164q79 0 118.5 38.5t39.5 102.5q0 61 -39.5 98t-118.5 37h-164v-276z" />
    </font>
</defs>
</svg>
