<?xml version="1.0" standalone="no"?>
<!DOCTYPE svg PUBLIC "-//W3C//DTD SVG 1.1//EN" "http://www.w3.org/Graphics/SVG/1.1/DTD/svg11.dtd" >
<svg xmlns="http://www.w3.org/2000/svg" xmlns:xlink="http://www.w3.org/1999/xlink" version="1.1">
<metadata>
Created by FontForge 20170731 at Mon Nov 11 15:00:07 2019
 By Aleksey,,,
Copyright 2018 The Roboto Slab Project Authors (https://github.com/googlefonts/robotoslab)
</metadata>
<defs>
<font id="RobotoSlab-Regular" horiz-adv-x="0" >
  <font-face 
    font-family="Roboto Slab"
    font-weight="400"
    font-stretch="normal"
    units-per-em="2048"
    panose-1="0 0 0 0 0 0 0 0 0 0"
    ascent="1638"
    descent="-410"
    x-height="1082"
    cap-height="1456"
    bbox="-355 -555 2523 2146"
    underline-thickness="100"
    underline-position="-300"
    unicode-range="U+000D-FFFD"
  />
<missing-glyph horiz-adv-x="1038" 
d="M100 0v1456h838v-1456h-838zM154 54h730v1348h-730v-1348zM858 20l-738 1416h60l738 -1416h-60zM120 20l738 1416h60l-738 -1416h-60z" />
    <glyph glyph-name="fi" unicode="fi" horiz-adv-x="1239" 
d="M51 0v126l163 28v782h-169v146h169v117q0 182 107 282t296 100q66 0 132 -16t152 -45l-33 -160q-53 21 -113 36t-123 15q-118 0 -169.5 -52t-51.5 -160v-117h617v-928l163 -28v-126h-523v126l163 28v782h-420v-782l163 -28v-126h-523z" />
    <glyph glyph-name="fl" unicode="fl" horiz-adv-x="1350" 
d="M51 0v126l163 28v782h-144v146h144v78q0 201 117.5 311t325.5 110q86 0 170 -16t195 -46h89v-1365l163 -28v-126h-523v126l163 28v1226q-58 14 -119 22.5t-123 8.5q-138 0 -199.5 -62t-61.5 -189v-78h251v-146h-251v-782l163 -28v-126h-523z" />
    <glyph glyph-name=".notdef" horiz-adv-x="1038" 
d="M100 0v1456h838v-1456h-838zM154 54h730v1348h-730v-1348zM858 20l-738 1416h60l738 -1416h-60zM120 20l738 1416h60l-738 -1416h-60z" />
    <glyph glyph-name=".null" 
 />
    <glyph glyph-name="nonmarkingreturn" horiz-adv-x="682" 
 />
    <glyph glyph-name="CR" unicode="&#xd;" horiz-adv-x="509" 
 />
    <glyph glyph-name="space" unicode=" " horiz-adv-x="509" 
 />
    <glyph glyph-name="exclam" unicode="!" horiz-adv-x="483" 
d="M143 478v978h197v-978h-197zM143 0v204h197v-204h-197z" />
    <glyph glyph-name="quotedbl" unicode="&#x22;" horiz-adv-x="770" 
d="M166 1055v301v204h158v-223l-61 -282h-97zM476 1055v301v204h158v-223l-61 -282h-97z" />
    <glyph glyph-name="numbersign" unicode="#" horiz-adv-x="1246" 
d="M218 0l80 410h-235v140h263l68 348h-255v142h283l82 416h151l-82 -416h255l82 416h151l-82 -416h200v-142h-227l-68 -348h220v-140h-248l-80 -410h-151l80 410h-256l-80 -410h-151zM477 550h256l68 348h-256z" />
    <glyph glyph-name="dollar" unicode="$" horiz-adv-x="1110" 
d="M470 -208v191q-114 12 -203 63.5t-138 145.5t-47 232l2 5h190q0 -102 35.5 -165t96.5 -91.5t136 -28.5q86 0 147 28t93.5 80t32.5 124q0 60 -27.5 108t-88 87t-158.5 72q-134 41 -225 99t-137 140.5t-46 195.5q0 165 95 269t261 125v221h158v-222q167 -24 259.5 -143.5
t92.5 -320.5h-14h-182q0 136 -62.5 220t-174.5 84q-118 0 -177 -61.5t-59 -168.5q0 -64 26 -111.5t87 -85.5t167 -74q136 -44 225 -101.5t133 -137.5t44 -193q0 -172 -103 -274t-283 -121v-191h-156z" />
    <glyph glyph-name="percent" unicode="%" horiz-adv-x="1460" 
d="M422 110l-109 67l711 1138l109 -67zM1084 -21q-92 0 -160 39.5t-105 107.5t-37 153v78q0 84 37 152t104.5 108t158.5 40t159 -39.5t105.5 -107.5t37.5 -153v-78q0 -85 -37 -153t-104.5 -107.5t-158.5 -39.5zM1084 101q74 0 114 51.5t40 126.5v78q0 74 -41 126t-115 52
t-114 -52t-40 -126v-78q0 -75 40.5 -126.5t115.5 -51.5zM379 800q-91 0 -159 39.5t-105.5 107t-37.5 152.5v77q0 85 37 153t104.5 108t158.5 40q92 0 160 -39.5t105 -108t37 -153.5v-77q0 -85 -37 -152.5t-104.5 -107t-158.5 -39.5zM379 922q73 0 113.5 51t40.5 126v77
q0 74 -41 126.5t-115 52.5t-114 -52.5t-40 -126.5v-77q0 -74 40.5 -125.5t115.5 -51.5z" />
    <glyph glyph-name="ampersand" unicode="&#x26;" horiz-adv-x="1289" 
d="M548 -21q-144 0 -250.5 52.5t-165 145.5t-58.5 215q0 120 68 210t203 181q3 2 5.5 3.5t4.5 2.5q-78 99 -116 176.5t-38 159.5q0 113 44 191.5t126 119.5t196 41q106 0 186 -42t125 -112t45 -156q0 -98 -52.5 -169.5t-155.5 -146.5l-109 -80l340 -409q41 65 64 144t23 167
h176q0 -131 -39 -243t-113 -201l185 -224l-2 -5h-229l-85 102q-80 -60 -177 -91.5t-201 -31.5zM548 133q72 0 142 24.5t132 70.5l-361 435l-40 -29q-91 -68 -120.5 -130t-29.5 -112q0 -113 71 -186t206 -73zM506 891l138 95q57 38 77.5 82.5t20.5 98.5q0 61 -48.5 108
t-126.5 47q-81 0 -125 -56.5t-44 -138.5q0 -53 27 -110.5t81 -125.5z" />
    <glyph glyph-name="quotesingle" unicode="'" horiz-adv-x="460" 
d="M166 1055v301v204h158v-223l-61 -282h-97z" />
    <glyph glyph-name="parenleft" unicode="(" horiz-adv-x="662" 
d="M607 -463q-87 47 -174.5 141.5t-159.5 230t-115.5 305.5t-43.5 368v9q0 197 43.5 367t115.5 306t159.5 231t174.5 141l6 -1l37 -116q-69 -54 -130 -140t-108 -203t-74 -263t-27 -320v-13q0 -174 27 -320t73.5 -263.5t108 -205.5t130.5 -146l-37 -108h-6z" />
    <glyph glyph-name="parenright" unicode=")" horiz-adv-x="654" 
d="M48 -463l-37 108q68 53 129 140t108 205.5t74.5 267t27.5 322.5v13q0 171 -28.5 318t-76.5 266t-108.5 207.5t-125.5 143.5l37 108h6q87 -46 174 -141t159.5 -231t116 -306t43.5 -367v-9q0 -198 -43.5 -368t-116 -305.5t-159.5 -230t-174 -141.5h-6z" />
    <glyph glyph-name="asterisk" unicode="*" horiz-adv-x="958" 
d="M653 607l-181 287l-176 -279l-132 93l198 274l-296 89l49 154l296 -111l-10 342h161l-10 -348l293 110l48 -156l-302 -89l193 -270z" />
    <glyph glyph-name="plus" unicode="+" horiz-adv-x="1145" 
d="M474 146v459h-401v178h401v423h197v-423h400v-178h-400v-459h-197z" />
    <glyph glyph-name="comma" unicode="," horiz-adv-x="404" 
d="M134 -311l-111 74q47 72 71 147t24 159v152h197v-149q0 -98 -49 -205t-132 -178z" />
    <glyph glyph-name="hyphen" unicode="-" horiz-adv-x="797" 
d="M154 538v154h489v-154h-489z" />
    <glyph glyph-name="period" unicode="." horiz-adv-x="493" 
d="M145 0v202h197v-202h-197z" />
    <glyph glyph-name="slash" unicode="/" horiz-adv-x="824" 
d="M0 -125l608 1581h166l-607 -1581h-167z" />
    <glyph glyph-name="zero" unicode="0" horiz-adv-x="1168" 
d="M585 -21q-214 0 -339 149t-125 427v345q0 278 124 427.5t338 149.5q215 0 340 -149.5t125 -427.5v-345q0 -279 -124 -427.5t-339 -148.5zM585 133q131 0 198.5 96t67.5 286v427q0 189 -68.5 284.5t-199.5 95.5q-129 0 -197 -95.5t-68 -284.5v-427q0 -189 69 -285.5
t198 -96.5z" />
    <glyph glyph-name="one" unicode="1" horiz-adv-x="844" 
d="M121 0v126l225 28v1091l-229 -4v123l426 92v-1302l224 -28v-126h-646z" />
    <glyph glyph-name="two" unicode="2" horiz-adv-x="1131" 
d="M97 0v135l477 530q85 95 133 162.5t67 122.5t19 114q0 109 -66 183.5t-189 74.5q-128 0 -199.5 -77t-71.5 -218h-189l-2 6q-3 126 53 226.5t162.5 159t253.5 58.5q138 0 237.5 -52.5t153.5 -143.5t54 -209q0 -80 -31.5 -159t-92 -162t-145.5 -175l-383 -417l2 -5h517
l16 167h167v-321h-943z" />
    <glyph glyph-name="three" unicode="3" horiz-adv-x="1106" 
d="M530 -21q-133 0 -237 48.5t-162.5 138t-55.5 212.5l3 6h188q0 -77 32 -133t91 -87t141 -31q125 0 196 68t71 201q0 135 -63 199t-199 64h-172v154h172q87 0 140 29.5t76.5 85t23.5 133.5q0 125 -62 190t-183 65q-77 0 -134 -30.5t-88.5 -86t-31.5 -130.5h-189l-2 6
q-3 110 52.5 200t157 143t235.5 53q202 0 322 -107.5t120 -306.5q0 -90 -54.5 -179.5t-163.5 -136.5q131 -43 185.5 -135t54.5 -206q0 -133 -59.5 -228.5t-164.5 -147t-240 -51.5z" />
    <glyph glyph-name="four" unicode="4" horiz-adv-x="1187" 
d="M554 0v126l163 28v182h-654v111l642 1009h208v-966h201v-154h-201v-182l163 -28v-126h-522zM273 490h444v685l-6 2l-20 -53z" />
    <glyph glyph-name="five" unicode="5" horiz-adv-x="1081" 
d="M522 -21q-123 0 -220.5 45t-152.5 133.5t-52 219.5l2 6h178q0 -118 68.5 -184t176.5 -66q125 0 194 88t69 241q0 141 -69.5 230.5t-192.5 89.5q-116 0 -168.5 -35t-76.5 -107l-164 17l84 799h769v-288h-148l-19 113h-435l-47 -409q30 23 65 40.5t76.5 28.5t90.5 12
q134 1 231 -58.5t149 -170t52 -260.5q0 -146 -52.5 -255t-155 -169.5t-252.5 -60.5z" />
    <glyph glyph-name="six" unicode="6" horiz-adv-x="1144" 
d="M614 -21q-142 0 -253.5 69.5t-175.5 202.5t-64 322v196q0 231 69.5 388.5t192 238.5t281.5 81q74 0 147.5 -17t121.5 -43l-38 -147q-47 23 -103 37.5t-128 14.5q-153 0 -243.5 -115.5t-96.5 -348.5l4 -4q56 52 137 82.5t175 30.5q130 0 226 -61.5t148.5 -169.5t52.5 -246
q0 -151 -56 -266t-158 -180t-239 -65zM614 133q81 0 138 47t87.5 128t30.5 182q0 144 -72.5 237t-200.5 93q-67 0 -121.5 -18.5t-94 -52t-64.5 -78.5v-117q0 -203 84.5 -312t212.5 -109z" />
    <glyph glyph-name="seven" unicode="7" horiz-adv-x="1128" 
d="M357 0l16 157q28 230 91 425t163 371t240 348h-608l-15 -167h-168v322h984v-155q-132 -157 -218 -291.5t-138.5 -265t-82.5 -272.5t-51 -315l-16 -157h-197z" />
    <glyph glyph-name="eight" unicode="8" horiz-adv-x="1131" 
d="M566 -21q-143 0 -249.5 47.5t-165.5 140t-59 227.5q0 123 74 217t200 138q-109 42 -171 127.5t-62 199.5q0 128 54 217.5t151 136.5t226 47q128 0 226 -47t153.5 -136.5t55.5 -217.5q0 -114 -64 -199.5t-173 -127.5q126 -44 201.5 -138t75.5 -217q0 -135 -60 -227.5
t-166.5 -140t-246.5 -47.5zM566 133q82 0 144.5 32t97.5 91.5t35 141.5q0 80 -36 142t-99 97t-144 35t-143 -35t-97 -96.5t-35 -142.5q0 -124 75.5 -194.5t201.5 -70.5zM566 827q69 0 122.5 30.5t83.5 85.5t30 129q0 72 -31 128.5t-84.5 89t-122.5 32.5q-105 0 -169.5 -68.5
t-64.5 -181.5q0 -111 65 -178t171 -67z" />
    <glyph glyph-name="nine" unicode="9" horiz-adv-x="1154" 
d="M511 -21q-76 0 -155.5 14.5t-142.5 44.5l30 149q61 -29 124.5 -41.5t143.5 -12.5q142 0 224.5 108.5t85.5 349.5l-4 5q-40 -67 -112 -103t-162 -36q-142 0 -245 59t-158.5 171t-55.5 271q0 152 60.5 269t163 183.5t227.5 66.5q152 0 262 -63.5t169.5 -189t59.5 -311.5
v-263q0 -227 -64 -376t-179.5 -222t-271.5 -73zM543 612q109 0 181.5 47t104.5 120v154q0 193 -73.5 291t-214.5 98q-73 0 -132 -46.5t-93.5 -128.5t-34.5 -189q0 -105 31.5 -182.5t90.5 -120.5t140 -43z" />
    <glyph glyph-name="colon" unicode=":" horiz-adv-x="419" 
d="M145 0v202h197v-202h-197zM145 880v202h197v-202h-197z" />
    <glyph glyph-name="semicolon" unicode=";" horiz-adv-x="424" 
d="M146 880v202h197v-202h-197zM164 -311l-111 74q47 72 71 147t24 159v152h197v-149q0 -98 -49 -205t-132 -178z" />
    <glyph glyph-name="less" unicode="&#x3c;" horiz-adv-x="1017" 
d="M892 107l-816 379v149l816 378v-201l-559 -233l-85 -18v-6l85 -19l559 -228v-201z" />
    <glyph glyph-name="equal" unicode="=" horiz-adv-x="1127" 
d="M147 823v164h834v-164h-834zM147 407v164h834v-164h-834z" />
    <glyph glyph-name="greater" unicode="&#x3e;" horiz-adv-x="1060" 
d="M125 87v196l598 238l84 17v6l-84 20l-598 234v195l855 -378v-149z" />
    <glyph glyph-name="question" unicode="?" horiz-adv-x="953" 
d="M360 410q0 73 5 120t19.5 81t44.5 68t81 80q71 64 110.5 119t56 107t16.5 106q0 106 -56.5 163t-161.5 57q-91 0 -154.5 -49.5t-63.5 -145.5h-188l-3 6q-2 107 50.5 187t145.5 124t213 44q197 0 306 -100.5t109 -280.5q0 -86 -28.5 -156.5t-85.5 -141t-143 -157.5
q-35 -36 -51 -65.5t-20.5 -67t-4.5 -98.5h-197zM358 0v208h205v-208h-205z" />
    <glyph glyph-name="at" unicode="@" horiz-adv-x="1821" 
d="M863 -453q-253 0 -431.5 113t-268.5 321.5t-77 496.5q13 282 121 497t295 335.5t435 120.5q253 0 428.5 -113t262.5 -321.5t76 -494.5q-6 -143 -57 -261.5t-149.5 -190t-245.5 -71.5q-73 0 -126.5 41.5t-76.5 116.5q-99 -158 -289 -158q-125 0 -194 120.5t-51 316.5
q15 173 72.5 301.5t146 199.5t197.5 71q105 0 168.5 -26t140.5 -80l2 -4l-51 -585q-6 -73 6 -115.5t37.5 -60t59.5 -17.5q123 0 196.5 113.5t81.5 288.5q17 382 -143.5 595.5t-495.5 213.5q-206 0 -359 -105t-241 -293t-98 -435q-12 -251 60 -433t217.5 -281t354.5 -99
q88 0 178 21.5t152 56.5l39 -107q-68 -42 -171.5 -65.5t-201.5 -23.5zM820 126q63 0 116.5 25t97.5 88q-1 12 -0.5 25t2.5 29l47 538q-26 12 -54.5 19t-59.5 7q-125 0 -191 -109t-87 -332q-11 -141 22 -215.5t107 -74.5z" />
    <glyph glyph-name="A" unicode="A" horiz-adv-x="1533" 
d="M70 0v126l108 15l509 1315h169l500 -1315l107 -15v-126h-418v126l110 19l-96 268h-583l-99 -268l110 -19v-126h-417zM537 578h462l-214 592l-12 33h-6l-12 -33z" />
    <glyph glyph-name="B" unicode="B" horiz-adv-x="1322" 
d="M81 0v126l163 28v1147l-163 28v127h163h465q228 0 356.5 -98.5t128.5 -295.5q0 -97 -61.5 -173.5t-162.5 -113.5q88 -18 151 -70.5t97.5 -128t34.5 -165.5q0 -200 -130 -305.5t-352 -105.5h-690zM441 154h330q135 0 209.5 66.5t74.5 188.5q0 86 -27.5 147t-84 94
t-142.5 33h-360v-529zM441 837h319q106 0 171.5 61.5t65.5 167.5q0 118 -74 176.5t-214 58.5h-268v-464z" />
    <glyph glyph-name="C" unicode="C" horiz-adv-x="1290" 
d="M739 -21q-219 0 -365.5 96t-220 263t-73.5 379v21q0 214 77 380.5t221 262.5t344 96q141 0 258 -44t194 -112v-314h-157l-21 230q-32 25 -73.5 42t-92 26t-109.5 9q-143 0 -242 -73.5t-150 -202.5t-51 -298v-23q0 -183 54.5 -312.5t159 -197.5t254.5 -68q70 0 137 17
t111 44l22 203h154v-316q-82 -51 -196 -79.5t-235 -28.5z" />
    <glyph glyph-name="D" unicode="D" horiz-adv-x="1356" 
d="M81 0v126l163 28v1147l-163 28v127h163h407q193 0 336.5 -92t223.5 -253t80 -368v-31q0 -202 -77 -363.5t-218.5 -255t-334.5 -93.5h-580zM441 154h210q138 0 237 75.5t152.5 202t53.5 280.5v33q0 159 -53.5 284.5t-152.5 198.5t-237 73h-210v-1147z" />
    <glyph glyph-name="E" unicode="E" horiz-adv-x="1306" 
d="M81 0v126l163 28v1147l-163 28v127h1078v-350h-158l-22 198h-538v-474h537v-155h-537v-527h570l22 201h157v-349h-1109z" />
    <glyph glyph-name="F" unicode="F" horiz-adv-x="1256" 
d="M81 0v126l163 28v1147l-163 28v127h1095v-350h-158l-22 197h-555v-504h533v-155h-533v-490l163 -28v-126h-523z" />
    <glyph glyph-name="G" unicode="G" horiz-adv-x="1346" 
d="M738 -21q-202 0 -350 93.5t-228 259.5t-80 384v24q0 220 80.5 385.5t220.5 258.5t318 93q170 0 288.5 -39t202.5 -105v-294h-162l-21 211q-49 32 -120 48.5t-168 16.5q-125 0 -225 -72t-158 -200.5t-58 -300.5v-26q0 -174 53.5 -303.5t156.5 -201t250 -71.5
q100 0 169 17.5t122 45.5v342l-279 10v145h476v-564q-63 -59 -180.5 -108t-307.5 -49z" />
    <glyph glyph-name="H" unicode="H" horiz-adv-x="1578" 
d="M81 0v126l163 28v1147l-163 28v127h523v-127l-163 -28v-503h696v503l-163 28v127h163h197h163v-127l-163 -28v-1147l163 -28v-126h-523v126l163 28v489h-696v-489l163 -28v-126h-523z" />
    <glyph glyph-name="I" unicode="I" horiz-adv-x="685" 
d="M81 0v126l163 28v1147l-163 28v127h523v-127l-163 -28v-1147l163 -28v-126h-523z" />
    <glyph glyph-name="J" unicode="J" horiz-adv-x="1169" 
d="M503 -21q-121 0 -219.5 48t-158 145t-65.5 243l2 6h189q4 -147 67.5 -216t181.5 -69q83 0 136 35.5t78.5 98t25.5 143.5v888l-194 26v129h554v-127l-163 -28v-888q0 -130 -49.5 -228t-146 -152t-238.5 -54z" />
    <glyph glyph-name="K" unicode="K" horiz-adv-x="1501" 
d="M427 421l-105 122l691 767l4 5l-109 14v127h467v-127l-137 -25zM81 0v126l163 28v1147l-163 28v127h523v-127l-163 -28v-1147l163 -28v-126h-523zM941 0v126l120 14l-1 1l-403 559l110 155l526 -704l134 -25v-126h-486z" />
    <glyph glyph-name="L" unicode="L" horiz-adv-x="1210" 
d="M81 0v126l163 28v1147l-163 28v127h163h197h163v-127l-163 -28v-1150h515l23 230h151v-381h-1049z" />
    <glyph glyph-name="M" unicode="M" horiz-adv-x="1982" 
d="M94 0v126l163 28v1147l-163 28v127h163h263l469 -1105h6l454 1105h439v-127l-163 -28v-1147l163 -28v-126h-523v126l172 28v422v611l-5 1l-473 -1136h-131l-489 1134l-5 -1l7 -609v-422l176 -28v-126h-523z" />
    <glyph glyph-name="N" unicode="N" horiz-adv-x="1592" 
d="M83 0v126l163 28v1147l-163 28v127h163h199l714 -1135l6 2v978l-179 28v127h360h163v-127l-163 -28v-1301h-180l-733 1141l-6 -2v-985l179 -28v-126h-523z" />
    <glyph glyph-name="O" unicode="O" horiz-adv-x="1351" 
d="M675 -21q-141 0 -253 54t-190.5 152.5t-120 233.5t-41.5 298v21q0 162 41.5 297.5t120 234.5t190.5 153t253 54q149 0 262 -54t189.5 -153t115.5 -234.5t39 -297.5v-21q0 -163 -39 -298t-115.5 -233.5t-189.5 -152.5t-262 -54zM675 143q145 0 234.5 72t131.5 201.5
t42 300.5v23q0 170 -42.5 298.5t-132.5 201t-233 72.5q-131 0 -222 -73t-138 -201.5t-47 -297.5v-23q0 -170 47 -299.5t138 -202t222 -72.5z" />
    <glyph glyph-name="P" unicode="P" horiz-adv-x="1297" 
d="M81 0v126l163 28v1147l-163 28v127h163h506q156 0 266 -54.5t168 -152.5t58 -229q0 -132 -58 -230t-168 -152t-266 -54h-309v-430l163 -28v-126h-523zM441 738h309q148 0 221.5 79.5t73.5 200.5t-73.5 202t-221.5 81h-309v-563z" />
    <glyph glyph-name="Q" unicode="Q" horiz-adv-x="1376" 
d="M1237 -245l-352 258q-50 -16 -103 -25t-108 -9q-140 0 -252 54t-190.5 153t-120 234t-41.5 297v21q0 162 41.5 297t119.5 234.5t190 153.5t253 54q148 0 261 -54t189.5 -153.5t115.5 -234.5t39 -297v-21q0 -197 -47 -355.5t-176 -256.5l292 -203zM674 143q141 0 231 72
t133.5 201.5t43.5 300.5v23q0 170 -42.5 298.5t-132.5 201t-233 72.5q-130 0 -221 -73t-138.5 -201.5t-47.5 -297.5v-23q0 -170 46.5 -299.5t137.5 -202t223 -72.5z" />
    <glyph glyph-name="R" unicode="R" horiz-adv-x="1385" 
d="M81 0v126l163 28v1147l-163 28v126h649q159 0 268.5 -47.5t166.5 -137.5t57 -220q0 -128 -55.5 -215t-157.5 -131.5t-242 -47.5l-326 -6v-496l163 -28v-126h-523zM1042 0l-324 727l197 2l269 -582l101 -18v-129h-243zM441 805h269q165 0 240 63t75 184q0 115 -72 182
t-223 67h-289v-496z" />
    <glyph glyph-name="S" unicode="S" horiz-adv-x="1206" 
d="M606 -21q-133 0 -256 39t-235 120v311h153l33 -229q65 -40 141 -62t164 -22q100 0 169.5 30.5t106.5 84.5t37 126q0 67 -32 118t-105.5 89.5t-200.5 67.5q-150 35 -253.5 93.5t-157 142t-53.5 191.5q0 114 60.5 204t168.5 142t252 52q153 0 270.5 -46.5t193.5 -112.5
v-291h-153l-33 208q-45 36 -112 60t-166 24q-84 0 -148 -29.5t-100 -82.5t-36 -125q0 -63 32.5 -110t106 -82.5t196.5 -66.5q230 -57 348.5 -168.5t118.5 -275.5q0 -117 -63 -207.5t-177.5 -141.5t-269.5 -51z" />
    <glyph glyph-name="T" unicode="T" horiz-adv-x="1406" 
d="M440 0v126l163 28v1153h-330l-29 -202h-148v351h1210v-351h-146l-30 202h-330v-1153l163 -28v-126h-523z" />
    <glyph glyph-name="U" unicode="U" horiz-adv-x="1522" 
d="M755 -21q-150 0 -268 59t-186 168.5t-68 262.5v832l-163 28v127h523v-127l-163 -28v-832q0 -109 41.5 -183t115.5 -111.5t171 -37.5q98 0 173.5 37t118 111t42.5 184v832l-163 28v127h523v-127l-163 -28v-832q0 -158 -66.5 -267.5t-186.5 -166t-281 -56.5z" />
    <glyph glyph-name="V" unicode="V" horiz-adv-x="1508" 
d="M669 0l-488 1313l-116 16v127h460v-127l-133 -21l326 -926l34 -115h6l36 115l338 927l-148 20v127h459v-127l-117 -16l-488 -1313h-169z" />
    <glyph glyph-name="W" unicode="W" horiz-adv-x="2129" 
d="M535 0l-340 1314l-123 15v127h472v-127l-151 -23l190 -801l44 -187l6 -1l58 187l293 952h173l296 -952l57 -198h6l52 198l188 802l-163 23v127h464v-127l-115 -15l-326 -1314h-187l-316 1008l-40 147h-6l-39 -147l-317 -1008h-176z" />
    <glyph glyph-name="X" unicode="X" horiz-adv-x="1529" 
d="M80 0v126l126 22l451 591l-418 568l-127 22v127h472v-127l-137 -13l322 -449l306 449l-140 13v127h475v-127l-133 -22l-395 -568l438 -591l129 -22v-126h-478v126l141 13l-345 473l-344 -473l133 -13v-126h-476z" />
    <glyph glyph-name="Y" unicode="Y" horiz-adv-x="1461" 
d="M470 0v126l163 28v376l-448 780l-120 19v127h502v-127l-166 -19l309 -572l21 -39l1 2l20 37l324 572l-172 19v127h492v-127l-127 -19l-440 -765v-391l163 -28v-126h-522z" />
    <glyph glyph-name="Z" unicode="Z" horiz-adv-x="1197" 
d="M90 0v149l757 1153h-566l-18 -188h-158v342h969v-145l-761 -1158h619l18 207h157v-360h-1017z" />
    <glyph glyph-name="bracketleft" unicode="[" horiz-adv-x="573" 
d="M157 -312v1976h384v-155h-187v-1666h187v-155h-384z" />
    <glyph glyph-name="backslash" unicode="\" horiz-adv-x="841" 
d="M644 -125l-608 1581h186l608 -1581h-186z" />
    <glyph glyph-name="bracketright" unicode="]" horiz-adv-x="552" 
d="M23 -312v155h188v1666h-188v155h385v-1976h-385z" />
    <glyph glyph-name="asciicircum" unicode="^" horiz-adv-x="864" 
d="M71 729l299 727h134l298 -727h-182l-166 419l-16 70h-6l-16 -70l-163 -419h-182z" />
    <glyph glyph-name="underscore" unicode="_" horiz-adv-x="1168" 
d="M119 -154v154h922v-154h-922z" />
    <glyph glyph-name="grave" unicode="`" horiz-adv-x="496" 
d="M456 1288h-9h-138l-269 266l2 6h230z" />
    <glyph glyph-name="a" unicode="a" horiz-adv-x="1132" 
d="M424 -21q-169 0 -257 82.5t-88 232.5q0 103 56.5 179.5t163.5 119t256 42.5h193v106q0 98 -59.5 152t-167.5 54q-68 0 -118 -16.5t-91 -45.5l-21 -151h-152v248q73 59 170 89.5t215 30.5q197 0 309 -94t112 -269v-521q0 -21 0.5 -41t2.5 -40l105 -11v-126h-283
q-9 44 -14 79t-7 70q-57 -73 -142.5 -121.5t-182.5 -48.5zM453 144q98 0 179 47t116 113v196h-200q-136 0 -204 -65t-68 -145q0 -71 44 -108.5t133 -37.5z" />
    <glyph glyph-name="b" unicode="b" horiz-adv-x="1145" 
d="M649 -21q-106 0 -184 40.5t-130 119.5l-18 -139h-170v1405l-163 28v127h360v-606q51 72 126.5 110t176.5 38q134 0 228.5 -72.5t145 -203.5t50.5 -305v-21q0 -156 -50.5 -273t-145 -182.5t-226.5 -65.5zM599 139q139 0 206.5 99t67.5 262v21q0 125 -30 219.5t-91 148
t-155 53.5q-91 0 -153.5 -44t-99.5 -118v-478q37 -75 100.5 -119t154.5 -44z" />
    <glyph glyph-name="c" unicode="c" horiz-adv-x="1067" 
d="M563 -21q-147 0 -256 68.5t-169 190.5t-60 282v42q0 154 58 276t167 193t260 71q131 0 229.5 -43t165.5 -118l5 -260h-154l-34 189q-34 35 -85 56t-120 21q-88 0 -154.5 -52t-103.5 -139t-37 -194v-42q0 -118 34.5 -205t99 -134.5t153.5 -47.5q100 0 166 55t81 151h177
l2 -6q-5 -93 -55 -174t-142.5 -130.5t-227.5 -49.5z" />
    <glyph glyph-name="d" unicode="d" horiz-adv-x="1218" 
d="M499 -21q-132 0 -226.5 65.5t-144.5 182.5t-50 273v21q0 174 50 305t145 203.5t228 72.5q96 0 169.5 -35.5t125.5 -102.5v441l-163 28v127h163h197v-1406l163 -28v-126h-334l-16 129q-53 -74 -129.5 -112t-177.5 -38zM549 139q88 0 148 40t99 113v502q-38 68 -99 108
t-146 40q-94 0 -155 -53.5t-91 -148t-30 -219.5v-21q0 -163 67 -262t207 -99z" />
    <glyph glyph-name="e" unicode="e" horiz-adv-x="1059" 
d="M567 -21q-150 0 -261 68.5t-171.5 190.5t-60.5 282v44q0 154 63.5 275.5t169 192t230.5 70.5q146 0 244.5 -60t148.5 -168.5t50 -255.5v-123h-702l-3 -5q2 -104 36.5 -184.5t99.5 -126.5t156 -46q100 0 175.5 28.5t130.5 78.5l77 -128q-58 -56 -153.5 -94.5t-229.5 -38.5
zM284 649h499v26q0 78 -27.5 139.5t-82 97t-136.5 35.5q-66 0 -120 -38.5t-89 -104.5t-46 -150z" />
    <glyph glyph-name="f" unicode="f" horiz-adv-x="725" 
d="M70 0v126l163 28v782h-169v146h169v137q0 173 90.5 267.5t252.5 94.5q34 0 73.5 -5.5t81.5 -15.5l-24 -150q-18 4 -48.5 7t-57.5 3q-87 0 -129 -51.5t-42 -149.5v-137h236v-146h-236v-782l186 -28v-126h-546z" />
    <glyph glyph-name="g" unicode="g" horiz-adv-x="1157" 
d="M549 -437q-78 0 -169 21.5t-160 58.5l51 153q55 -29 130 -48t146 -19q132 0 193.5 74t61.5 211v103q-53 -68 -127 -103t-170 -35q-132 0 -228 65.5t-147.5 183t-51.5 272.5v21q0 174 51.5 305t147.5 203.5t230 72.5q102 0 179 -40t129 -116l18 136h166v-1068
q0 -140 -52.5 -241t-153 -155.5t-244.5 -54.5zM554 139q89 0 149 40.5t99 114.5v498q-38 69 -99 109.5t-147 40.5q-94 0 -156.5 -54t-93.5 -148.5t-31 -218.5v-21q0 -163 69 -262t210 -99zM969 921l-77 161h241v-126z" />
    <glyph glyph-name="h" unicode="h" horiz-adv-x="1315" 
d="M49 0v126l163 28v1251l-163 28v127h360v-622q56 78 137 121t180 43q174 0 270 -104t96 -320v-524l163 -28v-126h-523v126l163 28v526q0 134 -57.5 198t-171.5 64q-81 0 -147.5 -38.5t-109.5 -104.5v-645l163 -28v-126h-523z" />
    <glyph glyph-name="i" unicode="i" horiz-adv-x="652" 
d="M67 0v126l163 28v773l-163 28v127h360v-928l163 -28v-126h-523zM220 1349v211h207v-211h-207z" />
    <glyph glyph-name="j" unicode="j" horiz-adv-x="525" 
d="M56 -437q-32 0 -58 4.5t-54 13.5l13 150q14 -5 47.5 -9t51.5 -4q59 0 93.5 51.5t34.5 141.5v1016l-163 28v127h360v-1171q0 -167 -86 -257.5t-239 -90.5zM174 1349v211h207v-211h-207z" />
    <glyph glyph-name="k" unicode="k" horiz-adv-x="1287" 
d="M64 0v126l163 28v1251l-163 28v127h360v-1406l163 -28v-126h-523zM759 0v126l110 13l-3 4l-313 404l102 157l437 -554l156 -24v-126h-489zM410 313l-73 155l470 468l5 6l-116 13v127h466v-127l-139 -26z" />
    <glyph glyph-name="l" unicode="l" horiz-adv-x="653" 
d="M64 0v126l163 28v1251l-163 28v127h360v-1406l163 -28v-126h-523z" />
    <glyph glyph-name="m" unicode="m" horiz-adv-x="1977" 
d="M74 0v126l163 28v773l-163 28v127h340l13 -141q52 77 134 119t190 42t185.5 -50t116.5 -150q51 92 135 146t196 54q166 0 262 -113.5t96 -341.5v-493l163 -28v-126h-524v126l163 28v495q0 160 -55 226.5t-163 66.5q-103 0 -165.5 -72.5t-72.5 -182.5v-533l163 -28v-126
h-523v126l163 28v495q0 152 -56.5 222.5t-163.5 70.5q-90 0 -148 -37t-89 -104v-647l163 -28v-126h-523z" />
    <glyph glyph-name="n" unicode="n" horiz-adv-x="1343" 
d="M74 0v126l163 28v773l-163 28v127h339l14 -161q54 86 135.5 133.5t185.5 47.5q175 0 271 -102.5t96 -316.5v-529l163 -28v-126h-523v126l163 28v525q0 143 -56.5 203t-172.5 60q-85 0 -150.5 -41t-104.5 -112v-635l163 -28v-126h-523z" />
    <glyph glyph-name="o" unicode="o" horiz-adv-x="1124" 
d="M563 -21q-150 0 -258.5 70.5t-167.5 195t-59 284.5v22q0 160 59 284.5t167.5 195.5t256.5 71q150 0 258.5 -71t167.5 -195t59 -285v-22q0 -161 -59 -285.5t-167 -194.5t-257 -70zM563 133q94 0 157.5 51.5t96 141t32.5 203.5v22q0 114 -32.5 203.5t-96.5 141t-159 51.5
q-94 0 -158 -51.5t-96 -141t-32 -203.5v-22q0 -114 32 -203.5t96.5 -141t159.5 -51.5z" />
    <glyph glyph-name="p" unicode="p" horiz-adv-x="1197" 
d="M44 -416v127l153 28v1188l-163 28v127h332l18 -132q54 74 131.5 113t179.5 39q134 0 229 -72.5t145 -203t50 -305.5v-21q0 -156 -50.5 -273t-144.5 -182.5t-226 -65.5q-100 0 -175.5 33.5t-128.5 99.5v-373l172 -28v-127h-522zM637 133q140 0 212 102t72 265v21
q0 124 -32 218.5t-95.5 148.5t-158.5 54q-84 0 -144 -38t-97 -104v-527q37 -67 96.5 -103.5t146.5 -36.5z" />
    <glyph glyph-name="q" unicode="q" horiz-adv-x="1139" 
d="M622 -416v127l163 28v363q-52 -61 -123.5 -92t-162.5 -31q-132 0 -226.5 65.5t-144.5 182.5t-50 273v21q0 174 50 305t145 203.5t228 72.5q95 0 169 -35.5t126 -103.5l16 119h170v-1343l153 -28v-127h-513zM549 133q82 0 139.5 36t96.5 102v543q-39 61 -97 97t-137 36
q-94 0 -155 -54.5t-91 -150.5t-30 -221v-21q0 -164 67 -265.5t207 -101.5z" />
    <glyph glyph-name="r" unicode="r" horiz-adv-x="854" 
d="M72 0v126l163 28v773l-163 28v127h339l17 -138l2 -19q46 83 113.5 130t154.5 47q31 0 63.5 -5.5t46.5 -10.5l-26 -183l-137 8q-78 5 -131 -35.5t-82 -108.5v-613l163 -28v-126h-523z" />
    <glyph glyph-name="s" unicode="s" horiz-adv-x="1022" 
d="M512 -21q-109 0 -204 22t-202 68l-2 257h149l37 -155q56 -23 108.5 -33.5t113.5 -10.5q120 0 172 46t52 114q0 64 -52.5 108.5t-190.5 75.5q-196 45 -288.5 120.5t-92.5 201.5q0 88 51 157.5t142 110.5t212 41q123 0 210.5 -28t152.5 -75l10 -247h-148l-32 144
q-35 26 -83 40t-110 14q-92 0 -149.5 -43t-57.5 -108q0 -38 16.5 -66t63.5 -50.5t138 -44.5q226 -53 315.5 -135t89.5 -202q0 -137 -101.5 -229.5t-319.5 -92.5z" />
    <glyph glyph-name="t" unicode="t" horiz-adv-x="730" 
d="M456 -17q-120 0 -190.5 70.5t-70.5 225.5v657h-171v146h171v261h197v-261h235v-146h-235v-657q0 -78 31 -115t83 -37q35 0 78 6.5t67 11.5l27 -129q-43 -13 -105.5 -23t-116.5 -10z" />
    <glyph glyph-name="u" unicode="u" horiz-adv-x="1245" 
d="M550 -21q-176 0 -275 113t-99 352v483l-124 28v127h124h197v-640q0 -173 51 -238t159 -65q105 0 173.5 42.5t103.5 120.5v625l-145 28v127h145h197v-928l124 -28v-126h-301l-13 160q-51 -87 -131.5 -134t-185.5 -47z" />
    <glyph glyph-name="v" unicode="v" horiz-adv-x="1206" 
d="M523 0l-385 940l-112 15v127h454v-127l-141 -20l240 -616l28 -87h6l32 87l223 616l-145 20v127h453v-127l-114 -15l-366 -940h-173z" />
    <glyph glyph-name="w" unicode="w" horiz-adv-x="1823" 
d="M458 0l-285 941l-121 14v127h447v-127l-133 -22l149 -539l34 -128h6l44 128l235 688h166l224 -686l48 -152h6l47 152l151 538l-136 21v127h437v-127l-120 -17l-280 -938h-187l-219 650l-52 174l-6 -1l-51 -173l-235 -650h-169z" />
    <glyph glyph-name="x" unicode="x" horiz-adv-x="1203" 
d="M42 0v126l120 23l323 398l-316 385l-107 23v127h424v-127l-108 -12l222 -276l216 277l-116 11v127h417v-127l-110 -23l-293 -382l337 -401l112 -23v-126h-459v126l130 11l-237 289l-230 -289l117 -11v-126h-442z" />
    <glyph glyph-name="y" unicode="y" horiz-adv-x="1192" 
d="M309 -437q-23 0 -60 5.5t-57 10.5l20 155q17 -2 47 -3.5t41 -1.5q63 0 102.5 48t73.5 131l47 114l-383 917l-116 16v127h454v-127l-131 -20l211 -541l51 -141h6l250 682l-138 20v127h445v-127l-112 -16l-426 -1105q-30 -78 -72.5 -139.5t-104 -96.5t-148.5 -35z" />
    <glyph glyph-name="z" unicode="z" horiz-adv-x="1032" 
d="M88 0v138l589 792h-403l-25 -182h-148v334h820v-134l-595 -798h461l26 183h147v-333h-872z" />
    <glyph glyph-name="braceleft" unicode="{" horiz-adv-x="701" 
d="M631 -364q-195 55 -277.5 175t-82.5 290v205q0 112 -51 174.5t-157 62.5v147q106 0 157 61.5t51 174.5v206q0 171 82.5 290.5t277.5 174.5l40 -117q-110 -35 -156.5 -125.5t-46.5 -222.5v-206q0 -105 -42 -185t-127 -125q85 -46 127 -126.5t42 -183.5v-205
q0 -132 46.5 -221.5t156.5 -125.5z" />
    <glyph glyph-name="bar" unicode="|" horiz-adv-x="451" 
d="M150 -270v1726h157v-1726h-157z" />
    <glyph glyph-name="braceright" unicode="}" horiz-adv-x="701" 
d="M67 -364l-40 118q108 36 155 125.5t47 221.5v205q0 107 45 187t139 123q-94 41 -139 121t-45 189v206q0 132 -47 222.5t-155 125.5l40 117q194 -55 276.5 -174.5t82.5 -290.5v-206q0 -113 51 -174.5t158 -61.5v-147q-107 0 -158 -62.5t-51 -174.5v-205q0 -170 -82.5 -290
t-276.5 -175z" />
    <glyph glyph-name="asciitilde" unicode="~" horiz-adv-x="1386" 
d="M952 401q-89 0 -162.5 33t-158.5 107q-60 48 -109 72t-98 24q-67 0 -114.5 -53t-47.5 -128l-141 18q0 91 39 165.5t107.5 119t156.5 44.5t163 -34.5t160 -104.5q59 -51 106.5 -74t98.5 -23q66 0 114.5 57t48.5 134l142 -18q0 -91 -40 -168.5t-109 -124t-156 -46.5z" />
    <glyph glyph-name="uni00A0" unicode="&#xa0;" horiz-adv-x="509" 
 />
    <glyph glyph-name="exclamdown" unicode="&#xa1;" horiz-adv-x="483" 
d="M143 604v-978h197v978h-197zM143 1082v-204h197v204h-197z" />
    <glyph glyph-name="cent" unicode="&#xa2;" horiz-adv-x="1118" 
d="M467 -245v237q-119 25 -199.5 99.5t-122 185t-41.5 243.5v42q0 131 41.5 241t122 184.5t199.5 101.5v229h197v-220q104 -12 188 -52.5t142 -104.5l9 -240h-157l-43 170q-35 34 -90 55t-124 21q-103 0 -166.5 -51t-92.5 -138.5t-29 -195.5v-42q0 -111 28.5 -198.5t92 -138
t167.5 -50.5q65 0 121.5 28t91 75t34.5 106h178l2 -6q3 -82 -44 -156t-128 -126.5t-180 -68.5v-230h-197z" />
    <glyph glyph-name="sterling" unicode="&#xa3;" horiz-adv-x="1179" 
d="M132 0v154h10q31 9 52.5 57.5t32 117t10.5 137.5l-6 149h-163v155h157l-10 270q0 204 112 320.5t300 116.5q200 0 310 -104.5t106 -276.5l-2 -6h-189q0 118 -63.5 175t-161.5 57q-99 0 -157 -74.5t-58 -207.5l10 -270h419v-155h-414l6 -149q0 -90 -15.5 -171.5
t-44.5 -140.5h551l16 167h167v-321h-975z" />
    <glyph glyph-name="currency" unicode="&#xa4;" horiz-adv-x="1461" 
d="M1220 -27l-133 135q-77 -62 -169.5 -95t-193.5 -33t-193 32.5t-169 94.5l-130 -133l-138 138l138 140q-50 76 -76.5 166.5t-26.5 189.5q0 102 28.5 196t82.5 172l-146 149l138 139l143 -146q74 55 163.5 85.5t185.5 30.5q97 0 186 -31t164 -87l146 149l140 -140
l-150 -153q52 -78 80.5 -170.5t28.5 -193.5q0 -98 -26.5 -187.5t-74.5 -165.5l142 -143zM724 155q85 0 159.5 35t131 97.5t88.5 144.5t32 176q0 93 -32 174.5t-88.5 143.5t-131 97t-159.5 35q-86 0 -161 -35t-131.5 -97t-88.5 -143.5t-32 -174.5q0 -94 32 -176t88.5 -144.5
t131.5 -97.5t161 -35z" />
    <glyph glyph-name="yen" unicode="&#xa5;" horiz-adv-x="1386" 
d="M432 0v126l163 28v172h-375v122h375v167h-375v123h311l-333 570l-139 21v127h442v-127l-87 -15l261 -480l22 -41l4 7l18 34l261 480l-86 15v127h441v-127l-139 -20l-333 -571h312v-123h-383v-167h383v-122h-383v-172l163 -28v-126h-523z" />
    <glyph glyph-name="brokenbar" unicode="&#xa6;" horiz-adv-x="496" 
d="M150 -270v792h197v-792h-197zM150 698v758h197v-758h-197z" />
    <glyph glyph-name="section" unicode="&#xa7;" horiz-adv-x="1233" 
d="M609 -495q-148 0 -266.5 45t-186.5 139t-65 241l2 6l188 2q0 -95 44.5 -156.5t119 -91.5t164.5 -30q136 0 215 59.5t79 150.5q0 61 -30.5 102t-106 76t-211.5 77q-159 42 -262 96t-153 133t-50 197q0 91 46.5 161.5t133.5 111.5q-68 50 -101.5 119.5t-33.5 166.5
q0 111 60.5 193.5t171 128t260.5 45.5q232 0 362.5 -111.5t126.5 -313.5l-3 -6h-188q0 79 -36 141.5t-102.5 98.5t-159.5 36q-146 0 -220.5 -59.5t-74.5 -150.5q0 -66 27.5 -108.5t102 -75.5t215.5 -72q163 -46 266 -100t152 -131t49 -194q0 -94 -48 -164t-136 -110
q70 -51 105 -119t35 -166q0 -172 -133 -269.5t-358 -97.5zM795 240q73 20 113 70t40 118q0 61 -31 103.5t-107 79t-211 78.5q-48 12 -89.5 25t-77.5 27q-73 -19 -109 -69t-36 -119q0 -67 28 -110.5t102.5 -78t215.5 -73.5q52 -16 90 -27.5t72 -23.5z" />
    <glyph glyph-name="dieresis" unicode="&#xa8;" horiz-adv-x="710" 
d="M463 1349v211h207v-211h-207zM40 1349v211h207v-211h-207z" />
    <glyph glyph-name="copyright" unicode="&#xa9;" horiz-adv-x="1595" 
d="M802 -21q-148 0 -277 57.5t-226 159.5t-152 238.5t-55 294.5t55 293.5t152 237.5t226 159t277 57q147 0 276 -57t226 -159t152 -237.5t55 -293.5t-55 -294.5t-152.5 -238.5t-226 -159.5t-275.5 -57.5zM802 100q122 0 228.5 48t187.5 134t126.5 200.5t45.5 246.5
t-45.5 245.5t-126.5 198.5t-187.5 133t-228.5 48q-123 0 -230 -47.5t-188 -133t-126.5 -199t-45.5 -245.5t45.5 -246.5t126.5 -200.5t188 -134t230 -48zM788 282q-160 0 -254.5 106t-94.5 281v119q0 173 94.5 280t254.5 107q157 0 245 -79t84 -228l-2 -6h-146
q0 95 -45.5 138.5t-135.5 43.5q-95 0 -146 -70.5t-51 -184.5v-120q0 -117 51 -187t146 -70q90 0 135 43t45 141h146l2 -6q4 -151 -83.5 -229.5t-244.5 -78.5z" />
    <glyph glyph-name="ordfeminine" unicode="&#xaa;" horiz-adv-x="894" 
d="M355 692q-119 0 -184 61t-65 167q0 110 84 170t246 60h138v52q0 63 -29.5 97t-87.5 34q-67 0 -103.5 -27t-36.5 -76l-163 13l-1 6q-6 98 79 163t225 65q133 0 211.5 -71t78.5 -205v-314q0 -51 6 -95t20 -86h-175q-8 21 -13 45t-8 50q-33 -47 -89 -78t-133 -31zM397 831
q34 0 70.5 14t65.5 35.5t41 45.5v110h-137q-75 0 -117 -33t-42 -79q0 -45 29.5 -69t89.5 -24z" />
    <glyph glyph-name="guillemotleft" unicode="&#xab;" horiz-adv-x="935" 
d="M353 117l-295 389v19l295 389h148l-255 -399l255 -398h-148zM687 117l-295 389v19l295 389h148l-255 -399l255 -398h-148z" />
    <glyph glyph-name="logicalnot" unicode="&#xac;" horiz-adv-x="1122" 
d="M758 375v262h-637v165h834v-427h-197z" />
    <glyph glyph-name="uni00AD" unicode="&#xad;" horiz-adv-x="797" 
d="M154 538v154h489v-154h-489z" />
    <glyph glyph-name="registered" unicode="&#xae;" horiz-adv-x="1595" 
d="M802 -21q-148 0 -277 57.5t-226 159.5t-152 238.5t-55 294.5t55 293.5t152 237.5t226 159t277 57q147 0 276 -57t226 -159t152 -237.5t55 -293.5t-55 -294.5t-152.5 -238.5t-226 -159.5t-275.5 -57.5zM802 100q122 0 228.5 48t187.5 134t126.5 200.5t45.5 246.5
t-45.5 245.5t-126.5 198.5t-187.5 133t-228.5 48q-123 0 -230 -47.5t-188 -133t-126.5 -199t-45.5 -245.5t45.5 -246.5t126.5 -200.5t188 -134t230 -48zM508 316v850h280q152 0 238 -65.5t86 -191.5q0 -61 -33 -108.5t-95 -78.5q66 -26 95.5 -79t29.5 -128v-56
q0 -41 3.5 -73.5t13.5 -53.5v-16h-153q-9 21 -11 61.5t-2 82.5v54q0 72 -33.5 106t-110.5 34h-159v-338h-149zM657 784h152q65 1 110 32.5t45 87.5q0 73 -39 102.5t-137 29.5h-131v-252z" />
    <glyph glyph-name="macron" unicode="&#xaf;" horiz-adv-x="801" 
d="M40 1350v146h721v-146h-721z" />
    <glyph glyph-name="degree" unicode="&#xb0;" horiz-adv-x="757" 
d="M380 959q-71 0 -129 34.5t-92.5 92.5t-34.5 130q0 71 35 130t93 95t128 36q69 0 126.5 -36t92 -95t34.5 -130q0 -72 -34.5 -130t-92 -92.5t-126.5 -34.5zM380 1089q52 0 87.5 36t35.5 91t-35.5 92.5t-87.5 37.5q-53 0 -89.5 -37.5t-36.5 -92.5t36.5 -91t89.5 -36z" />
    <glyph glyph-name="plusminus" unicode="&#xb1;" horiz-adv-x="1057" 
d="M455 289v413h-380v154h380v411h178v-411h358v-154h-358v-413h-178zM124 5v155h835v-155h-835z" />
    <glyph glyph-name="uni00B2" unicode="&#xb2;" horiz-adv-x="827" 
d="M714 667v130h-361l-2 6l153 135q77 70 122 116t64 87t19 94q0 116 -76 180t-211 64q-94 0 -163.5 -32t-106.5 -86.5t-33 -120.5l2 -6h161q0 50 36.5 82t103.5 32q58 0 86 -31t28 -81q0 -43 -21.5 -80.5t-90.5 -96.5l-302 -262v-130h592z" />
    <glyph glyph-name="uni00B3" unicode="&#xb3;" horiz-adv-x="845" 
d="M424 1137h-133v-126h133q73 0 109 -28t36 -91q0 -48 -41.5 -77.5t-113.5 -29.5q-64 0 -101.5 28.5t-37.5 74.5h-163l-1 -6q-4 -74 37 -124.5t111 -76.5t155 -26q146 0 236 62t90 173q0 138 -146 187q62 26 97.5 71.5t35.5 100.5q0 110 -84 169.5t-229 59.5
q-127 0 -211.5 -59.5t-78.5 -153.5l2 -6h162q0 40 35 64t91 24q69 0 105 -28.5t36 -72.5q0 -109 -131 -109z" />
    <glyph glyph-name="acute" unicode="&#xb4;" horiz-adv-x="496" 
d="M40 1288l184 272h230l2 -6l-269 -266h-138h-9z" />
    <glyph glyph-name="uni00B5" unicode="&#xb5;" horiz-adv-x="1315" 
d="M229 -416v1343l-163 28v127h163h196v-622q0 -189 55 -258t157 -69q99 0 160 36.5t92 107.5v650l-163 28v127h360v-928l163 -28v-126h-340l-9 109q-44 -64 -108 -97t-147 -33q-72 0 -126 16.5t-94 51.5v-463h-196z" />
    <glyph glyph-name="paragraph" unicode="&#xb6;" horiz-adv-x="1090" 
d="M490 0v126l163 28v366h-83q-156 0 -266 59t-168 164.5t-58 244.5q0 138 58.5 243.5t168.5 165t265 59.5h443v-127l-163 -28v-1147l163 -28v-126h-523z" />
    <glyph glyph-name="periodcentered" unicode="&#xb7;" horiz-adv-x="516" 
d="M160 630v202h197v-202h-197z" />
    <glyph glyph-name="cedilla" unicode="&#xb8;" horiz-adv-x="470" 
d="M48 -435l-7 109q72 0 115.5 24t43.5 71t-36 65t-124 25l40 173h141l-20 -90q66 -11 109 -51t43 -119q0 -94 -79 -150.5t-226 -56.5z" />
    <glyph glyph-name="uni00B9" unicode="&#xb9;" horiz-adv-x="547" 
d="M396 665v812l-301 -23v-134h127v-655h174z" />
    <glyph glyph-name="ordmasculine" unicode="&#xba;" horiz-adv-x="941" 
d="M468 691q-159 0 -253 92.5t-94 241.5v117q0 148 93.5 241.5t251.5 93.5t252 -93.5t94 -241.5v-117q0 -149 -93.5 -241.5t-250.5 -92.5zM468 832q83 0 127 53t44 140v117q0 84 -44.5 137.5t-128.5 53.5t-128.5 -53.5t-44.5 -137.5v-117q0 -88 44 -140.5t131 -52.5z" />
    <glyph glyph-name="guillemotright" unicode="&#xbb;" horiz-adv-x="938" 
d="M105 152l254 398l-254 399h148l295 -389v-19l-295 -389h-148zM450 152l254 398l-254 399h148l295 -389v-19l-295 -389h-148z" />
    <glyph glyph-name="onequarter" unicode="&#xbc;" horiz-adv-x="1443" 
d="M310 664v655h-127v134l301 23v-812h-174zM430 118l-109 67l711 1138l109 -67zM1210 0v152h-417l-8 102l421 547h174v-519h126v-130h-126v-152h-170zM967 282h243v310l-6 1l-13 -22z" />
    <glyph glyph-name="onehalf" unicode="&#xbd;" horiz-adv-x="1480" 
d="M443 118l-109 67l711 1138l109 -67zM310 664v655h-127v134l301 23v-812h-174zM932 0v130l302 262q69 59 90.5 96.5t21.5 80.5q0 50 -28 81t-86 31q-67 0 -103.5 -32t-36.5 -82h-161l-2 6q-4 66 33 120t106.5 86.5t163.5 32.5q135 0 211 -64t76 -180q0 -53 -19 -94
t-64 -87t-122 -116l-153 -135l2 -6h361v-130h-592z" />
    <glyph glyph-name="threequarters" unicode="&#xbe;" horiz-adv-x="1690" 
d="M614 118l-109 67l711 1138l109 -67zM1399 0v152h-417l-8 102l421 547h174v-519h126v-130h-126v-152h-170zM1156 282h243v310l-6 1l-13 -22zM430 656q-85 0 -155 26t-111 76.5t-37 124.5l1 6h163q0 -46 37.5 -74.5t101.5 -28.5q72 0 113.5 29.5t41.5 77.5q0 63 -36 91
t-109 28h-133v126h133q131 0 131 109q0 44 -36 72.5t-105 28.5q-56 0 -91 -24t-35 -64h-162l-2 6q-6 94 78.5 153.5t211.5 59.5q145 0 229 -59.5t84 -169.5q0 -55 -35.5 -100.5t-97.5 -71.5q146 -49 146 -187q0 -111 -90 -173t-236 -62z" />
    <glyph glyph-name="questiondown" unicode="&#xbf;" horiz-adv-x="890" 
d="M588 673q0 -73 -5 -120t-19.5 -81t-44.5 -68t-81 -80q-71 -64 -110.5 -119t-56 -107t-16.5 -106q0 -106 56.5 -163t161.5 -57q91 0 154.5 49.5t63.5 145.5h188l3 -6q2 -107 -50.5 -187t-145.5 -124t-213 -44q-197 0 -306 100.5t-109 280.5q0 86 28.5 156.5t85.5 141
t143 157.5q35 36 51 65.5t20.5 67t4.5 98.5h197zM590 1083v-208h-205v208h205z" />
    <glyph glyph-name="Agrave" unicode="&#xc0;" horiz-adv-x="1533" 
d="M70 0v126l108 15l509 1315h169l500 -1315l107 -15v-126h-418v126l110 19l-96 268h-583l-99 -268l110 -19v-126h-417zM537 578h462l-214 592l-12 33h-6l-12 -33zM891 1582h-9h-138l-269 266l2 6h230z" />
    <glyph glyph-name="Aacute" unicode="&#xc1;" horiz-adv-x="1533" 
d="M70 0v126l108 15l509 1315h169l500 -1315l107 -15v-126h-418v126l110 19l-96 268h-583l-99 -268l110 -19v-126h-417zM537 578h462l-214 592l-12 33h-6l-12 -33zM649 1582l184 272h230l2 -6l-269 -266h-138h-9z" />
    <glyph glyph-name="Acircumflex" unicode="&#xc2;" horiz-adv-x="1533" 
d="M70 0v126l108 15l509 1315h169l500 -1315l107 -15v-126h-418v126l110 19l-96 268h-583l-99 -268l110 -19v-126h-417zM537 578h462l-214 592l-12 33h-6l-12 -33zM463 1591v26l246 237h119l248 -238v-25h-161l-147 148l-145 -148h-160z" />
    <glyph glyph-name="Atilde" unicode="&#xc3;" horiz-adv-x="1533" 
d="M70 0v126l108 15l509 1315h169l500 -1315l107 -15v-126h-418v126l110 19l-96 268h-583l-99 -268l110 -19v-126h-417zM537 578h462l-214 592l-12 33h-6l-12 -33zM530 1599l-107 22q0 64 28 117t75 85.5t105 32.5q45 0 96 -25t98.5 -50t81.5 -25q41 0 71 32.5t30 80.5
l108 -28q0 -64 -28 -116t-75.5 -82.5t-105.5 -30.5q-49 0 -100 24.5t-96.5 49.5t-79.5 25q-42 0 -71.5 -32.5t-29.5 -79.5z" />
    <glyph glyph-name="Adieresis" unicode="&#xc4;" horiz-adv-x="1533" 
d="M70 0v126l108 15l509 1315h169l500 -1315l107 -15v-126h-418v126l110 19l-96 268h-583l-99 -268l110 -19v-126h-417zM537 578h462l-214 592l-12 33h-6l-12 -33zM878 1643v211h207v-211h-207zM455 1643v211h207v-211h-207z" />
    <glyph glyph-name="Aring" unicode="&#xc5;" horiz-adv-x="1533" 
d="M70 0v126l108 15l509 1315h169l500 -1315l107 -15v-126h-418v126l110 19l-96 268h-583l-99 -268l110 -19v-126h-417zM537 578h462l-214 592l-12 33h-6l-12 -33zM771 1519q-87 0 -147.5 54t-60.5 140q0 84 60.5 141t147.5 57q85 0 145 -56.5t60 -141.5q0 -86 -60 -140
t-145 -54zM771 1609q42 0 72 29.5t30 74.5t-30 76t-72 31q-44 0 -74.5 -31t-30.5 -76q0 -43 31 -73.5t74 -30.5z" />
    <glyph glyph-name="AE" unicode="&#xc6;" horiz-adv-x="2096" 
d="M51 0v126l141 20l793 1310h967v-322h-168l-15 167h-508l20 -466h590v-155h-584l22 -526h522l16 167h167v-321h-1058v126l156 27l-8 197h-556l-121 -210l82 -14v-126h-458zM651 529h446l-31 710l-5 2l-8 -14z" />
    <glyph glyph-name="Ccedilla" unicode="&#xc7;" horiz-adv-x="1290" 
d="M739 -21q-219 0 -365.5 96t-220 263t-73.5 379v21q0 214 77 380.5t221 262.5t344 96q141 0 258 -44t194 -112v-314h-157l-21 230q-32 25 -73.5 42t-92 26t-109.5 9q-143 0 -242 -73.5t-150 -202.5t-51 -298v-23q0 -183 54.5 -312.5t159 -197.5t254.5 -68q70 0 137 17
t111 44l22 203h154v-316q-82 -51 -196 -79.5t-235 -28.5zM615 -435l-7 109q72 0 115.5 24t43.5 71t-36 65t-124 25l40 173h141l-20 -90q66 -11 109 -51t43 -119q0 -94 -79 -150.5t-226 -56.5z" />
    <glyph glyph-name="Egrave" unicode="&#xc8;" horiz-adv-x="1306" 
d="M81 0v126l163 28v1147l-163 28v127h1078v-350h-158l-22 198h-538v-474h537v-155h-537v-527h570l22 201h157v-349h-1109zM774 1582h-9h-138l-269 266l2 6h230z" />
    <glyph glyph-name="Eacute" unicode="&#xc9;" horiz-adv-x="1306" 
d="M81 0v126l163 28v1147l-163 28v127h1078v-350h-158l-22 198h-538v-474h537v-155h-537v-527h570l22 201h157v-349h-1109zM532 1582l184 272h230l2 -6l-269 -266h-138h-9z" />
    <glyph glyph-name="Ecircumflex" unicode="&#xca;" horiz-adv-x="1306" 
d="M81 0v126l163 28v1147l-163 28v127h1078v-350h-158l-22 198h-538v-474h537v-155h-537v-527h570l22 201h157v-349h-1109zM346 1591v26l246 237h119l248 -238v-25h-161l-147 148l-145 -148h-160z" />
    <glyph glyph-name="Edieresis" unicode="&#xcb;" horiz-adv-x="1306" 
d="M81 0v126l163 28v1147l-163 28v127h1078v-350h-158l-22 198h-538v-474h537v-155h-537v-527h570l22 201h157v-349h-1109zM761 1643v211h207v-211h-207zM338 1643v211h207v-211h-207z" />
    <glyph glyph-name="Igrave" unicode="&#xcc;" horiz-adv-x="685" 
d="M81 0v126l163 28v1147l-163 28v127h523v-127l-163 -28v-1147l163 -28v-126h-523zM463 1582h-9h-138l-269 266l2 6h230z" />
    <glyph glyph-name="Iacute" unicode="&#xcd;" horiz-adv-x="685" 
d="M81 0v126l163 28v1147l-163 28v127h523v-127l-163 -28v-1147l163 -28v-126h-523zM221 1582l184 272h230l2 -6l-269 -266h-138h-9z" />
    <glyph glyph-name="Icircumflex" unicode="&#xce;" horiz-adv-x="685" 
d="M81 0v126l163 28v1147l-163 28v127h523v-127l-163 -28v-1147l163 -28v-126h-523zM35 1591v26l246 237h119l248 -238v-25h-161l-147 148l-145 -148h-160z" />
    <glyph glyph-name="Idieresis" unicode="&#xcf;" horiz-adv-x="685" 
d="M81 0v126l163 28v1147l-163 28v127h523v-127l-163 -28v-1147l163 -28v-126h-523zM450 1643v211h207v-211h-207zM27 1643v211h207v-211h-207z" />
    <glyph glyph-name="Eth" unicode="&#xd0;" horiz-adv-x="1356" 
d="M81 0v126l163 28v1147l-163 28v127h163h407q193 0 336.5 -92t223.5 -253t80 -368v-31q0 -202 -77 -363.5t-218.5 -255t-334.5 -93.5h-580zM441 154h210q138 0 237 75.5t152.5 202t53.5 280.5v33q0 159 -53.5 284.5t-152.5 198.5t-237 73h-210v-1147zM81 653v155h603v-155
h-603z" />
    <glyph glyph-name="Ntilde" unicode="&#xd1;" horiz-adv-x="1592" 
d="M83 0v126l163 28v1147l-163 28v127h163h199l714 -1135l6 2v978l-179 28v127h360h163v-127l-163 -28v-1301h-180l-733 1141l-6 -2v-985l179 -28v-126h-523zM556 1599l-107 22q0 64 28 117t75 85.5t105 32.5q45 0 96 -25t98.5 -50t81.5 -25q41 0 71 32.5t30 80.5l108 -28
q0 -64 -28 -116t-75.5 -82.5t-105.5 -30.5q-49 0 -100 24.5t-96.5 49.5t-79.5 25q-42 0 -71.5 -32.5t-29.5 -79.5z" />
    <glyph glyph-name="Ograve" unicode="&#xd2;" horiz-adv-x="1351" 
d="M675 -21q-141 0 -253 54t-190.5 152.5t-120 233.5t-41.5 298v21q0 162 41.5 297.5t120 234.5t190.5 153t253 54q149 0 262 -54t189.5 -153t115.5 -234.5t39 -297.5v-21q0 -163 -39 -298t-115.5 -233.5t-189.5 -152.5t-262 -54zM675 143q145 0 234.5 72t131.5 201.5
t42 300.5v23q0 170 -42.5 298.5t-132.5 201t-233 72.5q-131 0 -222 -73t-138 -201.5t-47 -297.5v-23q0 -170 47 -299.5t138 -202t222 -72.5zM797 1582h-9h-138l-269 266l2 6h230z" />
    <glyph glyph-name="Oacute" unicode="&#xd3;" horiz-adv-x="1351" 
d="M675 -21q-141 0 -253 54t-190.5 152.5t-120 233.5t-41.5 298v21q0 162 41.5 297.5t120 234.5t190.5 153t253 54q149 0 262 -54t189.5 -153t115.5 -234.5t39 -297.5v-21q0 -163 -39 -298t-115.5 -233.5t-189.5 -152.5t-262 -54zM675 143q145 0 234.5 72t131.5 201.5
t42 300.5v23q0 170 -42.5 298.5t-132.5 201t-233 72.5q-131 0 -222 -73t-138 -201.5t-47 -297.5v-23q0 -170 47 -299.5t138 -202t222 -72.5zM555 1582l184 272h230l2 -6l-269 -266h-138h-9z" />
    <glyph glyph-name="Ocircumflex" unicode="&#xd4;" horiz-adv-x="1351" 
d="M675 -21q-141 0 -253 54t-190.5 152.5t-120 233.5t-41.5 298v21q0 162 41.5 297.5t120 234.5t190.5 153t253 54q149 0 262 -54t189.5 -153t115.5 -234.5t39 -297.5v-21q0 -163 -39 -298t-115.5 -233.5t-189.5 -152.5t-262 -54zM675 143q145 0 234.5 72t131.5 201.5
t42 300.5v23q0 170 -42.5 298.5t-132.5 201t-233 72.5q-131 0 -222 -73t-138 -201.5t-47 -297.5v-23q0 -170 47 -299.5t138 -202t222 -72.5zM369 1591v26l246 237h119l248 -238v-25h-161l-147 148l-145 -148h-160z" />
    <glyph glyph-name="Otilde" unicode="&#xd5;" horiz-adv-x="1351" 
d="M675 -21q-141 0 -253 54t-190.5 152.5t-120 233.5t-41.5 298v21q0 162 41.5 297.5t120 234.5t190.5 153t253 54q149 0 262 -54t189.5 -153t115.5 -234.5t39 -297.5v-21q0 -163 -39 -298t-115.5 -233.5t-189.5 -152.5t-262 -54zM675 143q145 0 234.5 72t131.5 201.5
t42 300.5v23q0 170 -42.5 298.5t-132.5 201t-233 72.5q-131 0 -222 -73t-138 -201.5t-47 -297.5v-23q0 -170 47 -299.5t138 -202t222 -72.5zM436 1599l-107 22q0 64 28 117t75 85.5t105 32.5q45 0 96 -25t98.5 -50t81.5 -25q41 0 71 32.5t30 80.5l108 -28q0 -64 -28 -116
t-75.5 -82.5t-105.5 -30.5q-49 0 -100 24.5t-96.5 49.5t-79.5 25q-42 0 -71.5 -32.5t-29.5 -79.5z" />
    <glyph glyph-name="Odieresis" unicode="&#xd6;" horiz-adv-x="1351" 
d="M675 -21q-141 0 -253 54t-190.5 152.5t-120 233.5t-41.5 298v21q0 162 41.5 297.5t120 234.5t190.5 153t253 54q149 0 262 -54t189.5 -153t115.5 -234.5t39 -297.5v-21q0 -163 -39 -298t-115.5 -233.5t-189.5 -152.5t-262 -54zM675 143q145 0 234.5 72t131.5 201.5
t42 300.5v23q0 170 -42.5 298.5t-132.5 201t-233 72.5q-131 0 -222 -73t-138 -201.5t-47 -297.5v-23q0 -170 47 -299.5t138 -202t222 -72.5zM784 1643v211h207v-211h-207zM361 1643v211h207v-211h-207z" />
    <glyph glyph-name="multiply" unicode="&#xd7;" horiz-adv-x="1070" 
d="M205 225l-126 126l327 334l-327 334l126 126l326 -333l327 333l126 -126l-328 -334l328 -334l-126 -126l-327 332z" />
    <glyph glyph-name="Oslash" unicode="&#xd8;" horiz-adv-x="1351" 
d="M675 -21q-141 0 -253 54t-190.5 152.5t-120 233.5t-41.5 298v21q0 162 41.5 297.5t120 234.5t190.5 153t253 54q149 0 262 -54t189.5 -153t115.5 -234.5t39 -297.5v-21q0 -163 -39 -298t-115.5 -233.5t-189.5 -152.5t-262 -54zM675 143q145 0 234.5 72t131.5 201.5
t42 300.5v23q0 170 -42.5 298.5t-132.5 201t-233 72.5q-131 0 -222 -73t-138 -201.5t-47 -297.5v-23q0 -170 47 -299.5t138 -202t222 -72.5zM123 -94l956 1611h149l-956 -1611h-149z" />
    <glyph glyph-name="Ugrave" unicode="&#xd9;" horiz-adv-x="1522" 
d="M755 -21q-150 0 -268 59t-186 168.5t-68 262.5v832l-163 28v127h523v-127l-163 -28v-832q0 -109 41.5 -183t115.5 -111.5t171 -37.5q98 0 173.5 37t118 111t42.5 184v832l-163 28v127h523v-127l-163 -28v-832q0 -158 -66.5 -267.5t-186.5 -166t-281 -56.5zM882 1582h-9
h-138l-269 266l2 6h230z" />
    <glyph glyph-name="Uacute" unicode="&#xda;" horiz-adv-x="1522" 
d="M755 -21q-150 0 -268 59t-186 168.5t-68 262.5v832l-163 28v127h523v-127l-163 -28v-832q0 -109 41.5 -183t115.5 -111.5t171 -37.5q98 0 173.5 37t118 111t42.5 184v832l-163 28v127h523v-127l-163 -28v-832q0 -158 -66.5 -267.5t-186.5 -166t-281 -56.5zM640 1582
l184 272h230l2 -6l-269 -266h-138h-9z" />
    <glyph glyph-name="Ucircumflex" unicode="&#xdb;" horiz-adv-x="1522" 
d="M755 -21q-150 0 -268 59t-186 168.5t-68 262.5v832l-163 28v127h523v-127l-163 -28v-832q0 -109 41.5 -183t115.5 -111.5t171 -37.5q98 0 173.5 37t118 111t42.5 184v832l-163 28v127h523v-127l-163 -28v-832q0 -158 -66.5 -267.5t-186.5 -166t-281 -56.5zM454 1591v26
l246 237h119l248 -238v-25h-161l-147 148l-145 -148h-160z" />
    <glyph glyph-name="Udieresis" unicode="&#xdc;" horiz-adv-x="1522" 
d="M755 -21q-150 0 -268 59t-186 168.5t-68 262.5v832l-163 28v127h523v-127l-163 -28v-832q0 -109 41.5 -183t115.5 -111.5t171 -37.5q98 0 173.5 37t118 111t42.5 184v832l-163 28v127h523v-127l-163 -28v-832q0 -158 -66.5 -267.5t-186.5 -166t-281 -56.5zM869 1643v211
h207v-211h-207zM446 1643v211h207v-211h-207z" />
    <glyph glyph-name="Yacute" unicode="&#xdd;" horiz-adv-x="1461" 
d="M470 0v126l163 28v376l-448 780l-120 19v127h502v-127l-166 -19l309 -572l21 -39l1 2l20 37l324 572l-172 19v127h492v-127l-127 -19l-440 -765v-391l163 -28v-126h-522zM610 1582l184 272h230l2 -6l-269 -266h-138h-9z" />
    <glyph glyph-name="Thorn" unicode="&#xde;" horiz-adv-x="1277" 
d="M70 0v126l163 28v1147l-163 28v127h360h163v-127l-163 -28v-138h269q231 0 361 -118t130 -307q0 -190 -130 -307.5t-361 -117.5h-269v-159l163 -28v-126h-523zM430 467h269q97 0 162.5 36t98.5 97t33 136q0 76 -33 138t-98.5 98.5t-162.5 36.5h-269v-542z" />
    <glyph glyph-name="germandbls" unicode="&#xdf;" horiz-adv-x="1288" 
d="M830 -21q-56 0 -115.5 9.5t-108.5 25.5t-74 36l43 159q42 -28 108 -52t126 -24q109 0 159.5 47t50.5 126q0 55 -35 106.5t-86.5 101t-103 100.5t-86.5 105.5t-35 116.5q0 49 21 97.5t49 99t49 104.5t21 112q0 80 -49 129t-126 49q-101 0 -162.5 -79.5t-61.5 -225.5v-1122
h-359v126l163 28v968q0 145 52.5 247.5t145 157t213.5 54.5q109 0 192 -38t130 -112t47 -183q0 -78 -20 -138.5t-45.5 -108.5t-45.5 -87.5t-20 -74.5q0 -40 35 -81t87.5 -86.5t104.5 -99.5t87 -119.5t35 -146.5q0 -106 -47 -179t-133.5 -110.5t-205.5 -37.5z" />
    <glyph glyph-name="agrave" unicode="&#xe0;" horiz-adv-x="1132" 
d="M424 -21q-169 0 -257 82.5t-88 232.5q0 103 56.5 179.5t163.5 119t256 42.5h193v106q0 98 -59.5 152t-167.5 54q-68 0 -118 -16.5t-91 -45.5l-21 -151h-152v248q73 59 170 89.5t215 30.5q197 0 309 -94t112 -269v-521q0 -21 0.5 -41t2.5 -40l105 -11v-126h-283
q-9 44 -14 79t-7 70q-57 -73 -142.5 -121.5t-182.5 -48.5zM453 144q98 0 179 47t116 113v196h-200q-136 0 -204 -65t-68 -145q0 -71 44 -108.5t133 -37.5zM655 1288h-9h-138l-269 266l2 6h230z" />
    <glyph glyph-name="aacute" unicode="&#xe1;" horiz-adv-x="1132" 
d="M424 -21q-169 0 -257 82.5t-88 232.5q0 103 56.5 179.5t163.5 119t256 42.5h193v106q0 98 -59.5 152t-167.5 54q-68 0 -118 -16.5t-91 -45.5l-21 -151h-152v248q73 59 170 89.5t215 30.5q197 0 309 -94t112 -269v-521q0 -21 0.5 -41t2.5 -40l105 -11v-126h-283
q-9 44 -14 79t-7 70q-57 -73 -142.5 -121.5t-182.5 -48.5zM453 144q98 0 179 47t116 113v196h-200q-136 0 -204 -65t-68 -145q0 -71 44 -108.5t133 -37.5zM413 1288l184 272h230l2 -6l-269 -266h-138h-9z" />
    <glyph glyph-name="acircumflex" unicode="&#xe2;" horiz-adv-x="1132" 
d="M424 -21q-169 0 -257 82.5t-88 232.5q0 103 56.5 179.5t163.5 119t256 42.5h193v106q0 98 -59.5 152t-167.5 54q-68 0 -118 -16.5t-91 -45.5l-21 -151h-152v248q73 59 170 89.5t215 30.5q197 0 309 -94t112 -269v-521q0 -21 0.5 -41t2.5 -40l105 -11v-126h-283
q-9 44 -14 79t-7 70q-57 -73 -142.5 -121.5t-182.5 -48.5zM453 144q98 0 179 47t116 113v196h-200q-136 0 -204 -65t-68 -145q0 -71 44 -108.5t133 -37.5zM227 1297v26l246 237h119l248 -238v-25h-161l-147 148l-145 -148h-160z" />
    <glyph glyph-name="atilde" unicode="&#xe3;" horiz-adv-x="1132" 
d="M424 -21q-169 0 -257 82.5t-88 232.5q0 103 56.5 179.5t163.5 119t256 42.5h193v106q0 98 -59.5 152t-167.5 54q-68 0 -118 -16.5t-91 -45.5l-21 -151h-152v248q73 59 170 89.5t215 30.5q197 0 309 -94t112 -269v-521q0 -21 0.5 -41t2.5 -40l105 -11v-126h-283
q-9 44 -14 79t-7 70q-57 -73 -142.5 -121.5t-182.5 -48.5zM453 144q98 0 179 47t116 113v196h-200q-136 0 -204 -65t-68 -145q0 -71 44 -108.5t133 -37.5zM294 1305l-107 22q0 64 28 117t75 85.5t105 32.5q45 0 96 -25t98.5 -50t81.5 -25q41 0 71 32.5t30 80.5l108 -28
q0 -64 -28 -116t-75.5 -82.5t-105.5 -30.5q-49 0 -100 24.5t-96.5 49.5t-79.5 25q-42 0 -71.5 -32.5t-29.5 -79.5z" />
    <glyph glyph-name="adieresis" unicode="&#xe4;" horiz-adv-x="1132" 
d="M424 -21q-169 0 -257 82.5t-88 232.5q0 103 56.5 179.5t163.5 119t256 42.5h193v106q0 98 -59.5 152t-167.5 54q-68 0 -118 -16.5t-91 -45.5l-21 -151h-152v248q73 59 170 89.5t215 30.5q197 0 309 -94t112 -269v-521q0 -21 0.5 -41t2.5 -40l105 -11v-126h-283
q-9 44 -14 79t-7 70q-57 -73 -142.5 -121.5t-182.5 -48.5zM453 144q98 0 179 47t116 113v196h-200q-136 0 -204 -65t-68 -145q0 -71 44 -108.5t133 -37.5zM642 1349v211h207v-211h-207zM219 1349v211h207v-211h-207z" />
    <glyph glyph-name="aring" unicode="&#xe5;" horiz-adv-x="1132" 
d="M424 -21q-169 0 -257 82.5t-88 232.5q0 103 56.5 179.5t163.5 119t256 42.5h193v106q0 98 -59.5 152t-167.5 54q-68 0 -118 -16.5t-91 -45.5l-21 -151h-152v248q73 59 170 89.5t215 30.5q197 0 309 -94t112 -269v-521q0 -21 0.5 -41t2.5 -40l105 -11v-126h-283
q-9 44 -14 79t-7 70q-57 -73 -142.5 -121.5t-182.5 -48.5zM453 144q98 0 179 47t116 113v196h-200q-136 0 -204 -65t-68 -145q0 -71 44 -108.5t133 -37.5zM535 1225q-87 0 -147.5 54t-60.5 140q0 84 60.5 141t147.5 57q85 0 145 -56.5t60 -141.5q0 -86 -60 -140t-145 -54z
M535 1315q42 0 72 29.5t30 74.5t-30 76t-72 31q-44 0 -74.5 -31t-30.5 -76q0 -43 31 -73.5t74 -30.5z" />
    <glyph glyph-name="ae" unicode="&#xe6;" horiz-adv-x="1737" 
d="M435 -21q-175 0 -265.5 85t-90.5 238q0 102 57 178t163.5 118t256.5 42h193v101q0 98 -59.5 152t-167.5 54q-68 0 -118 -16.5t-91 -45.5l-21 -151h-152v248q73 59 170 89.5t215 30.5q122 0 211 -41.5t138 -123.5q43 53 96 90t114.5 56t128.5 19q143 0 242 -58.5t151 -168
t52 -261.5v-119h-710l-2 -5q1 -159 79.5 -258t233.5 -99q104 0 170 27.5t144 78.5l68 -138q-55 -45 -149 -83.5t-233 -38.5q-271 0 -428 211q-70 -104 -170.5 -157.5t-225.5 -53.5zM454 144q68 0 128.5 27t107 72t70.5 99q-6 49 -8.5 84t-2.5 78v1h-200q-136 0 -204.5 -63.5
t-68.5 -143.5q0 -65 44 -109.5t134 -44.5zM950 640h511v31q0 122 -60 199t-188 77q-76 0 -133 -38.5t-90.5 -106.5t-41.5 -157z" />
    <glyph glyph-name="ccedilla" unicode="&#xe7;" horiz-adv-x="1067" 
d="M563 -21q-147 0 -256 68.5t-169 190.5t-60 282v42q0 154 58 276t167 193t260 71q131 0 229.5 -43t165.5 -118l5 -260h-154l-34 189q-34 35 -85 56t-120 21q-88 0 -154.5 -52t-103.5 -139t-37 -194v-42q0 -118 34.5 -205t99 -134.5t153.5 -47.5q100 0 166 55t81 151h177
l2 -6q-5 -93 -55 -174t-142.5 -130.5t-227.5 -49.5zM462 -435l-7 109q72 0 115.5 24t43.5 71t-36 65t-124 25l40 173h141l-20 -90q66 -11 109 -51t43 -119q0 -94 -79 -150.5t-226 -56.5z" />
    <glyph glyph-name="egrave" unicode="&#xe8;" horiz-adv-x="1059" 
d="M567 -21q-150 0 -261 68.5t-171.5 190.5t-60.5 282v44q0 154 63.5 275.5t169 192t230.5 70.5q146 0 244.5 -60t148.5 -168.5t50 -255.5v-123h-702l-3 -5q2 -104 36.5 -184.5t99.5 -126.5t156 -46q100 0 175.5 28.5t130.5 78.5l77 -128q-58 -56 -153.5 -94.5t-229.5 -38.5
zM284 649h499v26q0 78 -27.5 139.5t-82 97t-136.5 35.5q-66 0 -120 -38.5t-89 -104.5t-46 -150zM657 1288h-9h-138l-269 266l2 6h230z" />
    <glyph glyph-name="eacute" unicode="&#xe9;" horiz-adv-x="1059" 
d="M567 -21q-150 0 -261 68.5t-171.5 190.5t-60.5 282v44q0 154 63.5 275.5t169 192t230.5 70.5q146 0 244.5 -60t148.5 -168.5t50 -255.5v-123h-702l-3 -5q2 -104 36.5 -184.5t99.5 -126.5t156 -46q100 0 175.5 28.5t130.5 78.5l77 -128q-58 -56 -153.5 -94.5t-229.5 -38.5
zM284 649h499v26q0 78 -27.5 139.5t-82 97t-136.5 35.5q-66 0 -120 -38.5t-89 -104.5t-46 -150zM415 1288l184 272h230l2 -6l-269 -266h-138h-9z" />
    <glyph glyph-name="ecircumflex" unicode="&#xea;" horiz-adv-x="1059" 
d="M567 -21q-150 0 -261 68.5t-171.5 190.5t-60.5 282v44q0 154 63.5 275.5t169 192t230.5 70.5q146 0 244.5 -60t148.5 -168.5t50 -255.5v-123h-702l-3 -5q2 -104 36.5 -184.5t99.5 -126.5t156 -46q100 0 175.5 28.5t130.5 78.5l77 -128q-58 -56 -153.5 -94.5t-229.5 -38.5
zM284 649h499v26q0 78 -27.5 139.5t-82 97t-136.5 35.5q-66 0 -120 -38.5t-89 -104.5t-46 -150zM229 1297v26l246 237h119l248 -238v-25h-161l-147 148l-145 -148h-160z" />
    <glyph glyph-name="edieresis" unicode="&#xeb;" horiz-adv-x="1059" 
d="M567 -21q-150 0 -261 68.5t-171.5 190.5t-60.5 282v44q0 154 63.5 275.5t169 192t230.5 70.5q146 0 244.5 -60t148.5 -168.5t50 -255.5v-123h-702l-3 -5q2 -104 36.5 -184.5t99.5 -126.5t156 -46q100 0 175.5 28.5t130.5 78.5l77 -128q-58 -56 -153.5 -94.5t-229.5 -38.5
zM284 649h499v26q0 78 -27.5 139.5t-82 97t-136.5 35.5q-66 0 -120 -38.5t-89 -104.5t-46 -150zM644 1349v211h207v-211h-207zM221 1349v211h207v-211h-207z" />
    <glyph glyph-name="igrave" unicode="&#xec;" horiz-adv-x="652" 
d="M67 0v126l163 28v773l-163 28v127h360v-928l163 -28v-126h-523zM445 1288h-9h-138l-269 266l2 6h230z" />
    <glyph glyph-name="iacute" unicode="&#xed;" horiz-adv-x="652" 
d="M67 0v126l163 28v773l-163 28v127h360v-928l163 -28v-126h-523zM203 1288l184 272h230l2 -6l-269 -266h-138h-9z" />
    <glyph glyph-name="icircumflex" unicode="&#xee;" horiz-adv-x="652" 
d="M67 0v126l163 28v773l-163 28v127h360v-928l163 -28v-126h-523zM17 1297v26l246 237h119l248 -238v-25h-161l-147 148l-145 -148h-160z" />
    <glyph glyph-name="idieresis" unicode="&#xef;" horiz-adv-x="652" 
d="M67 0v126l163 28v773l-163 28v127h360v-928l163 -28v-126h-523zM432 1349v211h207v-211h-207zM9 1349v211h207v-211h-207z" />
    <glyph glyph-name="eth" unicode="&#xf0;" horiz-adv-x="1191" 
d="M575 -21q-145 0 -257.5 64.5t-176 174.5t-63.5 248q0 152 63 267.5t173.5 180t252.5 64.5q83 0 157.5 -32t126.5 -84l4 5q-20 98 -62 179.5t-101 143.5l-272 -155l-77 102l245 140q-36 23 -74.5 41.5t-80.5 34.5l60 164q75 -22 143 -57t128 -82l233 133l77 -102
l-215 -123q104 -121 161.5 -287t57.5 -366v-98q0 -163 -66 -288.5t-180 -196.5t-257 -71zM579 133q89 0 157 52t106.5 143t38.5 207v100v50q-36 58 -116.5 98t-197.5 40q-87 0 -153 -48t-102.5 -129t-36.5 -180q0 -88 37 -164t105.5 -122.5t161.5 -46.5z" />
    <glyph glyph-name="ntilde" unicode="&#xf1;" horiz-adv-x="1343" 
d="M74 0v126l163 28v773l-163 28v127h339l14 -161q54 86 135.5 133.5t185.5 47.5q175 0 271 -102.5t96 -316.5v-529l163 -28v-126h-523v126l163 28v525q0 143 -56.5 203t-172.5 60q-85 0 -150.5 -41t-104.5 -112v-635l163 -28v-126h-523zM435 1305l-107 22q0 64 28 117
t75 85.5t105 32.5q45 0 96 -25t98.5 -50t81.5 -25q41 0 71 32.5t30 80.5l108 -28q0 -64 -28 -116t-75.5 -82.5t-105.5 -30.5q-49 0 -100 24.5t-96.5 49.5t-79.5 25q-42 0 -71.5 -32.5t-29.5 -79.5z" />
    <glyph glyph-name="ograve" unicode="&#xf2;" horiz-adv-x="1124" 
d="M563 -21q-150 0 -258.5 70.5t-167.5 195t-59 284.5v22q0 160 59 284.5t167.5 195.5t256.5 71q150 0 258.5 -71t167.5 -195t59 -285v-22q0 -161 -59 -285.5t-167 -194.5t-257 -70zM563 133q94 0 157.5 51.5t96 141t32.5 203.5v22q0 114 -32.5 203.5t-96.5 141t-159 51.5
q-94 0 -158 -51.5t-96 -141t-32 -203.5v-22q0 -114 32 -203.5t96.5 -141t159.5 -51.5zM683 1288h-9h-138l-269 266l2 6h230z" />
    <glyph glyph-name="oacute" unicode="&#xf3;" horiz-adv-x="1124" 
d="M563 -21q-150 0 -258.5 70.5t-167.5 195t-59 284.5v22q0 160 59 284.5t167.5 195.5t256.5 71q150 0 258.5 -71t167.5 -195t59 -285v-22q0 -161 -59 -285.5t-167 -194.5t-257 -70zM563 133q94 0 157.5 51.5t96 141t32.5 203.5v22q0 114 -32.5 203.5t-96.5 141t-159 51.5
q-94 0 -158 -51.5t-96 -141t-32 -203.5v-22q0 -114 32 -203.5t96.5 -141t159.5 -51.5zM441 1288l184 272h230l2 -6l-269 -266h-138h-9z" />
    <glyph glyph-name="ocircumflex" unicode="&#xf4;" horiz-adv-x="1124" 
d="M563 -21q-150 0 -258.5 70.5t-167.5 195t-59 284.5v22q0 160 59 284.5t167.5 195.5t256.5 71q150 0 258.5 -71t167.5 -195t59 -285v-22q0 -161 -59 -285.5t-167 -194.5t-257 -70zM563 133q94 0 157.5 51.5t96 141t32.5 203.5v22q0 114 -32.5 203.5t-96.5 141t-159 51.5
q-94 0 -158 -51.5t-96 -141t-32 -203.5v-22q0 -114 32 -203.5t96.5 -141t159.5 -51.5zM255 1297v26l246 237h119l248 -238v-25h-161l-147 148l-145 -148h-160z" />
    <glyph glyph-name="otilde" unicode="&#xf5;" horiz-adv-x="1124" 
d="M563 -21q-150 0 -258.5 70.5t-167.5 195t-59 284.5v22q0 160 59 284.5t167.5 195.5t256.5 71q150 0 258.5 -71t167.5 -195t59 -285v-22q0 -161 -59 -285.5t-167 -194.5t-257 -70zM563 133q94 0 157.5 51.5t96 141t32.5 203.5v22q0 114 -32.5 203.5t-96.5 141t-159 51.5
q-94 0 -158 -51.5t-96 -141t-32 -203.5v-22q0 -114 32 -203.5t96.5 -141t159.5 -51.5zM322 1305l-107 22q0 64 28 117t75 85.5t105 32.5q45 0 96 -25t98.5 -50t81.5 -25q41 0 71 32.5t30 80.5l108 -28q0 -64 -28 -116t-75.5 -82.5t-105.5 -30.5q-49 0 -100 24.5t-96.5 49.5
t-79.5 25q-42 0 -71.5 -32.5t-29.5 -79.5z" />
    <glyph glyph-name="odieresis" unicode="&#xf6;" horiz-adv-x="1124" 
d="M563 -21q-150 0 -258.5 70.5t-167.5 195t-59 284.5v22q0 160 59 284.5t167.5 195.5t256.5 71q150 0 258.5 -71t167.5 -195t59 -285v-22q0 -161 -59 -285.5t-167 -194.5t-257 -70zM563 133q94 0 157.5 51.5t96 141t32.5 203.5v22q0 114 -32.5 203.5t-96.5 141t-159 51.5
q-94 0 -158 -51.5t-96 -141t-32 -203.5v-22q0 -114 32 -203.5t96.5 -141t159.5 -51.5zM670 1349v211h207v-211h-207zM247 1349v211h207v-211h-207z" />
    <glyph glyph-name="divide" unicode="&#xf7;" horiz-adv-x="1148" 
d="M74 597v188h998v-188h-998zM475 180v203h198v-203h-198zM475 999v203h198v-203h-198z" />
    <glyph glyph-name="oslash" unicode="&#xf8;" horiz-adv-x="1124" 
d="M563 -21q-150 0 -258.5 70.5t-167.5 195t-59 284.5v22q0 160 59 284.5t167.5 195.5t256.5 71q150 0 258.5 -71t167.5 -195t59 -285v-22q0 -161 -59 -285.5t-167 -194.5t-257 -70zM563 133q94 0 157.5 51.5t96 141t32.5 203.5v22q0 114 -32.5 203.5t-96.5 141t-159 51.5
q-94 0 -158 -51.5t-96 -141t-32 -203.5v-22q0 -114 32 -203.5t96.5 -141t159.5 -51.5zM165 -131l664 1344h129l-664 -1344h-129z" />
    <glyph glyph-name="ugrave" unicode="&#xf9;" horiz-adv-x="1245" 
d="M550 -21q-176 0 -275 113t-99 352v483l-124 28v127h124h197v-640q0 -173 51 -238t159 -65q105 0 173.5 42.5t103.5 120.5v625l-145 28v127h145h197v-928l124 -28v-126h-301l-13 160q-51 -87 -131.5 -134t-185.5 -47zM727 1288h-9h-138l-269 266l2 6h230z" />
    <glyph glyph-name="uacute" unicode="&#xfa;" horiz-adv-x="1245" 
d="M550 -21q-176 0 -275 113t-99 352v483l-124 28v127h124h197v-640q0 -173 51 -238t159 -65q105 0 173.5 42.5t103.5 120.5v625l-145 28v127h145h197v-928l124 -28v-126h-301l-13 160q-51 -87 -131.5 -134t-185.5 -47zM485 1288l184 272h230l2 -6l-269 -266h-138h-9z" />
    <glyph glyph-name="ucircumflex" unicode="&#xfb;" horiz-adv-x="1245" 
d="M550 -21q-176 0 -275 113t-99 352v483l-124 28v127h124h197v-640q0 -173 51 -238t159 -65q105 0 173.5 42.5t103.5 120.5v625l-145 28v127h145h197v-928l124 -28v-126h-301l-13 160q-51 -87 -131.5 -134t-185.5 -47zM299 1297v26l246 237h119l248 -238v-25h-161l-147 148
l-145 -148h-160z" />
    <glyph glyph-name="udieresis" unicode="&#xfc;" horiz-adv-x="1245" 
d="M550 -21q-176 0 -275 113t-99 352v483l-124 28v127h124h197v-640q0 -173 51 -238t159 -65q105 0 173.5 42.5t103.5 120.5v625l-145 28v127h145h197v-928l124 -28v-126h-301l-13 160q-51 -87 -131.5 -134t-185.5 -47zM714 1349v211h207v-211h-207zM291 1349v211h207v-211
h-207z" />
    <glyph glyph-name="yacute" unicode="&#xfd;" horiz-adv-x="1192" 
d="M309 -437q-23 0 -60 5.5t-57 10.5l20 155q17 -2 47 -3.5t41 -1.5q63 0 102.5 48t73.5 131l47 114l-383 917l-116 16v127h454v-127l-131 -20l211 -541l51 -141h6l250 682l-138 20v127h445v-127l-112 -16l-426 -1105q-30 -78 -72.5 -139.5t-104 -96.5t-148.5 -35zM475 1288
l184 272h230l2 -6l-269 -266h-138h-9z" />
    <glyph glyph-name="thorn" unicode="&#xfe;" horiz-adv-x="1188" 
d="M25 -416v127l163 28v1666l-163 28v127h360v-598q53 68 128.5 104t173.5 36q133 0 228 -72.5t145 -203t50 -305.5v-21q0 -156 -50.5 -273t-144.5 -182.5t-225 -65.5q-100 0 -176 33.5t-129 100.5v-374l163 -28v-127h-523zM629 133q140 0 212 102t72 265v21q0 123 -32 218
t-95.5 149t-158.5 54q-85 0 -145 -38.5t-97 -105.5v-523q37 -67 97 -104.5t147 -37.5z" />
    <glyph glyph-name="ydieresis" unicode="&#xff;" horiz-adv-x="1192" 
d="M309 -437q-23 0 -60 5.5t-57 10.5l20 155q17 -2 47 -3.5t41 -1.5q63 0 102.5 48t73.5 131l47 114l-383 917l-116 16v127h454v-127l-131 -20l211 -541l51 -141h6l250 682l-138 20v127h445v-127l-112 -16l-426 -1105q-30 -78 -72.5 -139.5t-104 -96.5t-148.5 -35zM704 1349
v211h207v-211h-207zM281 1349v211h207v-211h-207z" />
    <glyph glyph-name="Amacron" unicode="&#x100;" horiz-adv-x="1533" 
d="M70 0v126l108 15l509 1315h169l500 -1315l107 -15v-126h-418v126l110 19l-96 268h-583l-99 -268l110 -19v-126h-417zM537 578h462l-214 592l-12 33h-6l-12 -33zM409 1644v146h721v-146h-721z" />
    <glyph glyph-name="amacron" unicode="&#x101;" horiz-adv-x="1132" 
d="M424 -21q-169 0 -257 82.5t-88 232.5q0 103 56.5 179.5t163.5 119t256 42.5h193v106q0 98 -59.5 152t-167.5 54q-68 0 -118 -16.5t-91 -45.5l-21 -151h-152v248q73 59 170 89.5t215 30.5q197 0 309 -94t112 -269v-521q0 -21 0.5 -41t2.5 -40l105 -11v-126h-283
q-9 44 -14 79t-7 70q-57 -73 -142.5 -121.5t-182.5 -48.5zM453 144q98 0 179 47t116 113v196h-200q-136 0 -204 -65t-68 -145q0 -71 44 -108.5t133 -37.5zM173 1350v146h721v-146h-721z" />
    <glyph glyph-name="Abreve" unicode="&#x102;" horiz-adv-x="1533" 
d="M70 0v126l108 15l509 1315h169l500 -1315l107 -15v-126h-418v126l110 19l-96 268h-583l-99 -268l110 -19v-126h-417zM537 578h462l-214 592l-12 33h-6l-12 -33zM770 1566q-145 0 -228 78.5t-83 203.5l2 6h150q0 -72 38.5 -117t120.5 -45q80 0 119 45t39 117h151l2 -6
q-1 -125 -83.5 -203.5t-227.5 -78.5z" />
    <glyph glyph-name="abreve" unicode="&#x103;" horiz-adv-x="1132" 
d="M424 -21q-169 0 -257 82.5t-88 232.5q0 103 56.5 179.5t163.5 119t256 42.5h193v106q0 98 -59.5 152t-167.5 54q-68 0 -118 -16.5t-91 -45.5l-21 -151h-152v248q73 59 170 89.5t215 30.5q197 0 309 -94t112 -269v-521q0 -21 0.5 -41t2.5 -40l105 -11v-126h-283
q-9 44 -14 79t-7 70q-57 -73 -142.5 -121.5t-182.5 -48.5zM453 144q98 0 179 47t116 113v196h-200q-136 0 -204 -65t-68 -145q0 -71 44 -108.5t133 -37.5zM534 1272q-145 0 -228 78.5t-83 203.5l2 6h150q0 -72 38.5 -117t120.5 -45q80 0 119 45t39 117h151l2 -6
q-1 -125 -83.5 -203.5t-227.5 -78.5z" />
    <glyph glyph-name="Aogonek" unicode="&#x104;" horiz-adv-x="1533" 
d="M70 0v126l108 15l509 1315h169l500 -1315l107 -15v-126h-418v126l110 19l-96 268h-583l-99 -268l110 -19v-126h-417zM537 578h462l-214 592l-12 33h-6l-12 -33zM1374 -432q-105 0 -167.5 55t-62.5 154q0 80 59.5 151.5t188.5 128.5l71 -57q-70 -52 -109.5 -99.5
t-39.5 -101.5q0 -42 22.5 -66t73.5 -24q27 0 50 7.5t49 18.5l33 -123q-36 -19 -77.5 -31.5t-90.5 -12.5z" />
    <glyph glyph-name="aogonek" unicode="&#x105;" horiz-adv-x="1132" 
d="M424 -21q-169 0 -257 82.5t-88 232.5q0 103 56.5 179.5t163.5 119t256 42.5h193v106q0 98 -59.5 152t-167.5 54q-68 0 -118 -16.5t-91 -45.5l-21 -151h-152v248q73 59 170 89.5t215 30.5q197 0 309 -94t112 -269v-521q0 -21 0.5 -41t2.5 -40l105 -11v-126h-283
q-9 44 -14 79t-7 70q-57 -73 -142.5 -121.5t-182.5 -48.5zM453 144q98 0 179 47t116 113v196h-200q-136 0 -204 -65t-68 -145q0 -71 44 -108.5t133 -37.5zM964 -432q-105 0 -167.5 55t-62.5 154q0 80 59.5 151.5t188.5 128.5l71 -57q-70 -52 -109.5 -99.5t-39.5 -101.5
q0 -42 22.5 -66t73.5 -24q27 0 50 7.5t49 18.5l33 -123q-36 -19 -77.5 -31.5t-90.5 -12.5z" />
    <glyph glyph-name="Cacute" unicode="&#x106;" horiz-adv-x="1290" 
d="M739 -21q-219 0 -365.5 96t-220 263t-73.5 379v21q0 214 77 380.5t221 262.5t344 96q141 0 258 -44t194 -112v-314h-157l-21 230q-32 25 -73.5 42t-92 26t-109.5 9q-143 0 -242 -73.5t-150 -202.5t-51 -298v-23q0 -183 54.5 -312.5t159 -197.5t254.5 -68q70 0 137 17
t111 44l22 203h154v-316q-82 -51 -196 -79.5t-235 -28.5zM589 1582l184 272h230l2 -6l-269 -266h-138h-9z" />
    <glyph glyph-name="cacute" unicode="&#x107;" horiz-adv-x="1067" 
d="M563 -21q-147 0 -256 68.5t-169 190.5t-60 282v42q0 154 58 276t167 193t260 71q131 0 229.5 -43t165.5 -118l5 -260h-154l-34 189q-34 35 -85 56t-120 21q-88 0 -154.5 -52t-103.5 -139t-37 -194v-42q0 -118 34.5 -205t99 -134.5t153.5 -47.5q100 0 166 55t81 151h177
l2 -6q-5 -93 -55 -174t-142.5 -130.5t-227.5 -49.5zM436 1288l184 272h230l2 -6l-269 -266h-138h-9z" />
    <glyph glyph-name="Ccircumflex" unicode="&#x108;" horiz-adv-x="1290" 
d="M739 -21q-219 0 -365.5 96t-220 263t-73.5 379v21q0 214 77 380.5t221 262.5t344 96q141 0 258 -44t194 -112v-314h-157l-21 230q-32 25 -73.5 42t-92 26t-109.5 9q-143 0 -242 -73.5t-150 -202.5t-51 -298v-23q0 -183 54.5 -312.5t159 -197.5t254.5 -68q70 0 137 17
t111 44l22 203h154v-316q-82 -51 -196 -79.5t-235 -28.5zM403 1591v26l246 237h119l248 -238v-25h-161l-147 148l-145 -148h-160z" />
    <glyph glyph-name="ccircumflex" unicode="&#x109;" horiz-adv-x="1067" 
d="M563 -21q-147 0 -256 68.5t-169 190.5t-60 282v42q0 154 58 276t167 193t260 71q131 0 229.5 -43t165.5 -118l5 -260h-154l-34 189q-34 35 -85 56t-120 21q-88 0 -154.5 -52t-103.5 -139t-37 -194v-42q0 -118 34.5 -205t99 -134.5t153.5 -47.5q100 0 166 55t81 151h177
l2 -6q-5 -93 -55 -174t-142.5 -130.5t-227.5 -49.5zM250 1297v26l246 237h119l248 -238v-25h-161l-147 148l-145 -148h-160z" />
    <glyph glyph-name="Cdotaccent" unicode="&#x10a;" horiz-adv-x="1290" 
d="M739 -21q-219 0 -365.5 96t-220 263t-73.5 379v21q0 214 77 380.5t221 262.5t344 96q141 0 258 -44t194 -112v-314h-157l-21 230q-32 25 -73.5 42t-92 26t-109.5 9q-143 0 -242 -73.5t-150 -202.5t-51 -298v-23q0 -183 54.5 -312.5t159 -197.5t254.5 -68q70 0 137 17
t111 44l22 203h154v-316q-82 -51 -196 -79.5t-235 -28.5zM606 1643v211h207v-211h-207z" />
    <glyph glyph-name="cdotaccent" unicode="&#x10b;" horiz-adv-x="1067" 
d="M563 -21q-147 0 -256 68.5t-169 190.5t-60 282v42q0 154 58 276t167 193t260 71q131 0 229.5 -43t165.5 -118l5 -260h-154l-34 189q-34 35 -85 56t-120 21q-88 0 -154.5 -52t-103.5 -139t-37 -194v-42q0 -118 34.5 -205t99 -134.5t153.5 -47.5q100 0 166 55t81 151h177
l2 -6q-5 -93 -55 -174t-142.5 -130.5t-227.5 -49.5zM453 1349v211h207v-211h-207z" />
    <glyph glyph-name="Ccaron" unicode="&#x10c;" horiz-adv-x="1290" 
d="M739 -21q-219 0 -365.5 96t-220 263t-73.5 379v21q0 214 77 380.5t221 262.5t344 96q141 0 258 -44t194 -112v-314h-157l-21 230q-32 25 -73.5 42t-92 26t-109.5 9q-143 0 -242 -73.5t-150 -202.5t-51 -298v-23q0 -183 54.5 -312.5t159 -197.5t254.5 -68q70 0 137 17
t111 44l22 203h154v-316q-82 -51 -196 -79.5t-235 -28.5zM1016 1854v-26l-246 -237h-119l-248 238v25h161l147 -148l145 148h160z" />
    <glyph glyph-name="ccaron" unicode="&#x10d;" horiz-adv-x="1067" 
d="M563 -21q-147 0 -256 68.5t-169 190.5t-60 282v42q0 154 58 276t167 193t260 71q131 0 229.5 -43t165.5 -118l5 -260h-154l-34 189q-34 35 -85 56t-120 21q-88 0 -154.5 -52t-103.5 -139t-37 -194v-42q0 -118 34.5 -205t99 -134.5t153.5 -47.5q100 0 166 55t81 151h177
l2 -6q-5 -93 -55 -174t-142.5 -130.5t-227.5 -49.5zM863 1560v-26l-246 -237h-119l-248 238v25h161l147 -148l145 148h160z" />
    <glyph glyph-name="Dcaron" unicode="&#x10e;" horiz-adv-x="1356" 
d="M81 0v126l163 28v1147l-163 28v127h163h407q193 0 336.5 -92t223.5 -253t80 -368v-31q0 -202 -77 -363.5t-218.5 -255t-334.5 -93.5h-580zM441 154h210q138 0 237 75.5t152.5 202t53.5 280.5v33q0 159 -53.5 284.5t-152.5 198.5t-237 73h-210v-1147zM984 1854v-26
l-246 -237h-119l-248 238v25h161l147 -148l145 148h160z" />
    <glyph glyph-name="dcaron" unicode="&#x10f;" horiz-adv-x="1218" 
d="M499 -21q-132 0 -226.5 65.5t-144.5 182.5t-50 273v21q0 174 50 305t145 203.5t228 72.5q96 0 169.5 -35.5t125.5 -102.5v441l-163 28v127h163h197v-1406l163 -28v-126h-334l-16 129q-53 -74 -129.5 -112t-177.5 -38zM549 139q88 0 148 40t99 113v502q-38 68 -99 108
t-146 40q-94 0 -155 -53.5t-91 -148t-30 -219.5v-21q0 -163 67 -262t207 -99zM1146 1180l-86 74q36 50 53 100t17 116v90h180v-87q0 -91 -39.5 -163.5t-124.5 -129.5z" />
    <glyph glyph-name="Dcroat" unicode="&#x110;" horiz-adv-x="1356" 
d="M81 0v126l163 28v1147l-163 28v127h163h407q193 0 336.5 -92t223.5 -253t80 -368v-31q0 -202 -77 -363.5t-218.5 -255t-334.5 -93.5h-580zM441 154h210q138 0 237 75.5t152.5 202t53.5 280.5v33q0 159 -53.5 284.5t-152.5 198.5t-237 73h-210v-1147zM81 653v155h603v-155
h-603z" />
    <glyph glyph-name="dcroat" unicode="&#x111;" horiz-adv-x="1218" 
d="M499 -21q-132 0 -226.5 65.5t-144.5 182.5t-50 273v21q0 174 50 305t145 203.5t228 72.5q96 0 169.5 -35.5t125.5 -102.5v441l-163 28v127h163h197v-1406l163 -28v-126h-334l-16 129q-53 -74 -129.5 -112t-177.5 -38zM549 139q88 0 148 40t99 113v502q-38 68 -99 108
t-146 40q-94 0 -155 -53.5t-91 -148t-30 -219.5v-21q0 -163 67 -262t207 -99zM553 1154v155h603v-155h-603z" />
    <glyph glyph-name="Emacron" unicode="&#x112;" horiz-adv-x="1306" 
d="M81 0v126l163 28v1147l-163 28v127h1078v-350h-158l-22 198h-538v-474h537v-155h-537v-527h570l22 201h157v-349h-1109zM292 1644v146h721v-146h-721z" />
    <glyph glyph-name="emacron" unicode="&#x113;" horiz-adv-x="1059" 
d="M567 -21q-150 0 -261 68.5t-171.5 190.5t-60.5 282v44q0 154 63.5 275.5t169 192t230.5 70.5q146 0 244.5 -60t148.5 -168.5t50 -255.5v-123h-702l-3 -5q2 -104 36.5 -184.5t99.5 -126.5t156 -46q100 0 175.5 28.5t130.5 78.5l77 -128q-58 -56 -153.5 -94.5t-229.5 -38.5
zM284 649h499v26q0 78 -27.5 139.5t-82 97t-136.5 35.5q-66 0 -120 -38.5t-89 -104.5t-46 -150zM175 1350v146h721v-146h-721z" />
    <glyph glyph-name="Ebreve" unicode="&#x114;" horiz-adv-x="1306" 
d="M81 0v126l163 28v1147l-163 28v127h1078v-350h-158l-22 198h-538v-474h537v-155h-537v-527h570l22 201h157v-349h-1109zM653 1566q-145 0 -228 78.5t-83 203.5l2 6h150q0 -72 38.5 -117t120.5 -45q80 0 119 45t39 117h151l2 -6q-1 -125 -83.5 -203.5t-227.5 -78.5z" />
    <glyph glyph-name="ebreve" unicode="&#x115;" horiz-adv-x="1059" 
d="M567 -21q-150 0 -261 68.5t-171.5 190.5t-60.5 282v44q0 154 63.5 275.5t169 192t230.5 70.5q146 0 244.5 -60t148.5 -168.5t50 -255.5v-123h-702l-3 -5q2 -104 36.5 -184.5t99.5 -126.5t156 -46q100 0 175.5 28.5t130.5 78.5l77 -128q-58 -56 -153.5 -94.5t-229.5 -38.5
zM284 649h499v26q0 78 -27.5 139.5t-82 97t-136.5 35.5q-66 0 -120 -38.5t-89 -104.5t-46 -150zM536 1272q-145 0 -228 78.5t-83 203.5l2 6h150q0 -72 38.5 -117t120.5 -45q80 0 119 45t39 117h151l2 -6q-1 -125 -83.5 -203.5t-227.5 -78.5z" />
    <glyph glyph-name="Edotaccent" unicode="&#x116;" horiz-adv-x="1306" 
d="M81 0v126l163 28v1147l-163 28v127h1078v-350h-158l-22 198h-538v-474h537v-155h-537v-527h570l22 201h157v-349h-1109zM549 1643v211h207v-211h-207z" />
    <glyph glyph-name="edotaccent" unicode="&#x117;" horiz-adv-x="1059" 
d="M567 -21q-150 0 -261 68.5t-171.5 190.5t-60.5 282v44q0 154 63.5 275.5t169 192t230.5 70.5q146 0 244.5 -60t148.5 -168.5t50 -255.5v-123h-702l-3 -5q2 -104 36.5 -184.5t99.5 -126.5t156 -46q100 0 175.5 28.5t130.5 78.5l77 -128q-58 -56 -153.5 -94.5t-229.5 -38.5
zM284 649h499v26q0 78 -27.5 139.5t-82 97t-136.5 35.5q-66 0 -120 -38.5t-89 -104.5t-46 -150zM432 1349v211h207v-211h-207z" />
    <glyph glyph-name="Eogonek" unicode="&#x118;" horiz-adv-x="1306" 
d="M81 0v126l163 28v1147l-163 28v127h1078v-350h-158l-22 198h-538v-474h537v-155h-537v-527h570l22 201h157v-349h-1109zM1101 -432q-105 0 -167.5 55t-62.5 154q0 80 59.5 151.5t188.5 128.5l71 -57q-70 -52 -109.5 -99.5t-39.5 -101.5q0 -42 22.5 -66t73.5 -24
q27 0 50 7.5t49 18.5l33 -123q-36 -19 -77.5 -31.5t-90.5 -12.5z" />
    <glyph glyph-name="eogonek" unicode="&#x119;" horiz-adv-x="1059" 
d="M567 -21q-150 0 -261 68.5t-171.5 190.5t-60.5 282v44q0 154 63.5 275.5t169 192t230.5 70.5q146 0 244.5 -60t148.5 -168.5t50 -255.5v-123h-702l-3 -5q2 -104 36.5 -184.5t99.5 -126.5t156 -46q100 0 175.5 28.5t130.5 78.5l77 -128q-58 -56 -153.5 -94.5t-229.5 -38.5
zM284 649h499v26q0 78 -27.5 139.5t-82 97t-136.5 35.5q-66 0 -120 -38.5t-89 -104.5t-46 -150zM749 -432q-97 0 -160 57.5t-63 162.5q0 104 68 188t210 139l71 -57q-83 -54 -131 -112.5t-48 -135.5q0 -49 24.5 -75t76.5 -26q29 0 52.5 7.5t49.5 18.5l33 -123
q-36 -19 -79.5 -31.5t-103.5 -12.5z" />
    <glyph glyph-name="Ecaron" unicode="&#x11a;" horiz-adv-x="1306" 
d="M81 0v126l163 28v1147l-163 28v127h1078v-350h-158l-22 198h-538v-474h537v-155h-537v-527h570l22 201h157v-349h-1109zM959 1854v-26l-246 -237h-119l-248 238v25h161l147 -148l145 148h160z" />
    <glyph glyph-name="ecaron" unicode="&#x11b;" horiz-adv-x="1059" 
d="M567 -21q-150 0 -261 68.5t-171.5 190.5t-60.5 282v44q0 154 63.5 275.5t169 192t230.5 70.5q146 0 244.5 -60t148.5 -168.5t50 -255.5v-123h-702l-3 -5q2 -104 36.5 -184.5t99.5 -126.5t156 -46q100 0 175.5 28.5t130.5 78.5l77 -128q-58 -56 -153.5 -94.5t-229.5 -38.5
zM284 649h499v26q0 78 -27.5 139.5t-82 97t-136.5 35.5q-66 0 -120 -38.5t-89 -104.5t-46 -150zM842 1560v-26l-246 -237h-119l-248 238v25h161l147 -148l145 148h160z" />
    <glyph glyph-name="Gcircumflex" unicode="&#x11c;" horiz-adv-x="1346" 
d="M738 -21q-202 0 -350 93.5t-228 259.5t-80 384v24q0 220 80.5 385.5t220.5 258.5t318 93q170 0 288.5 -39t202.5 -105v-294h-162l-21 211q-49 32 -120 48.5t-168 16.5q-125 0 -225 -72t-158 -200.5t-58 -300.5v-26q0 -174 53.5 -303.5t156.5 -201t250 -71.5
q100 0 169 17.5t122 45.5v342l-279 10v145h476v-564q-63 -59 -180.5 -108t-307.5 -49zM366 1591v26l246 237h119l248 -238v-25h-161l-147 148l-145 -148h-160z" />
    <glyph glyph-name="gcircumflex" unicode="&#x11d;" horiz-adv-x="1157" 
d="M549 -437q-78 0 -169 21.5t-160 58.5l51 153q55 -29 130 -48t146 -19q132 0 193.5 74t61.5 211v103q-53 -68 -127 -103t-170 -35q-132 0 -228 65.5t-147.5 183t-51.5 272.5v21q0 174 51.5 305t147.5 203.5t230 72.5q102 0 179 -40t129 -116l18 136h166v-1068
q0 -140 -52.5 -241t-153 -155.5t-244.5 -54.5zM554 139q89 0 149 40.5t99 114.5v498q-38 69 -99 109.5t-147 40.5q-94 0 -156.5 -54t-93.5 -148.5t-31 -218.5v-21q0 -163 69 -262t210 -99zM969 921l-77 161h241v-126zM278 1297v26l246 237h119l248 -238v-25h-161l-147 148
l-145 -148h-160z" />
    <glyph glyph-name="Gbreve" unicode="&#x11e;" horiz-adv-x="1346" 
d="M738 -21q-202 0 -350 93.5t-228 259.5t-80 384v24q0 220 80.5 385.5t220.5 258.5t318 93q170 0 288.5 -39t202.5 -105v-294h-162l-21 211q-49 32 -120 48.5t-168 16.5q-125 0 -225 -72t-158 -200.5t-58 -300.5v-26q0 -174 53.5 -303.5t156.5 -201t250 -71.5
q100 0 169 17.5t122 45.5v342l-279 10v145h476v-564q-63 -59 -180.5 -108t-307.5 -49zM673 1566q-145 0 -228 78.5t-83 203.5l2 6h150q0 -72 38.5 -117t120.5 -45q80 0 119 45t39 117h151l2 -6q-1 -125 -83.5 -203.5t-227.5 -78.5z" />
    <glyph glyph-name="gbreve" unicode="&#x11f;" horiz-adv-x="1157" 
d="M549 -437q-78 0 -169 21.5t-160 58.5l51 153q55 -29 130 -48t146 -19q132 0 193.5 74t61.5 211v103q-53 -68 -127 -103t-170 -35q-132 0 -228 65.5t-147.5 183t-51.5 272.5v21q0 174 51.5 305t147.5 203.5t230 72.5q102 0 179 -40t129 -116l18 136h166v-1068
q0 -140 -52.5 -241t-153 -155.5t-244.5 -54.5zM554 139q89 0 149 40.5t99 114.5v498q-38 69 -99 109.5t-147 40.5q-94 0 -156.5 -54t-93.5 -148.5t-31 -218.5v-21q0 -163 69 -262t210 -99zM969 921l-77 161h241v-126zM585 1272q-145 0 -228 78.5t-83 203.5l2 6h150
q0 -72 38.5 -117t120.5 -45q80 0 119 45t39 117h151l2 -6q-1 -125 -83.5 -203.5t-227.5 -78.5z" />
    <glyph glyph-name="Gdotaccent" unicode="&#x120;" horiz-adv-x="1346" 
d="M738 -21q-202 0 -350 93.5t-228 259.5t-80 384v24q0 220 80.5 385.5t220.5 258.5t318 93q170 0 288.5 -39t202.5 -105v-294h-162l-21 211q-49 32 -120 48.5t-168 16.5q-125 0 -225 -72t-158 -200.5t-58 -300.5v-26q0 -174 53.5 -303.5t156.5 -201t250 -71.5
q100 0 169 17.5t122 45.5v342l-279 10v145h476v-564q-63 -59 -180.5 -108t-307.5 -49zM569 1643v211h207v-211h-207z" />
    <glyph glyph-name="gdotaccent" unicode="&#x121;" horiz-adv-x="1157" 
d="M549 -437q-78 0 -169 21.5t-160 58.5l51 153q55 -29 130 -48t146 -19q132 0 193.5 74t61.5 211v103q-53 -68 -127 -103t-170 -35q-132 0 -228 65.5t-147.5 183t-51.5 272.5v21q0 174 51.5 305t147.5 203.5t230 72.5q102 0 179 -40t129 -116l18 136h166v-1068
q0 -140 -52.5 -241t-153 -155.5t-244.5 -54.5zM554 139q89 0 149 40.5t99 114.5v498q-38 69 -99 109.5t-147 40.5q-94 0 -156.5 -54t-93.5 -148.5t-31 -218.5v-21q0 -163 69 -262t210 -99zM969 921l-77 161h241v-126zM481 1349v211h207v-211h-207z" />
    <glyph glyph-name="uni0122" unicode="&#x122;" horiz-adv-x="1346" 
d="M738 -21q-202 0 -350 93.5t-228 259.5t-80 384v24q0 220 80.5 385.5t220.5 258.5t318 93q170 0 288.5 -39t202.5 -105v-294h-162l-21 211q-49 32 -120 48.5t-168 16.5q-125 0 -225 -72t-158 -200.5t-58 -300.5v-26q0 -174 53.5 -303.5t156.5 -201t250 -71.5
q100 0 169 17.5t122 45.5v342l-279 10v145h476v-564q-63 -59 -180.5 -108t-307.5 -49zM614 -537l-86 74q36 50 53 100t17 116v90h180v-87q0 -91 -39.5 -163.5t-124.5 -129.5z" />
    <glyph glyph-name="uni0123" unicode="&#x123;" horiz-adv-x="1157" 
d="M549 -437q-78 0 -169 21.5t-160 58.5l51 153q55 -29 130 -48t146 -19q132 0 193.5 74t61.5 211v103q-53 -68 -127 -103t-170 -35q-132 0 -228 65.5t-147.5 183t-51.5 272.5v21q0 174 51.5 305t147.5 203.5t230 72.5q102 0 179 -40t129 -116l18 136h166v-1068
q0 -140 -52.5 -241t-153 -155.5t-244.5 -54.5zM554 139q89 0 149 40.5t99 114.5v498q-38 69 -99 109.5t-147 40.5q-94 0 -156.5 -54t-93.5 -148.5t-31 -218.5v-21q0 -163 69 -262t210 -99zM969 921l-77 161h241v-126zM626 1679l86 -74q-36 -50 -53 -100t-17 -116v-90h-180
v87q0 92 39.5 164t124.5 129z" />
    <glyph glyph-name="Hcircumflex" unicode="&#x124;" horiz-adv-x="1578" 
d="M81 0v126l163 28v1147l-163 28v127h523v-127l-163 -28v-503h696v503l-163 28v127h163h197h163v-127l-163 -28v-1147l163 -28v-126h-523v126l163 28v489h-696v-489l163 -28v-126h-523zM482 1591v26l246 237h119l248 -238v-25h-161l-147 148l-145 -148h-160z" />
    <glyph glyph-name="hcircumflex" unicode="&#x125;" horiz-adv-x="1315" 
d="M49 0v126l163 28v1251l-163 28v127h360v-622q56 78 137 121t180 43q174 0 270 -104t96 -320v-524l163 -28v-126h-523v126l163 28v526q0 134 -57.5 198t-171.5 64q-81 0 -147.5 -38.5t-109.5 -104.5v-645l163 -28v-126h-523zM11 1671v26l246 237h119l248 -238v-25h-161
l-147 148l-145 -148h-160z" />
    <glyph glyph-name="Hbar" unicode="&#x126;" horiz-adv-x="1578" 
d="M81 0v126l163 28v1147l-163 28v127h523v-127l-163 -28v-503h696v503l-163 28v127h163h197h163v-127l-163 -28v-1147l163 -28v-126h-523v126l163 28v489h-696v-489l163 -28v-126h-523zM93 955v145h1392v-145h-1392z" />
    <glyph glyph-name="hbar" unicode="&#x127;" horiz-adv-x="1315" 
d="M49 0v126l163 28v1251l-163 28v127h360v-622q56 78 137 121t180 43q174 0 270 -104t96 -320v-524l163 -28v-126h-523v126l163 28v526q0 134 -57.5 198t-171.5 64q-81 0 -147.5 -38.5t-109.5 -104.5v-645l163 -28v-126h-523zM49 1154v155h603v-155h-603z" />
    <glyph glyph-name="Itilde" unicode="&#x128;" horiz-adv-x="685" 
d="M81 0v126l163 28v1147l-163 28v127h523v-127l-163 -28v-1147l163 -28v-126h-523zM102 1599l-107 22q0 64 28 117t75 85.5t105 32.5q45 0 96 -25t98.5 -50t81.5 -25q41 0 71 32.5t30 80.5l108 -28q0 -64 -28 -116t-75.5 -82.5t-105.5 -30.5q-49 0 -100 24.5t-96.5 49.5
t-79.5 25q-42 0 -71.5 -32.5t-29.5 -79.5z" />
    <glyph glyph-name="itilde" unicode="&#x129;" horiz-adv-x="652" 
d="M67 0v126l163 28v773l-163 28v127h360v-928l163 -28v-126h-523zM84 1305l-107 22q0 64 28 117t75 85.5t105 32.5q45 0 96 -25t98.5 -50t81.5 -25q41 0 71 32.5t30 80.5l108 -28q0 -64 -28 -116t-75.5 -82.5t-105.5 -30.5q-49 0 -100 24.5t-96.5 49.5t-79.5 25
q-42 0 -71.5 -32.5t-29.5 -79.5z" />
    <glyph glyph-name="Imacron" unicode="&#x12a;" horiz-adv-x="685" 
d="M81 0v126l163 28v1147l-163 28v127h523v-127l-163 -28v-1147l163 -28v-126h-523zM-19 1644v146h721v-146h-721z" />
    <glyph glyph-name="imacron" unicode="&#x12b;" horiz-adv-x="652" 
d="M67 0v126l163 28v773l-163 28v127h360v-928l163 -28v-126h-523zM-37 1350v146h721v-146h-721z" />
    <glyph glyph-name="Ibreve" unicode="&#x12c;" horiz-adv-x="685" 
d="M81 0v126l163 28v1147l-163 28v127h523v-127l-163 -28v-1147l163 -28v-126h-523zM342 1566q-145 0 -228 78.5t-83 203.5l2 6h150q0 -72 38.5 -117t120.5 -45q80 0 119 45t39 117h151l2 -6q-1 -125 -83.5 -203.5t-227.5 -78.5z" />
    <glyph glyph-name="ibreve" unicode="&#x12d;" horiz-adv-x="652" 
d="M67 0v126l163 28v773l-163 28v127h360v-928l163 -28v-126h-523zM324 1272q-145 0 -228 78.5t-83 203.5l2 6h150q0 -72 38.5 -117t120.5 -45q80 0 119 45t39 117h151l2 -6q-1 -125 -83.5 -203.5t-227.5 -78.5z" />
    <glyph glyph-name="Iogonek" unicode="&#x12e;" horiz-adv-x="685" 
d="M81 0v126l163 28v1147l-163 28v127h523v-127l-163 -28v-1147l163 -28v-126h-523zM515 -432q-105 0 -167.5 55t-62.5 154q0 80 59.5 151.5t188.5 128.5l71 -57q-70 -52 -109.5 -99.5t-39.5 -101.5q0 -42 22.5 -66t73.5 -24q27 0 50 7.5t49 18.5l33 -123
q-36 -19 -77.5 -31.5t-90.5 -12.5z" />
    <glyph glyph-name="iogonek" unicode="&#x12f;" horiz-adv-x="652" 
d="M67 0v126l163 28v773l-163 28v127h360v-928l163 -28v-126h-523zM220 1349v211h207v-211h-207zM501 -432q-105 0 -167.5 55t-62.5 154q0 80 59.5 151.5t188.5 128.5l71 -57q-70 -52 -109.5 -99.5t-39.5 -101.5q0 -42 22.5 -66t73.5 -24q27 0 50 7.5t49 18.5l33 -123
q-36 -19 -77.5 -31.5t-90.5 -12.5z" />
    <glyph glyph-name="Idotaccent" unicode="&#x130;" horiz-adv-x="685" 
d="M81 0v126l163 28v1147l-163 28v127h523v-127l-163 -28v-1147l163 -28v-126h-523zM238 1643v211h207v-211h-207z" />
    <glyph glyph-name="dotlessi" unicode="&#x131;" horiz-adv-x="652" 
d="M67 0v126l163 28v773l-163 28v127h360v-928l163 -28v-126h-523z" />
    <glyph glyph-name="IJ" unicode="&#x132;" horiz-adv-x="1845" 
d="M81 0v126l163 28v1147l-163 28v127h523v-127l-163 -28v-1147l163 -28v-126h-523zM1165 -21q-121 0 -219.5 48t-158 145t-65.5 243l2 6h189q4 -147 67.5 -216t181.5 -69q83 0 136 35.5t78.5 98t25.5 143.5v888l-194 26v129h554v-127l-163 -28v-888q0 -130 -49.5 -228
t-146 -152t-238.5 -54z" />
    <glyph glyph-name="ij" unicode="&#x133;" horiz-adv-x="1244" 
d="M67 0v126l163 28v773l-163 28v127h360v-928l163 -28v-126h-523zM220 1349v211h207v-211h-207zM729 -437q-32 0 -58 4.5t-54 13.5l13 150q14 -5 47.5 -9t51.5 -4q59 0 93.5 51.5t34.5 141.5v1016l-163 28v127h360v-1171q0 -167 -86 -257.5t-239 -90.5zM847 1349v211h207
v-211h-207z" />
    <glyph glyph-name="Jcircumflex" unicode="&#x134;" horiz-adv-x="1169" 
d="M503 -21q-121 0 -219.5 48t-158 145t-65.5 243l2 6h189q4 -147 67.5 -216t181.5 -69q83 0 136 35.5t78.5 98t25.5 143.5v888l-194 26v129h554v-127l-163 -28v-888q0 -130 -49.5 -228t-146 -152t-238.5 -54zM528 1591v26l246 237h119l248 -238v-25h-161l-147 148
l-145 -148h-160z" />
    <glyph glyph-name="jcircumflex" unicode="&#x135;" horiz-adv-x="525" 
d="M56 -437q-32 0 -58 4.5t-54 13.5l13 150q14 -5 47.5 -9t51.5 -4q59 0 93.5 51.5t34.5 141.5v1016l-163 28v127h360v-1171q0 -167 -86 -257.5t-239 -90.5zM-29 1297v26l246 237h119l248 -238v-25h-161l-147 148l-145 -148h-160z" />
    <glyph glyph-name="uni0136" unicode="&#x136;" horiz-adv-x="1501" 
d="M427 421l-105 122l691 767l4 5l-109 14v127h467v-127l-137 -25zM81 0v126l163 28v1147l-163 28v127h523v-127l-163 -28v-1147l163 -28v-126h-523zM941 0v126l120 14l-1 1l-403 559l110 155l526 -704l134 -25v-126h-486zM692 -537l-86 74q36 50 53 100t17 116v90h180v-87
q0 -91 -39.5 -163.5t-124.5 -129.5z" />
    <glyph glyph-name="uni0137" unicode="&#x137;" horiz-adv-x="1287" 
d="M64 0v126l163 28v1251l-163 28v127h360v-1406l163 -28v-126h-523zM759 0v126l110 13l-3 4l-313 404l102 157l437 -554l156 -24v-126h-489zM410 313l-73 155l470 468l5 6l-116 13v127h466v-127l-139 -26zM585 -537l-86 74q36 50 53 100t17 116v90h180v-87
q0 -91 -39.5 -163.5t-124.5 -129.5z" />
    <glyph glyph-name="kgreenlandic" unicode="&#x138;" horiz-adv-x="1257" 
d="M410 313l-73 155l470 468l5 6l-116 13v127h466v-127l-139 -26zM64 0v126l163 28v773l-163 28v127h360v-928l163 -28v-126h-523zM949 0l-398 547l104 157l411 -554l120 -24v-126h-237z" />
    <glyph glyph-name="Lacute" unicode="&#x139;" horiz-adv-x="1210" 
d="M81 0v126l163 28v1147l-163 28v127h163h197h163v-127l-163 -28v-1150h515l23 230h151v-381h-1049zM232 1582l184 272h230l2 -6l-269 -266h-138h-9z" />
    <glyph glyph-name="lacute" unicode="&#x13a;" horiz-adv-x="653" 
d="M64 0v126l163 28v1251l-163 28v127h360v-1406l163 -28v-126h-523zM206 1662l184 272h230l2 -6l-269 -266h-138h-9z" />
    <glyph glyph-name="uni013B" unicode="&#x13b;" horiz-adv-x="1210" 
d="M81 0v126l163 28v1147l-163 28v127h163h197h163v-127l-163 -28v-1150h515l23 230h151v-381h-1049zM546 -537l-86 74q36 50 53 100t17 116v90h180v-87q0 -91 -39.5 -163.5t-124.5 -129.5z" />
    <glyph glyph-name="uni013C" unicode="&#x13c;" horiz-adv-x="653" 
d="M64 0v126l163 28v1251l-163 28v127h360v-1406l163 -28v-126h-523zM268 -537l-86 74q36 50 53 100t17 116v90h180v-87q0 -91 -39.5 -163.5t-124.5 -129.5z" />
    <glyph glyph-name="Lcaron" unicode="&#x13d;" horiz-adv-x="1210" 
d="M81 0v126l163 28v1147l-163 28v127h163h197h163v-127l-163 -28v-1150h515l23 230h151v-381h-1049zM973 1076l-86 74q36 50 53 100t17 116v90h180v-87q0 -91 -39.5 -163.5t-124.5 -129.5z" />
    <glyph glyph-name="lcaron" unicode="&#x13e;" horiz-adv-x="653" 
d="M64 0v126l163 28v1251l-163 28v127h360v-1406l163 -28v-126h-523zM577 1180l-86 74q36 50 53 100t17 116v90h180v-87q0 -91 -39.5 -163.5t-124.5 -129.5z" />
    <glyph glyph-name="Ldot" unicode="&#x13f;" horiz-adv-x="1210" 
d="M81 0v126l163 28v1147l-163 28v127h163h197h163v-127l-163 -28v-1150h515l23 230h151v-381h-1049zM898 630v202h197v-202h-197z" />
    <glyph glyph-name="ldot" unicode="&#x140;" horiz-adv-x="653" 
d="M64 0v126l163 28v1251l-163 28v127h360v-1406l163 -28v-126h-523zM573 630v202h197v-202h-197z" />
    <glyph glyph-name="Lslash" unicode="&#x141;" horiz-adv-x="1210" 
d="M81 0v126l163 28v1147l-163 28v127h163h197h163v-127l-163 -28v-1150h515l23 230h151v-381h-1049zM86 577v165l589 187v-165z" />
    <glyph glyph-name="lslash" unicode="&#x142;" horiz-adv-x="653" 
d="M64 0v126l163 28v1251l-163 28v127h360v-1406l163 -28v-126h-523zM82 577v165l490 187v-165z" />
    <glyph glyph-name="Nacute" unicode="&#x143;" horiz-adv-x="1592" 
d="M83 0v126l163 28v1147l-163 28v127h163h199l714 -1135l6 2v978l-179 28v127h360h163v-127l-163 -28v-1301h-180l-733 1141l-6 -2v-985l179 -28v-126h-523zM675 1582l184 272h230l2 -6l-269 -266h-138h-9z" />
    <glyph glyph-name="nacute" unicode="&#x144;" horiz-adv-x="1343" 
d="M74 0v126l163 28v773l-163 28v127h339l14 -161q54 86 135.5 133.5t185.5 47.5q175 0 271 -102.5t96 -316.5v-529l163 -28v-126h-523v126l163 28v525q0 143 -56.5 203t-172.5 60q-85 0 -150.5 -41t-104.5 -112v-635l163 -28v-126h-523zM554 1288l184 272h230l2 -6
l-269 -266h-138h-9z" />
    <glyph glyph-name="uni0145" unicode="&#x145;" horiz-adv-x="1592" 
d="M83 0v126l163 28v1147l-163 28v127h163h199l714 -1135l6 2v978l-179 28v127h360h163v-127l-163 -28v-1301h-180l-733 1141l-6 -2v-985l179 -28v-126h-523zM737 -537l-86 74q36 50 53 100t17 116v90h180v-87q0 -91 -39.5 -163.5t-124.5 -129.5z" />
    <glyph glyph-name="uni0146" unicode="&#x146;" horiz-adv-x="1343" 
d="M74 0v126l163 28v773l-163 28v127h339l14 -161q54 86 135.5 133.5t185.5 47.5q175 0 271 -102.5t96 -316.5v-529l163 -28v-126h-523v126l163 28v525q0 143 -56.5 203t-172.5 60q-85 0 -150.5 -41t-104.5 -112v-635l163 -28v-126h-523zM616 -537l-86 74q36 50 53 100
t17 116v90h180v-87q0 -91 -39.5 -163.5t-124.5 -129.5z" />
    <glyph glyph-name="Ncaron" unicode="&#x147;" horiz-adv-x="1592" 
d="M83 0v126l163 28v1147l-163 28v127h163h199l714 -1135l6 2v978l-179 28v127h360h163v-127l-163 -28v-1301h-180l-733 1141l-6 -2v-985l179 -28v-126h-523zM1102 1854v-26l-246 -237h-119l-248 238v25h161l147 -148l145 148h160z" />
    <glyph glyph-name="ncaron" unicode="&#x148;" horiz-adv-x="1343" 
d="M74 0v126l163 28v773l-163 28v127h339l14 -161q54 86 135.5 133.5t185.5 47.5q175 0 271 -102.5t96 -316.5v-529l163 -28v-126h-523v126l163 28v525q0 143 -56.5 203t-172.5 60q-85 0 -150.5 -41t-104.5 -112v-635l163 -28v-126h-523zM981 1560v-26l-246 -237h-119
l-248 238v25h161l147 -148l145 148h160z" />
    <glyph glyph-name="napostrophe" unicode="&#x149;" horiz-adv-x="1343" 
d="M74 0v126l163 28v773l-163 28v127h339l14 -161q54 86 135.5 133.5t185.5 47.5q175 0 271 -102.5t96 -316.5v-529l163 -28v-126h-523v126l163 28v525q0 143 -56.5 203t-172.5 60q-85 0 -150.5 -41t-104.5 -112v-635l163 -28v-126h-523zM154 1180l-86 74q36 50 53 100
t17 116v90h180v-87q0 -91 -39.5 -163.5t-124.5 -129.5z" />
    <glyph glyph-name="Eng" unicode="&#x14a;" horiz-adv-x="1559" 
d="M1007 -437q-31 0 -57 4.5t-55 13.5l14 150q13 -5 47 -9t51 -4q61 0 95 51.5t34 141.5v89l-700 1112l-6 -2v-956l163 -28v-126h-523v126l163 28v1147l-163 28v127h360l700 -1112l6 2v955l-163 28v127h523v-127l-163 -28v-1390q0 -167 -86 -257.5t-240 -90.5z" />
    <glyph glyph-name="eng" unicode="&#x14b;" horiz-adv-x="1263" 
d="M797 -437q-32 0 -58.5 4.5t-54.5 13.5l14 160q13 -5 47 -8.5t52 -3.5q61 0 95 47t34 135v768q0 143 -57 203t-174 60q-85 0 -146 -32.5t-99 -91.5v-664l163 -28v-126h-523v126l163 28v773l-163 28v127h339l13 -149q54 80 134 124.5t180 44.5q174 0 270.5 -102.5
t96.5 -316.5v-772q0 -167 -86.5 -257.5t-239.5 -90.5z" />
    <glyph glyph-name="Omacron" unicode="&#x14c;" horiz-adv-x="1351" 
d="M675 -21q-141 0 -253 54t-190.5 152.5t-120 233.5t-41.5 298v21q0 162 41.5 297.5t120 234.5t190.5 153t253 54q149 0 262 -54t189.5 -153t115.5 -234.5t39 -297.5v-21q0 -163 -39 -298t-115.5 -233.5t-189.5 -152.5t-262 -54zM675 143q145 0 234.5 72t131.5 201.5
t42 300.5v23q0 170 -42.5 298.5t-132.5 201t-233 72.5q-131 0 -222 -73t-138 -201.5t-47 -297.5v-23q0 -170 47 -299.5t138 -202t222 -72.5zM315 1644v146h721v-146h-721z" />
    <glyph glyph-name="omacron" unicode="&#x14d;" horiz-adv-x="1124" 
d="M563 -21q-150 0 -258.5 70.5t-167.5 195t-59 284.5v22q0 160 59 284.5t167.5 195.5t256.5 71q150 0 258.5 -71t167.5 -195t59 -285v-22q0 -161 -59 -285.5t-167 -194.5t-257 -70zM563 133q94 0 157.5 51.5t96 141t32.5 203.5v22q0 114 -32.5 203.5t-96.5 141t-159 51.5
q-94 0 -158 -51.5t-96 -141t-32 -203.5v-22q0 -114 32 -203.5t96.5 -141t159.5 -51.5zM201 1350v146h721v-146h-721z" />
    <glyph glyph-name="Obreve" unicode="&#x14e;" horiz-adv-x="1351" 
d="M675 -21q-141 0 -253 54t-190.5 152.5t-120 233.5t-41.5 298v21q0 162 41.5 297.5t120 234.5t190.5 153t253 54q149 0 262 -54t189.5 -153t115.5 -234.5t39 -297.5v-21q0 -163 -39 -298t-115.5 -233.5t-189.5 -152.5t-262 -54zM675 143q145 0 234.5 72t131.5 201.5
t42 300.5v23q0 170 -42.5 298.5t-132.5 201t-233 72.5q-131 0 -222 -73t-138 -201.5t-47 -297.5v-23q0 -170 47 -299.5t138 -202t222 -72.5zM676 1566q-145 0 -228 78.5t-83 203.5l2 6h150q0 -72 38.5 -117t120.5 -45q80 0 119 45t39 117h151l2 -6q-1 -125 -83.5 -203.5
t-227.5 -78.5z" />
    <glyph glyph-name="obreve" unicode="&#x14f;" horiz-adv-x="1124" 
d="M563 -21q-150 0 -258.5 70.5t-167.5 195t-59 284.5v22q0 160 59 284.5t167.5 195.5t256.5 71q150 0 258.5 -71t167.5 -195t59 -285v-22q0 -161 -59 -285.5t-167 -194.5t-257 -70zM563 133q94 0 157.5 51.5t96 141t32.5 203.5v22q0 114 -32.5 203.5t-96.5 141t-159 51.5
q-94 0 -158 -51.5t-96 -141t-32 -203.5v-22q0 -114 32 -203.5t96.5 -141t159.5 -51.5zM562 1272q-145 0 -228 78.5t-83 203.5l2 6h150q0 -72 38.5 -117t120.5 -45q80 0 119 45t39 117h151l2 -6q-1 -125 -83.5 -203.5t-227.5 -78.5z" />
    <glyph glyph-name="Ohungarumlaut" unicode="&#x150;" horiz-adv-x="1351" 
d="M675 -21q-141 0 -253 54t-190.5 152.5t-120 233.5t-41.5 298v21q0 162 41.5 297.5t120 234.5t190.5 153t253 54q149 0 262 -54t189.5 -153t115.5 -234.5t39 -297.5v-21q0 -163 -39 -298t-115.5 -233.5t-189.5 -152.5t-262 -54zM675 143q145 0 234.5 72t131.5 201.5
t42 300.5v23q0 170 -42.5 298.5t-132.5 201t-233 72.5q-131 0 -222 -73t-138 -201.5t-47 -297.5v-23q0 -170 47 -299.5t138 -202t222 -72.5zM667 1582l-2 5l241 267h228l3 -6l-299 -266h-171zM403 1582h-7l184 272h211l2 -5l-240 -267h-150z" />
    <glyph glyph-name="ohungarumlaut" unicode="&#x151;" horiz-adv-x="1124" 
d="M563 -21q-150 0 -258.5 70.5t-167.5 195t-59 284.5v22q0 160 59 284.5t167.5 195.5t256.5 71q150 0 258.5 -71t167.5 -195t59 -285v-22q0 -161 -59 -285.5t-167 -194.5t-257 -70zM563 133q94 0 157.5 51.5t96 141t32.5 203.5v22q0 114 -32.5 203.5t-96.5 141t-159 51.5
q-94 0 -158 -51.5t-96 -141t-32 -203.5v-22q0 -114 32 -203.5t96.5 -141t159.5 -51.5zM553 1288l-2 5l241 267h228l3 -6l-299 -266h-171zM289 1288h-7l184 272h211l2 -5l-240 -267h-150z" />
    <glyph glyph-name="OE" unicode="&#x152;" horiz-adv-x="1987" 
d="M715 -21q-154 0 -274 54t-203 152.5t-125.5 233.5t-42.5 298v21q0 162 42.5 297.5t125 234.5t202.5 153t275 54q80 0 171 -15.5t192 -44.5v-206q-82 48 -176 74.5t-187 26.5q-149 0 -248.5 -73t-149 -201.5t-49.5 -297.5v-23q0 -170 49.5 -299.5t149 -202t248.5 -72.5
q94 0 187.5 25.5t175.5 71.5v-202q-101 -28 -192 -43.5t-171 -15.5zM850 0l55 154v1147l-55 155h1010v-350h-169l-16 195h-573v-471h557v-155h-557v-521h585l16 195h168v-349h-1021z" />
    <glyph glyph-name="oe" unicode="&#x153;" horiz-adv-x="1845" 
d="M562 -21q-149 0 -258 70.5t-167.5 195t-58.5 284.5v22q0 160 58.5 284.5t167 195.5t256.5 71q130 0 230.5 -55t164.5 -154q64 98 161.5 153.5t206.5 55.5q146 0 244.5 -60t148.5 -168.5t50 -255.5v-123h-702l-3 -5q2 -104 36.5 -184.5t99 -126.5t156.5 -46q67 0 122.5 13
t101.5 37t82 57l77 -128q-59 -57 -153.5 -95t-229.5 -38q-88 0 -163 24t-134.5 69.5t-102.5 109.5q-64 -97 -163.5 -150t-227.5 -53zM562 133q94 0 158 51.5t96.5 141t32.5 203.5v22q0 114 -33 203.5t-97 141t-159 51.5q-94 0 -157.5 -51.5t-95.5 -141t-32 -203.5v-22
q0 -114 32 -203.5t96 -141t159 -51.5zM1070 649h499v26q0 78 -27.5 139.5t-82 97t-136.5 35.5q-66 0 -120 -38.5t-89 -104.5t-46 -150z" />
    <glyph glyph-name="Racute" unicode="&#x154;" horiz-adv-x="1385" 
d="M81 0v126l163 28v1147l-163 28v126h649q159 0 268.5 -47.5t166.5 -137.5t57 -220q0 -128 -55.5 -215t-157.5 -131.5t-242 -47.5l-326 -6v-496l163 -28v-126h-523zM1042 0l-324 727l197 2l269 -582l101 -18v-129h-243zM441 805h269q165 0 240 63t75 184q0 115 -72 182
t-223 67h-289v-496zM572 1582l184 272h230l2 -6l-269 -266h-138h-9z" />
    <glyph glyph-name="racute" unicode="&#x155;" horiz-adv-x="854" 
d="M72 0v126l163 28v773l-163 28v127h339l17 -138l2 -19q46 83 113.5 130t154.5 47q31 0 63.5 -5.5t46.5 -10.5l-26 -183l-137 8q-78 5 -131 -35.5t-82 -108.5v-613l163 -28v-126h-523zM330 1288l184 272h230l2 -6l-269 -266h-138h-9z" />
    <glyph glyph-name="uni0156" unicode="&#x156;" horiz-adv-x="1385" 
d="M81 0v126l163 28v1147l-163 28v126h649q159 0 268.5 -47.5t166.5 -137.5t57 -220q0 -128 -55.5 -215t-157.5 -131.5t-242 -47.5l-326 -6v-496l163 -28v-126h-523zM1042 0l-324 727l197 2l269 -582l101 -18v-129h-243zM441 805h269q165 0 240 63t75 184q0 115 -72 182
t-223 67h-289v-496zM634 -537l-86 74q36 50 53 100t17 116v90h180v-87q0 -91 -39.5 -163.5t-124.5 -129.5z" />
    <glyph glyph-name="uni0157" unicode="&#x157;" horiz-adv-x="854" 
d="M72 0v126l163 28v773l-163 28v127h339l17 -138l2 -19q46 83 113.5 130t154.5 47q31 0 63.5 -5.5t46.5 -10.5l-26 -183l-137 8q-78 5 -131 -35.5t-82 -108.5v-613l163 -28v-126h-523zM282 -537l-86 74q36 50 53 100t17 116v90h180v-87q0 -91 -39.5 -163.5t-124.5 -129.5z
" />
    <glyph glyph-name="Rcaron" unicode="&#x158;" horiz-adv-x="1385" 
d="M81 0v126l163 28v1147l-163 28v126h649q159 0 268.5 -47.5t166.5 -137.5t57 -220q0 -128 -55.5 -215t-157.5 -131.5t-242 -47.5l-326 -6v-496l163 -28v-126h-523zM1042 0l-324 727l197 2l269 -582l101 -18v-129h-243zM441 805h269q165 0 240 63t75 184q0 115 -72 182
t-223 67h-289v-496zM999 1854v-26l-246 -237h-119l-248 238v25h161l147 -148l145 148h160z" />
    <glyph glyph-name="rcaron" unicode="&#x159;" horiz-adv-x="854" 
d="M72 0v126l163 28v773l-163 28v127h339l17 -138l2 -19q46 83 113.5 130t154.5 47q31 0 63.5 -5.5t46.5 -10.5l-26 -183l-137 8q-78 5 -131 -35.5t-82 -108.5v-613l163 -28v-126h-523zM757 1560v-26l-246 -237h-119l-248 238v25h161l147 -148l145 148h160z" />
    <glyph glyph-name="Sacute" unicode="&#x15a;" horiz-adv-x="1206" 
d="M606 -21q-133 0 -256 39t-235 120v311h153l33 -229q65 -40 141 -62t164 -22q100 0 169.5 30.5t106.5 84.5t37 126q0 67 -32 118t-105.5 89.5t-200.5 67.5q-150 35 -253.5 93.5t-157 142t-53.5 191.5q0 114 60.5 204t168.5 142t252 52q153 0 270.5 -46.5t193.5 -112.5
v-291h-153l-33 208q-45 36 -112 60t-166 24q-84 0 -148 -29.5t-100 -82.5t-36 -125q0 -63 32.5 -110t106 -82.5t196.5 -66.5q230 -57 348.5 -168.5t118.5 -275.5q0 -117 -63 -207.5t-177.5 -141.5t-269.5 -51zM482 1582l184 272h230l2 -6l-269 -266h-138h-9z" />
    <glyph glyph-name="sacute" unicode="&#x15b;" horiz-adv-x="1022" 
d="M512 -21q-109 0 -204 22t-202 68l-2 257h149l37 -155q56 -23 108.5 -33.5t113.5 -10.5q120 0 172 46t52 114q0 64 -52.5 108.5t-190.5 75.5q-196 45 -288.5 120.5t-92.5 201.5q0 88 51 157.5t142 110.5t212 41q123 0 210.5 -28t152.5 -75l10 -247h-148l-32 144
q-35 26 -83 40t-110 14q-92 0 -149.5 -43t-57.5 -108q0 -38 16.5 -66t63.5 -50.5t138 -44.5q226 -53 315.5 -135t89.5 -202q0 -137 -101.5 -229.5t-319.5 -92.5zM390 1288l184 272h230l2 -6l-269 -266h-138h-9z" />
    <glyph glyph-name="Scircumflex" unicode="&#x15c;" horiz-adv-x="1206" 
d="M606 -21q-133 0 -256 39t-235 120v311h153l33 -229q65 -40 141 -62t164 -22q100 0 169.5 30.5t106.5 84.5t37 126q0 67 -32 118t-105.5 89.5t-200.5 67.5q-150 35 -253.5 93.5t-157 142t-53.5 191.5q0 114 60.5 204t168.5 142t252 52q153 0 270.5 -46.5t193.5 -112.5
v-291h-153l-33 208q-45 36 -112 60t-166 24q-84 0 -148 -29.5t-100 -82.5t-36 -125q0 -63 32.5 -110t106 -82.5t196.5 -66.5q230 -57 348.5 -168.5t118.5 -275.5q0 -117 -63 -207.5t-177.5 -141.5t-269.5 -51zM296 1591v26l246 237h119l248 -238v-25h-161l-147 148
l-145 -148h-160z" />
    <glyph glyph-name="scircumflex" unicode="&#x15d;" horiz-adv-x="1022" 
d="M512 -21q-109 0 -204 22t-202 68l-2 257h149l37 -155q56 -23 108.5 -33.5t113.5 -10.5q120 0 172 46t52 114q0 64 -52.5 108.5t-190.5 75.5q-196 45 -288.5 120.5t-92.5 201.5q0 88 51 157.5t142 110.5t212 41q123 0 210.5 -28t152.5 -75l10 -247h-148l-32 144
q-35 26 -83 40t-110 14q-92 0 -149.5 -43t-57.5 -108q0 -38 16.5 -66t63.5 -50.5t138 -44.5q226 -53 315.5 -135t89.5 -202q0 -137 -101.5 -229.5t-319.5 -92.5zM204 1297v26l246 237h119l248 -238v-25h-161l-147 148l-145 -148h-160z" />
    <glyph glyph-name="Scedilla" unicode="&#x15e;" horiz-adv-x="1206" 
d="M606 -21q-133 0 -256 39t-235 120v311h153l33 -229q65 -40 141 -62t164 -22q100 0 169.5 30.5t106.5 84.5t37 126q0 67 -32 118t-105.5 89.5t-200.5 67.5q-150 35 -253.5 93.5t-157 142t-53.5 191.5q0 114 60.5 204t168.5 142t252 52q153 0 270.5 -46.5t193.5 -112.5
v-291h-153l-33 208q-45 36 -112 60t-166 24q-84 0 -148 -29.5t-100 -82.5t-36 -125q0 -63 32.5 -110t106 -82.5t196.5 -66.5q230 -57 348.5 -168.5t118.5 -275.5q0 -117 -63 -207.5t-177.5 -141.5t-269.5 -51zM508 -435l-7 109q72 0 115.5 24t43.5 71t-36 65t-124 25l40 173
h141l-20 -90q66 -11 109 -51t43 -119q0 -94 -79 -150.5t-226 -56.5z" />
    <glyph glyph-name="scedilla" unicode="&#x15f;" horiz-adv-x="1022" 
d="M512 -21q-109 0 -204 22t-202 68l-2 257h149l37 -155q56 -23 108.5 -33.5t113.5 -10.5q120 0 172 46t52 114q0 64 -52.5 108.5t-190.5 75.5q-196 45 -288.5 120.5t-92.5 201.5q0 88 51 157.5t142 110.5t212 41q123 0 210.5 -28t152.5 -75l10 -247h-148l-32 144
q-35 26 -83 40t-110 14q-92 0 -149.5 -43t-57.5 -108q0 -38 16.5 -66t63.5 -50.5t138 -44.5q226 -53 315.5 -135t89.5 -202q0 -137 -101.5 -229.5t-319.5 -92.5zM416 -435l-7 109q72 0 115.5 24t43.5 71t-36 65t-124 25l40 173h141l-20 -90q66 -11 109 -51t43 -119
q0 -94 -79 -150.5t-226 -56.5z" />
    <glyph glyph-name="Scaron" unicode="&#x160;" horiz-adv-x="1206" 
d="M606 -21q-133 0 -256 39t-235 120v311h153l33 -229q65 -40 141 -62t164 -22q100 0 169.5 30.5t106.5 84.5t37 126q0 67 -32 118t-105.5 89.5t-200.5 67.5q-150 35 -253.5 93.5t-157 142t-53.5 191.5q0 114 60.5 204t168.5 142t252 52q153 0 270.5 -46.5t193.5 -112.5
v-291h-153l-33 208q-45 36 -112 60t-166 24q-84 0 -148 -29.5t-100 -82.5t-36 -125q0 -63 32.5 -110t106 -82.5t196.5 -66.5q230 -57 348.5 -168.5t118.5 -275.5q0 -117 -63 -207.5t-177.5 -141.5t-269.5 -51zM909 1854v-26l-246 -237h-119l-248 238v25h161l147 -148
l145 148h160z" />
    <glyph glyph-name="scaron" unicode="&#x161;" horiz-adv-x="1022" 
d="M512 -21q-109 0 -204 22t-202 68l-2 257h149l37 -155q56 -23 108.5 -33.5t113.5 -10.5q120 0 172 46t52 114q0 64 -52.5 108.5t-190.5 75.5q-196 45 -288.5 120.5t-92.5 201.5q0 88 51 157.5t142 110.5t212 41q123 0 210.5 -28t152.5 -75l10 -247h-148l-32 144
q-35 26 -83 40t-110 14q-92 0 -149.5 -43t-57.5 -108q0 -38 16.5 -66t63.5 -50.5t138 -44.5q226 -53 315.5 -135t89.5 -202q0 -137 -101.5 -229.5t-319.5 -92.5zM817 1560v-26l-246 -237h-119l-248 238v25h161l147 -148l145 148h160z" />
    <glyph glyph-name="uni0162" unicode="&#x162;" horiz-adv-x="1406" 
d="M440 0v126l163 28v1153h-330l-29 -202h-148v351h1210v-351h-146l-30 202h-330v-1153l163 -28v-126h-523zM608 -435l-7 109q72 0 115.5 24t43.5 71t-36 65t-124 25l40 173h141l-20 -90q66 -11 109 -51t43 -119q0 -94 -79 -150.5t-226 -56.5z" />
    <glyph glyph-name="uni0163" unicode="&#x163;" horiz-adv-x="730" 
d="M456 -17q-120 0 -190.5 70.5t-70.5 225.5v657h-171v146h171v261h197v-261h235v-146h-235v-657q0 -78 31 -115t83 -37q35 0 78 6.5t67 11.5l27 -129q-43 -13 -105.5 -23t-116.5 -10zM317 -435l-7 109q72 0 115.5 24t43.5 71t-36 65t-124 25l40 173h141l-20 -90
q66 -11 109 -51t43 -119q0 -94 -79 -150.5t-226 -56.5z" />
    <glyph glyph-name="Tcaron" unicode="&#x164;" horiz-adv-x="1406" 
d="M440 0v126l163 28v1153h-330l-29 -202h-148v351h1210v-351h-146l-30 202h-330v-1153l163 -28v-126h-523zM1009 1854v-26l-246 -237h-119l-248 238v25h161l147 -148l145 148h160z" />
    <glyph glyph-name="tcaron" unicode="&#x165;" horiz-adv-x="730" 
d="M456 -17q-120 0 -190.5 70.5t-70.5 225.5v657h-171v146h171v261h197v-261h235v-146h-235v-657q0 -78 31 -115t83 -37q35 0 78 6.5t67 11.5l27 -129q-43 -13 -105.5 -23t-116.5 -10zM577 1180l-86 74q36 50 53 100t17 116v90h180v-87q0 -91 -39.5 -163.5t-124.5 -129.5z
" />
    <glyph glyph-name="Tbar" unicode="&#x166;" horiz-adv-x="1406" 
d="M440 0v126l163 28v1153h-330l-29 -202h-148v351h1210v-351h-146l-30 202h-330v-1153l163 -28v-126h-523zM401 651v155h603v-155h-603z" />
    <glyph glyph-name="tbar" unicode="&#x167;" horiz-adv-x="730" 
d="M456 -17q-120 0 -190.5 70.5t-70.5 225.5v657h-171v146h171v261h197v-261h235v-146h-235v-657q0 -78 31 -115t83 -37q35 0 78 6.5t67 11.5l27 -129q-43 -13 -105.5 -23t-116.5 -10zM23 589v155h603v-155h-603z" />
    <glyph glyph-name="Utilde" unicode="&#x168;" horiz-adv-x="1522" 
d="M755 -21q-150 0 -268 59t-186 168.5t-68 262.5v832l-163 28v127h523v-127l-163 -28v-832q0 -109 41.5 -183t115.5 -111.5t171 -37.5q98 0 173.5 37t118 111t42.5 184v832l-163 28v127h523v-127l-163 -28v-832q0 -158 -66.5 -267.5t-186.5 -166t-281 -56.5zM521 1599
l-107 22q0 64 28 117t75 85.5t105 32.5q45 0 96 -25t98.5 -50t81.5 -25q41 0 71 32.5t30 80.5l108 -28q0 -64 -28 -116t-75.5 -82.5t-105.5 -30.5q-49 0 -100 24.5t-96.5 49.5t-79.5 25q-42 0 -71.5 -32.5t-29.5 -79.5z" />
    <glyph glyph-name="utilde" unicode="&#x169;" horiz-adv-x="1245" 
d="M550 -21q-176 0 -275 113t-99 352v483l-124 28v127h124h197v-640q0 -173 51 -238t159 -65q105 0 173.5 42.5t103.5 120.5v625l-145 28v127h145h197v-928l124 -28v-126h-301l-13 160q-51 -87 -131.5 -134t-185.5 -47zM366 1305l-107 22q0 64 28 117t75 85.5t105 32.5
q45 0 96 -25t98.5 -50t81.5 -25q41 0 71 32.5t30 80.5l108 -28q0 -64 -28 -116t-75.5 -82.5t-105.5 -30.5q-49 0 -100 24.5t-96.5 49.5t-79.5 25q-42 0 -71.5 -32.5t-29.5 -79.5z" />
    <glyph glyph-name="Umacron" unicode="&#x16a;" horiz-adv-x="1522" 
d="M755 -21q-150 0 -268 59t-186 168.5t-68 262.5v832l-163 28v127h523v-127l-163 -28v-832q0 -109 41.5 -183t115.5 -111.5t171 -37.5q98 0 173.5 37t118 111t42.5 184v832l-163 28v127h523v-127l-163 -28v-832q0 -158 -66.5 -267.5t-186.5 -166t-281 -56.5zM400 1644v146
h721v-146h-721z" />
    <glyph glyph-name="umacron" unicode="&#x16b;" horiz-adv-x="1245" 
d="M550 -21q-176 0 -275 113t-99 352v483l-124 28v127h124h197v-640q0 -173 51 -238t159 -65q105 0 173.5 42.5t103.5 120.5v625l-145 28v127h145h197v-928l124 -28v-126h-301l-13 160q-51 -87 -131.5 -134t-185.5 -47zM245 1350v146h721v-146h-721z" />
    <glyph glyph-name="Ubreve" unicode="&#x16c;" horiz-adv-x="1522" 
d="M755 -21q-150 0 -268 59t-186 168.5t-68 262.5v832l-163 28v127h523v-127l-163 -28v-832q0 -109 41.5 -183t115.5 -111.5t171 -37.5q98 0 173.5 37t118 111t42.5 184v832l-163 28v127h523v-127l-163 -28v-832q0 -158 -66.5 -267.5t-186.5 -166t-281 -56.5zM761 1566
q-145 0 -228 78.5t-83 203.5l2 6h150q0 -72 38.5 -117t120.5 -45q80 0 119 45t39 117h151l2 -6q-1 -125 -83.5 -203.5t-227.5 -78.5z" />
    <glyph glyph-name="ubreve" unicode="&#x16d;" horiz-adv-x="1245" 
d="M550 -21q-176 0 -275 113t-99 352v483l-124 28v127h124h197v-640q0 -173 51 -238t159 -65q105 0 173.5 42.5t103.5 120.5v625l-145 28v127h145h197v-928l124 -28v-126h-301l-13 160q-51 -87 -131.5 -134t-185.5 -47zM606 1272q-145 0 -228 78.5t-83 203.5l2 6h150
q0 -72 38.5 -117t120.5 -45q80 0 119 45t39 117h151l2 -6q-1 -125 -83.5 -203.5t-227.5 -78.5z" />
    <glyph glyph-name="Uring" unicode="&#x16e;" horiz-adv-x="1522" 
d="M755 -21q-150 0 -268 59t-186 168.5t-68 262.5v832l-163 28v127h523v-127l-163 -28v-832q0 -109 41.5 -183t115.5 -111.5t171 -37.5q98 0 173.5 37t118 111t42.5 184v832l-163 28v127h523v-127l-163 -28v-832q0 -158 -66.5 -267.5t-186.5 -166t-281 -56.5zM762 1519
q-87 0 -147.5 54t-60.5 140q0 84 60.5 141t147.5 57q85 0 145 -56.5t60 -141.5q0 -86 -60 -140t-145 -54zM762 1609q42 0 72 29.5t30 74.5t-30 76t-72 31q-44 0 -74.5 -31t-30.5 -76q0 -43 31 -73.5t74 -30.5z" />
    <glyph glyph-name="uring" unicode="&#x16f;" horiz-adv-x="1245" 
d="M550 -21q-176 0 -275 113t-99 352v483l-124 28v127h124h197v-640q0 -173 51 -238t159 -65q105 0 173.5 42.5t103.5 120.5v625l-145 28v127h145h197v-928l124 -28v-126h-301l-13 160q-51 -87 -131.5 -134t-185.5 -47zM607 1225q-87 0 -147.5 54t-60.5 140q0 84 60.5 141
t147.5 57q85 0 145 -56.5t60 -141.5q0 -86 -60 -140t-145 -54zM607 1315q42 0 72 29.5t30 74.5t-30 76t-72 31q-44 0 -74.5 -31t-30.5 -76q0 -43 31 -73.5t74 -30.5z" />
    <glyph glyph-name="Uhungarumlaut" unicode="&#x170;" horiz-adv-x="1522" 
d="M755 -21q-150 0 -268 59t-186 168.5t-68 262.5v832l-163 28v127h523v-127l-163 -28v-832q0 -109 41.5 -183t115.5 -111.5t171 -37.5q98 0 173.5 37t118 111t42.5 184v832l-163 28v127h523v-127l-163 -28v-832q0 -158 -66.5 -267.5t-186.5 -166t-281 -56.5zM752 1582l-2 5
l241 267h228l3 -6l-299 -266h-171zM488 1582h-7l184 272h211l2 -5l-240 -267h-150z" />
    <glyph glyph-name="uhungarumlaut" unicode="&#x171;" horiz-adv-x="1245" 
d="M550 -21q-176 0 -275 113t-99 352v483l-124 28v127h124h197v-640q0 -173 51 -238t159 -65q105 0 173.5 42.5t103.5 120.5v625l-145 28v127h145h197v-928l124 -28v-126h-301l-13 160q-51 -87 -131.5 -134t-185.5 -47zM597 1288l-2 5l241 267h228l3 -6l-299 -266h-171z
M333 1288h-7l184 272h211l2 -5l-240 -267h-150z" />
    <glyph glyph-name="Uogonek" unicode="&#x172;" horiz-adv-x="1522" 
d="M755 -21q-150 0 -268 59t-186 168.5t-68 262.5v832l-163 28v127h523v-127l-163 -28v-832q0 -109 41.5 -183t115.5 -111.5t171 -37.5q98 0 173.5 37t118 111t42.5 184v832l-163 28v127h523v-127l-163 -28v-832q0 -158 -66.5 -267.5t-186.5 -166t-281 -56.5zM815 -432
q-105 0 -167.5 55t-62.5 154q0 80 59.5 151.5t188.5 128.5l71 -57q-70 -52 -109.5 -99.5t-39.5 -101.5q0 -42 22.5 -66t73.5 -24q27 0 50 7.5t49 18.5l33 -123q-36 -19 -77.5 -31.5t-90.5 -12.5z" />
    <glyph glyph-name="uogonek" unicode="&#x173;" horiz-adv-x="1245" 
d="M550 -21q-176 0 -275 113t-99 352v483l-124 28v127h124h197v-640q0 -173 51 -238t159 -65q105 0 173.5 42.5t103.5 120.5v625l-145 28v127h145h197v-928l124 -28v-126h-301l-13 160q-51 -87 -131.5 -134t-185.5 -47zM1092 -432q-105 0 -167.5 55t-62.5 154
q0 80 59.5 151.5t188.5 128.5l71 -57q-70 -52 -109.5 -99.5t-39.5 -101.5q0 -42 22.5 -66t73.5 -24q27 0 50 7.5t49 18.5l33 -123q-36 -19 -77.5 -31.5t-90.5 -12.5z" />
    <glyph glyph-name="Wcircumflex" unicode="&#x174;" horiz-adv-x="2129" 
d="M535 0l-340 1314l-123 15v127h472v-127l-151 -23l190 -801l44 -187l6 -1l58 187l293 952h173l296 -952l57 -198h6l52 198l188 802l-163 23v127h464v-127l-115 -15l-326 -1314h-187l-316 1008l-40 147h-6l-39 -147l-317 -1008h-176zM758 1591v26l246 237h119l248 -238v-25
h-161l-147 148l-145 -148h-160z" />
    <glyph glyph-name="wcircumflex" unicode="&#x175;" horiz-adv-x="1823" 
d="M458 0l-285 941l-121 14v127h447v-127l-133 -22l149 -539l34 -128h6l44 128l235 688h166l224 -686l48 -152h6l47 152l151 538l-136 21v127h437v-127l-120 -17l-280 -938h-187l-219 650l-52 174l-6 -1l-51 -173l-235 -650h-169zM605 1297v26l246 237h119l248 -238v-25
h-161l-147 148l-145 -148h-160z" />
    <glyph glyph-name="Ycircumflex" unicode="&#x176;" horiz-adv-x="1461" 
d="M470 0v126l163 28v376l-448 780l-120 19v127h502v-127l-166 -19l309 -572l21 -39l1 2l20 37l324 572l-172 19v127h492v-127l-127 -19l-440 -765v-391l163 -28v-126h-522zM424 1591v26l246 237h119l248 -238v-25h-161l-147 148l-145 -148h-160z" />
    <glyph glyph-name="ycircumflex" unicode="&#x177;" horiz-adv-x="1192" 
d="M309 -437q-23 0 -60 5.5t-57 10.5l20 155q17 -2 47 -3.5t41 -1.5q63 0 102.5 48t73.5 131l47 114l-383 917l-116 16v127h454v-127l-131 -20l211 -541l51 -141h6l250 682l-138 20v127h445v-127l-112 -16l-426 -1105q-30 -78 -72.5 -139.5t-104 -96.5t-148.5 -35zM289 1297
v26l246 237h119l248 -238v-25h-161l-147 148l-145 -148h-160z" />
    <glyph glyph-name="Ydieresis" unicode="&#x178;" horiz-adv-x="1461" 
d="M470 0v126l163 28v376l-448 780l-120 19v127h502v-127l-166 -19l309 -572l21 -39l1 2l20 37l324 572l-172 19v127h492v-127l-127 -19l-440 -765v-391l163 -28v-126h-522zM839 1643v211h207v-211h-207zM416 1643v211h207v-211h-207z" />
    <glyph glyph-name="Zacute" unicode="&#x179;" horiz-adv-x="1197" 
d="M90 0v149l757 1153h-566l-18 -188h-158v342h969v-145l-761 -1158h619l18 207h157v-360h-1017zM464 1582l184 272h230l2 -6l-269 -266h-138h-9z" />
    <glyph glyph-name="zacute" unicode="&#x17a;" horiz-adv-x="1032" 
d="M88 0v138l589 792h-403l-25 -182h-148v334h820v-134l-595 -798h461l26 183h147v-333h-872zM395 1288l184 272h230l2 -6l-269 -266h-138h-9z" />
    <glyph glyph-name="Zdotaccent" unicode="&#x17b;" horiz-adv-x="1197" 
d="M90 0v149l757 1153h-566l-18 -188h-158v342h969v-145l-761 -1158h619l18 207h157v-360h-1017zM481 1643v211h207v-211h-207z" />
    <glyph glyph-name="zdotaccent" unicode="&#x17c;" horiz-adv-x="1032" 
d="M88 0v138l589 792h-403l-25 -182h-148v334h820v-134l-595 -798h461l26 183h147v-333h-872zM412 1349v211h207v-211h-207z" />
    <glyph glyph-name="Zcaron" unicode="&#x17d;" horiz-adv-x="1197" 
d="M90 0v149l757 1153h-566l-18 -188h-158v342h969v-145l-761 -1158h619l18 207h157v-360h-1017zM891 1854v-26l-246 -237h-119l-248 238v25h161l147 -148l145 148h160z" />
    <glyph glyph-name="zcaron" unicode="&#x17e;" horiz-adv-x="1032" 
d="M88 0v138l589 792h-403l-25 -182h-148v334h820v-134l-595 -798h461l26 183h147v-333h-872zM822 1560v-26l-246 -237h-119l-248 238v25h161l147 -148l145 148h160z" />
    <glyph glyph-name="longs" unicode="&#x17f;" horiz-adv-x="734" 
d="M57 0v126l163 28v1065q0 173 90.5 267.5t252.5 94.5q34 0 68.5 -5.5t76.5 -15.5l-25 -145q-19 5 -41 8t-47 3q-87 0 -132.5 -54.5t-45.5 -152.5v-1065l163 -28v-126h-523z" />
    <glyph glyph-name="uni018F" unicode="&#x18f;" horiz-adv-x="1402" 
d="M699 -21q-202 0 -340.5 79.5t-209.5 228.5t-71 357v110h1006v54q0 152 -51 267.5t-153.5 181t-257.5 65.5q-114 0 -195 -23.5t-160 -60.5l-49 139q52 35 153 67.5t251 32.5q207 0 354.5 -84t226 -234.5t78.5 -350.5v-163q0 -193 -78 -343.5t-209.5 -236.5t-294.5 -86z
M699 133q115 0 199 62.5t132 171.5t53 249v3h-808v-33q0 -138 43.5 -240t137 -157.5t243.5 -55.5z" />
    <glyph glyph-name="florin" unicode="&#x192;" horiz-adv-x="767" 
d="M109 -437q-32 0 -58 4.5t-54 13.5l13 150q14 -5 47.5 -9t51.5 -4q59 0 93.5 51.5t34.5 141.5v1025h-170v146h170v137q0 173 90 267.5t252 94.5q34 0 68.5 -5.5t76.5 -15.5l-24 -150q-18 4 -43.5 7t-52.5 3q-87 0 -128.5 -51.5t-41.5 -149.5v-137h196v-146h-196v-1025
q0 -167 -86 -257.5t-239 -90.5z" />
    <glyph glyph-name="Ohorn" unicode="&#x1a0;" horiz-adv-x="1351" 
d="M675 -21q-141 0 -253 54t-190.5 152.5t-120 233.5t-41.5 298v21q0 162 41.5 297.5t120 234.5t190.5 153t253 54q149 0 262 -54t189.5 -153t115.5 -234.5t39 -297.5v-21q0 -163 -39 -298t-115.5 -233.5t-189.5 -152.5t-262 -54zM675 143q145 0 234.5 72t131.5 201.5
t42 300.5v23q0 170 -42.5 298.5t-132.5 201t-233 72.5q-131 0 -222 -73t-138 -201.5t-47 -297.5v-23q0 -170 47 -299.5t138 -202t222 -72.5zM986 1188l-1 135q122 0 166 77.5t42 192.5h178q0 -118 -38.5 -209.5t-123 -143.5t-223.5 -52z" />
    <glyph glyph-name="ohorn" unicode="&#x1a1;" horiz-adv-x="1163" 
d="M563 -21q-150 0 -258.5 70.5t-167.5 195t-59 284.5v22q0 160 59 284.5t167.5 195.5t256.5 71q150 0 258.5 -71t167.5 -195t59 -285v-22q0 -161 -59 -285.5t-167 -194.5t-257 -70zM563 133q94 0 157.5 51.5t96 141t32.5 203.5v22q0 114 -32.5 203.5t-96.5 141t-159 51.5
q-94 0 -158 -51.5t-96 -141t-32 -203.5v-22q0 -114 32 -203.5t96.5 -141t159.5 -51.5zM818 839l-1 120q83 0 123 27.5t52.5 81.5t12.5 133h158q0 -107 -31 -188.5t-106 -127.5t-208 -46z" />
    <glyph glyph-name="Uhorn" unicode="&#x1af;" horiz-adv-x="1724" 
d="M773 -21q-160 0 -282 56.5t-190 166t-68 267.5v832l-163 28v127h524v-127l-163 -28v-832q0 -110 43 -185t120 -113t179 -38q108 0 189 38t126 113t45 185v832l-163 28v127h360v-987q0 -158 -70.5 -267.5t-195.5 -166t-291 -56.5zM1280 1103l1 147q138 -4 193.5 71
t55.5 228h173v-5q4 -214 -98.5 -326.5t-324.5 -114.5z" />
    <glyph glyph-name="uhorn" unicode="&#x1b0;" horiz-adv-x="1339" 
d="M550 -21q-176 0 -275 113t-99 352v483l-124 28v127h124h197v-640q0 -173 51 -238t159 -65q105 0 173.5 42.5t103.5 120.5v625l-145 28v127h145h197v-928l124 -28v-126h-301l-13 160q-51 -87 -131.5 -134t-185.5 -47zM1006 839l-1 120q83 0 123 27.5t52.5 81.5t12.5 133
h158q0 -107 -31 -188.5t-106 -127.5t-208 -46z" />
    <glyph glyph-name="uni01F0" unicode="&#x1f0;" horiz-adv-x="525" 
d="M56 -437q-32 0 -58 4.5t-54 13.5l13 150q14 -5 47.5 -9t51.5 -4q59 0 93.5 51.5t34.5 141.5v1016l-163 28v127h360v-1171q0 -167 -86 -257.5t-239 -90.5zM584 1560v-26l-246 -237h-119l-248 238v25h161l147 -148l145 148h160z" />
    <glyph glyph-name="Aringacute" unicode="&#x1fa;" horiz-adv-x="1533" 
d="M70 0v126l108 15l509 1315h169l500 -1315l107 -15v-126h-418v126l110 19l-96 268h-583l-99 -268l110 -19v-126h-417zM537 578h462l-214 592l-12 33h-6l-12 -33zM771 1368q-85 0 -144 52.5t-59 136.5q0 82 59 137.5t144 55.5q83 0 141.5 -55t58.5 -138q0 -84 -58.5 -136.5
t-141.5 -52.5zM771 1458q41 0 69 28t28 71t-28 72.5t-69 29.5q-42 0 -71 -29.5t-29 -72.5q0 -41 29.5 -70t70.5 -29zM693 1806l123 231h193l2 -6l-188 -225h-121h-9z" />
    <glyph glyph-name="aringacute" unicode="&#x1fb;" horiz-adv-x="1132" 
d="M424 -21q-169 0 -257 82.5t-88 232.5q0 103 56.5 179.5t163.5 119t256 42.5h193v106q0 98 -59.5 152t-167.5 54q-68 0 -118 -16.5t-91 -45.5l-21 -151h-152v248q73 59 170 89.5t215 30.5q197 0 309 -94t112 -269v-521q0 -21 0.5 -41t2.5 -40l105 -11v-126h-283
q-9 44 -14 79t-7 70q-57 -73 -142.5 -121.5t-182.5 -48.5zM453 144q98 0 179 47t116 113v196h-200q-136 0 -204 -65t-68 -145q0 -71 44 -108.5t133 -37.5zM534 1074q-85 0 -144 52.5t-59 136.5q0 82 59 137.5t144 55.5q83 0 141.5 -55t58.5 -138q0 -84 -58.5 -136.5
t-141.5 -52.5zM534 1164q41 0 69 28t28 71t-28 72.5t-69 29.5q-42 0 -71 -29.5t-29 -72.5q0 -41 29.5 -70t70.5 -29zM456 1512l123 231h193l2 -6l-188 -225h-121h-9z" />
    <glyph glyph-name="AEacute" unicode="&#x1fc;" horiz-adv-x="2096" 
d="M51 0v126l141 20l793 1310h967v-322h-168l-15 167h-508l20 -466h590v-155h-584l22 -526h522l16 167h167v-321h-1058v126l156 27l-8 197h-556l-121 -210l82 -14v-126h-458zM651 529h446l-31 710l-5 2l-8 -14zM1037 1582l184 272h230l2 -6l-269 -266h-138h-9z" />
    <glyph glyph-name="aeacute" unicode="&#x1fd;" horiz-adv-x="1737" 
d="M435 -21q-175 0 -265.5 85t-90.5 238q0 102 57 178t163.5 118t256.5 42h193v101q0 98 -59.5 152t-167.5 54q-68 0 -118 -16.5t-91 -45.5l-21 -151h-152v248q73 59 170 89.5t215 30.5q122 0 211 -41.5t138 -123.5q43 53 96 90t114.5 56t128.5 19q143 0 242 -58.5t151 -168
t52 -261.5v-119h-710l-2 -5q1 -159 79.5 -258t233.5 -99q104 0 170 27.5t144 78.5l68 -138q-55 -45 -149 -83.5t-233 -38.5q-271 0 -428 211q-70 -104 -170.5 -157.5t-225.5 -53.5zM454 144q68 0 128.5 27t107 72t70.5 99q-6 49 -8.5 84t-2.5 78v1h-200q-136 0 -204.5 -63.5
t-68.5 -143.5q0 -65 44 -109.5t134 -44.5zM950 640h511v31q0 122 -60 199t-188 77q-76 0 -133 -38.5t-90.5 -106.5t-41.5 -157zM771 1288l184 272h230l2 -6l-269 -266h-138h-9z" />
    <glyph glyph-name="Oslashacute" unicode="&#x1fe;" horiz-adv-x="1351" 
d="M675 -21q-141 0 -253 54t-190.5 152.5t-120 233.5t-41.5 298v21q0 162 41.5 297.5t120 234.5t190.5 153t253 54q149 0 262 -54t189.5 -153t115.5 -234.5t39 -297.5v-21q0 -163 -39 -298t-115.5 -233.5t-189.5 -152.5t-262 -54zM675 143q145 0 234.5 72t131.5 201.5
t42 300.5v23q0 170 -42.5 298.5t-132.5 201t-233 72.5q-131 0 -222 -73t-138 -201.5t-47 -297.5v-23q0 -170 47 -299.5t138 -202t222 -72.5zM123 -94l956 1611h149l-956 -1611h-149zM555 1582l184 272h230l2 -6l-269 -266h-138h-9z" />
    <glyph glyph-name="oslashacute" unicode="&#x1ff;" horiz-adv-x="1124" 
d="M563 -21q-150 0 -258.5 70.5t-167.5 195t-59 284.5v22q0 160 59 284.5t167.5 195.5t256.5 71q150 0 258.5 -71t167.5 -195t59 -285v-22q0 -161 -59 -285.5t-167 -194.5t-257 -70zM563 133q94 0 157.5 51.5t96 141t32.5 203.5v22q0 114 -32.5 203.5t-96.5 141t-159 51.5
q-94 0 -158 -51.5t-96 -141t-32 -203.5v-22q0 -114 32 -203.5t96.5 -141t159.5 -51.5zM165 -131l664 1344h129l-664 -1344h-129zM441 1288l184 272h230l2 -6l-269 -266h-138h-9z" />
    <glyph glyph-name="uni0218" unicode="&#x218;" horiz-adv-x="1206" 
d="M606 -21q-133 0 -256 39t-235 120v311h153l33 -229q65 -40 141 -62t164 -22q100 0 169.5 30.5t106.5 84.5t37 126q0 67 -32 118t-105.5 89.5t-200.5 67.5q-150 35 -253.5 93.5t-157 142t-53.5 191.5q0 114 60.5 204t168.5 142t252 52q153 0 270.5 -46.5t193.5 -112.5
v-291h-153l-33 208q-45 36 -112 60t-166 24q-84 0 -148 -29.5t-100 -82.5t-36 -125q0 -63 32.5 -110t106 -82.5t196.5 -66.5q230 -57 348.5 -168.5t118.5 -275.5q0 -117 -63 -207.5t-177.5 -141.5t-269.5 -51zM544 -537l-86 74q36 50 53 100t17 116v90h180v-87
q0 -91 -39.5 -163.5t-124.5 -129.5z" />
    <glyph glyph-name="uni0219" unicode="&#x219;" horiz-adv-x="1022" 
d="M512 -21q-109 0 -204 22t-202 68l-2 257h149l37 -155q56 -23 108.5 -33.5t113.5 -10.5q120 0 172 46t52 114q0 64 -52.5 108.5t-190.5 75.5q-196 45 -288.5 120.5t-92.5 201.5q0 88 51 157.5t142 110.5t212 41q123 0 210.5 -28t152.5 -75l10 -247h-148l-32 144
q-35 26 -83 40t-110 14q-92 0 -149.5 -43t-57.5 -108q0 -38 16.5 -66t63.5 -50.5t138 -44.5q226 -53 315.5 -135t89.5 -202q0 -137 -101.5 -229.5t-319.5 -92.5zM452 -537l-86 74q36 50 53 100t17 116v90h180v-87q0 -91 -39.5 -163.5t-124.5 -129.5z" />
    <glyph glyph-name="uni021A" unicode="&#x21a;" horiz-adv-x="1406" 
d="M440 0v126l163 28v1153h-330l-29 -202h-148v351h1210v-351h-146l-30 202h-330v-1153l163 -28v-126h-523zM644 -537l-86 74q36 50 53 100t17 116v90h180v-87q0 -91 -39.5 -163.5t-124.5 -129.5z" />
    <glyph glyph-name="uni021B" unicode="&#x21b;" horiz-adv-x="730" 
d="M456 -17q-120 0 -190.5 70.5t-70.5 225.5v657h-171v146h171v261h197v-261h235v-146h-235v-657q0 -78 31 -115t83 -37q35 0 78 6.5t67 11.5l27 -129q-43 -13 -105.5 -23t-116.5 -10zM353 -537l-86 74q36 50 53 100t17 116v90h180v-87q0 -91 -39.5 -163.5t-124.5 -129.5z
" />
    <glyph glyph-name="uni0237" unicode="&#x237;" horiz-adv-x="525" 
d="M56 -437q-32 0 -58 4.5t-54 13.5l13 150q14 -5 47.5 -9t51.5 -4q59 0 93.5 51.5t34.5 141.5v1016l-163 28v127h360v-1171q0 -167 -86 -257.5t-239 -90.5z" />
    <glyph glyph-name="uni0259" unicode="&#x259;" horiz-adv-x="1115" 
d="M547 -19q-147 0 -245.5 59.5t-148.5 168t-50 255.5v123h704v3v2q-2 103 -36.5 184t-99 127t-155.5 46q-101 0 -176 -29.5t-130 -78.5l-77 129q58 56 153 94.5t230 38.5q150 0 261 -69t171.5 -191t60.5 -281v-44q0 -155 -63.5 -276.5t-168.5 -191.5t-230 -69zM547 135
q65 0 118.5 37.5t88.5 103.5t46 151l-2 5h-498v-25q0 -78 27.5 -139.5t82.5 -97t137 -35.5z" />
    <glyph glyph-name="uni02BC" unicode="&#x2bc;" horiz-adv-x="418" 
d="M157 993l-112 74q47 71 71 145.5t24 160.5v187h197v-184q0 -67 -22 -138t-62.5 -135t-95.5 -110z" />
    <glyph glyph-name="circumflex" unicode="&#x2c6;" horiz-adv-x="693" 
d="M40 1297v26l246 237h119l248 -238v-25h-161l-147 148l-145 -148h-160z" />
    <glyph glyph-name="caron" unicode="&#x2c7;" horiz-adv-x="693" 
d="M653 1560v-26l-246 -237h-119l-248 238v25h161l147 -148l145 148h160z" />
    <glyph glyph-name="uni02C9" unicode="&#x2c9;" horiz-adv-x="801" 
d="M40 1350v146h721v-146h-721z" />
    <glyph glyph-name="breve" unicode="&#x2d8;" horiz-adv-x="702" 
d="M351 1272q-145 0 -228 78.5t-83 203.5l2 6h150q0 -72 38.5 -117t120.5 -45q80 0 119 45t39 117h151l2 -6q-1 -125 -83.5 -203.5t-227.5 -78.5z" />
    <glyph glyph-name="dotaccent" unicode="&#x2d9;" horiz-adv-x="287" 
d="M40 1349v211h207v-211h-207z" />
    <glyph glyph-name="ring" unicode="&#x2da;" horiz-adv-x="493" 
d="M248 1225q-87 0 -147.5 54t-60.5 140q0 84 60.5 141t147.5 57q85 0 145 -56.5t60 -141.5q0 -86 -60 -140t-145 -54zM248 1315q42 0 72 29.5t30 74.5t-30 76t-72 31q-44 0 -74.5 -31t-30.5 -76q0 -43 31 -73.5t74 -30.5z" />
    <glyph glyph-name="ogonek" unicode="&#x2db;" horiz-adv-x="478" 
d="M270 -432q-105 0 -167.5 55t-62.5 154q0 80 59.5 151.5t188.5 128.5l71 -57q-70 -52 -109.5 -99.5t-39.5 -101.5q0 -42 22.5 -66t73.5 -24q27 0 50 7.5t49 18.5l33 -123q-36 -19 -77.5 -31.5t-90.5 -12.5z" />
    <glyph glyph-name="tilde" unicode="&#x2dc;" horiz-adv-x="773" 
d="M147 1305l-107 22q0 64 28 117t75 85.5t105 32.5q45 0 96 -25t98.5 -50t81.5 -25q41 0 71 32.5t30 80.5l108 -28q0 -64 -28 -116t-75.5 -82.5t-105.5 -30.5q-49 0 -100 24.5t-96.5 49.5t-79.5 25q-42 0 -71.5 -32.5t-29.5 -79.5z" />
    <glyph glyph-name="hungarumlaut" unicode="&#x2dd;" horiz-adv-x="821" 
d="M311 1288l-2 5l241 267h228l3 -6l-299 -266h-171zM47 1288h-7l184 272h211l2 -5l-240 -267h-150z" />
    <glyph glyph-name="uni02F3" unicode="&#x2f3;" horiz-adv-x="473" 
d="M238 -510q-87 0 -147.5 54t-60.5 140q0 84 60.5 141t147.5 57q85 0 145 -56.5t60 -141.5q0 -86 -60 -140t-145 -54zM238 -420q42 0 72 29.5t30 74.5t-30 76t-72 31q-44 0 -74.5 -31t-30.5 -76q0 -43 31 -73.5t74 -30.5z" />
    <glyph glyph-name="gravecomb" unicode="&#x300;" 
d="M456 1288h-9h-138l-269 266l2 6h230z" />
    <glyph glyph-name="acutecomb" unicode="&#x301;" 
d="M40 1288l184 272h230l2 -6l-269 -266h-138h-9z" />
    <glyph glyph-name="uni0302" unicode="&#x302;" 
d="M40 1297v26l246 237h119l248 -238v-25h-161l-147 148l-145 -148h-160z" />
    <glyph glyph-name="tildecomb" unicode="&#x303;" 
d="M147 1305l-107 22q0 64 28 117t75 85.5t105 32.5q45 0 96 -25t98.5 -50t81.5 -25q41 0 71 32.5t30 80.5l108 -28q0 -64 -28 -116t-75.5 -82.5t-105.5 -30.5q-49 0 -100 24.5t-96.5 49.5t-79.5 25q-42 0 -71.5 -32.5t-29.5 -79.5z" />
    <glyph glyph-name="uni0304" unicode="&#x304;" 
d="M40 1350v146h721v-146h-721z" />
    <glyph glyph-name="uni0306" unicode="&#x306;" 
d="M351 1272q-145 0 -228 78.5t-83 203.5l2 6h150q0 -72 38.5 -117t120.5 -45q80 0 119 45t39 117h151l2 -6q-1 -125 -83.5 -203.5t-227.5 -78.5z" />
    <glyph glyph-name="uni0307" unicode="&#x307;" 
d="M40 1349v211h207v-211h-207z" />
    <glyph glyph-name="uni0308" unicode="&#x308;" 
d="M463 1349v211h207v-211h-207zM40 1349v211h207v-211h-207z" />
    <glyph glyph-name="hookabovecomb" unicode="&#x309;" 
d="M59 1253l-1 152q76 4 108.5 19t32.5 52q0 36 -44 53.5t-115 17.5l7 108q146 0 225 -50t79 -133q0 -69 -43.5 -105t-107.5 -45l-1 -69h-140z" />
    <glyph glyph-name="uni030A" unicode="&#x30a;" 
d="M248 1225q-87 0 -147.5 54t-60.5 140q0 84 60.5 141t147.5 57q85 0 145 -56.5t60 -141.5q0 -86 -60 -140t-145 -54zM248 1315q42 0 72 29.5t30 74.5t-30 76t-72 31q-44 0 -74.5 -31t-30.5 -76q0 -43 31 -73.5t74 -30.5z" />
    <glyph glyph-name="uni030B" unicode="&#x30b;" 
d="M311 1288l-2 5l241 267h228l3 -6l-299 -266h-171zM47 1288h-7l184 272h211l2 -5l-240 -267h-150z" />
    <glyph glyph-name="uni030C" unicode="&#x30c;" 
d="M653 1560v-26l-246 -237h-119l-248 238v25h161l147 -148l145 148h160z" />
    <glyph glyph-name="uni030F" unicode="&#x30f;" 
d="M510 1288h-171l-299 266l3 6h228l241 -267zM774 1288h-150l-240 267l2 5h211l184 -272h-7z" />
    <glyph glyph-name="uni0312" unicode="&#x312;" 
d="M204 1679l86 -74q-36 -50 -53 -100t-17 -116v-90h-180v87q0 92 39.5 164t124.5 129z" />
    <glyph glyph-name="uni031B" unicode="&#x31b;" 
d="M41 839l-1 120q83 0 123 27.5t52.5 81.5t12.5 133h158q0 -107 -31 -188.5t-106 -127.5t-208 -46z" />
    <glyph glyph-name="dotbelowcomb" unicode="&#x323;" 
d="M40 -398v211h207v-211h-207z" />
    <glyph glyph-name="uni0325" unicode="&#x325;" 
d="M248 -510q-87 0 -147.5 54t-60.5 140q0 84 60.5 141t147.5 57q85 0 145 -56.5t60 -141.5q0 -86 -60 -140t-145 -54zM248 -420q42 0 72 29.5t30 74.5t-30 76t-72 31q-44 0 -74.5 -31t-30.5 -76q0 -43 31 -73.5t74 -30.5z" />
    <glyph glyph-name="uni0326.1" unicode="&#x326;" 
d="M126 -537l-86 74q36 50 53 100t17 116v90h180v-87q0 -91 -39.5 -163.5t-124.5 -129.5z" />
    <glyph glyph-name="uni0327" unicode="&#x327;" 
d="M48 -435l-7 109q72 0 115.5 24t43.5 71t-36 65t-124 25l40 173h141l-20 -90q66 -11 109 -51t43 -119q0 -94 -79 -150.5t-226 -56.5z" />
    <glyph glyph-name="uni0328" unicode="&#x328;" 
d="M270 -432q-105 0 -167.5 55t-62.5 154q0 80 59.5 151.5t188.5 128.5l71 -57q-70 -52 -109.5 -99.5t-39.5 -101.5q0 -42 22.5 -66t73.5 -24q27 0 50 7.5t49 18.5l33 -123q-36 -19 -77.5 -31.5t-90.5 -12.5z" />
    <glyph glyph-name="uni0335" unicode="&#x335;" 
d="M40 663v155h603v-155h-603z" />
    <glyph glyph-name="uni0336" unicode="&#x336;" 
d="M40 955v145h1392v-145h-1392z" />
    <glyph glyph-name="uni0337" unicode="&#x337;" 
d="M40 578v165l490 187v-165z" />
    <glyph glyph-name="uni0338" unicode="&#x338;" 
d="M40 -135l664 1344h129l-664 -1344h-129z" />
    <glyph glyph-name="tonos" unicode="&#x384;" horiz-adv-x="493" 
d="M140 1248l52 374h208l-162 -374h-98z" />
    <glyph glyph-name="dieresistonos" unicode="&#x385;" horiz-adv-x="765" 
d="M310 1396l35 269h213l-137 -269h-111zM40 1248v200h198v-200h-198zM527 1248v200h198v-200h-198z" />
    <glyph glyph-name="Alphatonos" unicode="&#x386;" horiz-adv-x="1533" 
d="M70 0v126l108 15l509 1315h169l500 -1315l107 -15v-126h-418v126l110 19l-96 268h-583l-99 -268l110 -19v-126h-417zM537 578h462l-214 592l-12 33h-6l-12 -33zM281 1248l52 374h208l-162 -374h-98z" />
    <glyph glyph-name="anoteleia" unicode="&#x387;" horiz-adv-x="516" 
d="M160 630v202h197v-202h-197z" />
    <glyph glyph-name="Epsilontonos" unicode="&#x388;" horiz-adv-x="1497" 
d="M272 0v126l163 28v1147l-163 28v127h1078v-350h-158l-22 198h-538v-474h537v-155h-537v-527h570l22 201h157v-349h-1109zM-3 1248l52 374h208l-162 -374h-98z" />
    <glyph glyph-name="Etatonos" unicode="&#x389;" horiz-adv-x="1789" 
d="M292 0v126l163 28v1147l-163 28v127h523v-127l-163 -28v-503h696v503l-163 28v127h163h197h163v-127l-163 -28v-1147l163 -28v-126h-523v126l163 28v489h-696v-489l163 -28v-126h-523zM-3 1248l52 374h208l-162 -374h-98z" />
    <glyph glyph-name="Iotatonos" unicode="&#x38a;" horiz-adv-x="896" 
d="M292 0v126l163 28v1147l-163 28v127h523v-127l-163 -28v-1147l163 -28v-126h-523zM-3 1248l52 374h208l-162 -374h-98z" />
    <glyph glyph-name="Omicrontonos" unicode="&#x38c;" horiz-adv-x="1351" 
d="M675 -21q-141 0 -253 54t-190.5 152.5t-120 233.5t-41.5 298v21q0 162 41.5 297.5t120 234.5t190.5 153t253 54q149 0 262 -54t189.5 -153t115.5 -234.5t39 -297.5v-21q0 -163 -39 -298t-115.5 -233.5t-189.5 -152.5t-262 -54zM675 143q145 0 234.5 72t131.5 201.5
t42 300.5v23q0 170 -42.5 298.5t-132.5 201t-233 72.5q-131 0 -222 -73t-138 -201.5t-47 -297.5v-23q0 -170 47 -299.5t138 -202t222 -72.5zM-2 1248l52 374h208l-162 -374h-98z" />
    <glyph glyph-name="Upsilontonos" unicode="&#x38e;" horiz-adv-x="1671" 
d="M680 0v126l163 28v376l-448 780l-120 19v127h502v-127l-166 -19l309 -572l21 -39l1 2l20 37l324 572l-172 19v127h492v-127l-127 -19l-440 -765v-391l163 -28v-126h-522zM22 1248l52 374h208l-162 -374h-98z" />
    <glyph glyph-name="Omegatonos" unicode="&#x38f;" horiz-adv-x="1361" 
d="M130 0v154h275q-92 62 -159.5 158t-104.5 212.5t-37 237.5v55q0 195 73 343.5t203.5 232.5t302.5 84t303 -84t204.5 -232.5t73.5 -343.5v-55q0 -121 -37 -237.5t-104 -212.5t-159 -158h281v-154h-497v197q101 17 172 87t109 190.5t38 287.5v57q0 162 -46 274.5
t-132 170.5t-206 58q-119 0 -205 -58t-131.5 -170.5t-45.5 -274.5v-57q0 -168 39 -288.5t111.5 -190.5t174.5 -86v-197h-496zM-3 1248l52 374h208l-162 -374h-98z" />
    <glyph glyph-name="iotadieresistonos" unicode="&#x390;" horiz-adv-x="669" 
d="M437 -21q-119 0 -181 71t-62 229v648l-163 28v127h361v-814q0 -74 26 -101.5t71 -27.5q25 0 49 7t43 19l44 -133q-46 -31 -90 -42t-98 -11zM237 1396l35 269h213l-137 -269h-111zM-33 1248v200h198v-200h-198zM454 1248v200h198v-200h-198z" />
    <glyph glyph-name="Alpha" unicode="&#x391;" horiz-adv-x="1533" 
d="M70 0v126l108 15l509 1315h169l500 -1315l107 -15v-126h-418v126l110 19l-96 268h-583l-99 -268l110 -19v-126h-417zM537 578h462l-214 592l-12 33h-6l-12 -33z" />
    <glyph glyph-name="Beta" unicode="&#x392;" horiz-adv-x="1322" 
d="M81 0v126l163 28v1147l-163 28v127h163h465q228 0 356.5 -98.5t128.5 -295.5q0 -97 -61.5 -173.5t-162.5 -113.5q88 -18 151 -70.5t97.5 -128t34.5 -165.5q0 -200 -130 -305.5t-352 -105.5h-690zM441 154h330q135 0 209.5 66.5t74.5 188.5q0 86 -27.5 147t-84 94
t-142.5 33h-360v-529zM441 837h319q106 0 171.5 61.5t65.5 167.5q0 118 -74 176.5t-214 58.5h-268v-464z" />
    <glyph glyph-name="Gamma" unicode="&#x393;" horiz-adv-x="1216" 
d="M77 0v126l163 28v1147l-163 28v127h1056v-322h-169l-15 167h-512v-1147l163 -28v-126h-523z" />
    <glyph glyph-name="uni0394" unicode="&#x394;" horiz-adv-x="1432" 
d="M31 0l616 1456h169l576 -1456h-1361zM295 154h837l-370 972l-30 78h-6l-28 -68z" />
    <glyph glyph-name="uni0394" unicode="&#x2206;" horiz-adv-x="1432" 
d="M31 0l616 1456h169l576 -1456h-1361zM295 154h837l-370 972l-30 78h-6l-28 -68z" />
    <glyph glyph-name="Epsilon" unicode="&#x395;" horiz-adv-x="1306" 
d="M81 0v126l163 28v1147l-163 28v127h1078v-350h-158l-22 198h-538v-474h537v-155h-537v-527h570l22 201h157v-349h-1109z" />
    <glyph glyph-name="Zeta" unicode="&#x396;" horiz-adv-x="1197" 
d="M90 0v149l757 1153h-566l-18 -188h-158v342h969v-145l-761 -1158h619l18 207h157v-360h-1017z" />
    <glyph glyph-name="Eta" unicode="&#x397;" horiz-adv-x="1578" 
d="M81 0v126l163 28v1147l-163 28v127h523v-127l-163 -28v-503h696v503l-163 28v127h163h197h163v-127l-163 -28v-1147l163 -28v-126h-523v126l163 28v489h-696v-489l163 -28v-126h-523z" />
    <glyph glyph-name="Theta" unicode="&#x398;" horiz-adv-x="1403" 
d="M713 -21q-141 0 -257.5 55t-200.5 155t-130 234.5t-46 293.5v21q0 159 46 293.5t130 234.5t200.5 155.5t257.5 55.5q145 0 265 -55.5t207.5 -155.5t135 -234.5t47.5 -293.5v-21q0 -159 -47.5 -293.5t-135 -234.5t-207.5 -155t-265 -55zM713 140q145 0 247.5 73t156.5 203
t54 301v23q0 169 -55 299t-157.5 203t-245.5 73q-137 0 -235 -73.5t-150 -203t-52 -298.5v-23q0 -171 52 -301t150 -203t235 -73zM462 659v154h509v-154h-509z" />
    <glyph glyph-name="Iota" unicode="&#x399;" horiz-adv-x="685" 
d="M81 0v126l163 28v1147l-163 28v127h523v-127l-163 -28v-1147l163 -28v-126h-523z" />
    <glyph glyph-name="Kappa" unicode="&#x39a;" horiz-adv-x="1501" 
d="M427 421l-105 122l691 767l4 5l-109 14v127h467v-127l-137 -25zM81 0v126l163 28v1147l-163 28v127h523v-127l-163 -28v-1147l163 -28v-126h-523zM941 0v126l120 14l-1 1l-403 559l110 155l526 -704l134 -25v-126h-486z" />
    <glyph glyph-name="Lambda" unicode="&#x39b;" horiz-adv-x="1450" 
d="M52 0v126l105 15l482 1315h170l482 -1315l106 -15v-126h-418v126l111 19l-336 948l-27 78h-6l-30 -85l-334 -941l112 -19v-126h-417z" />
    <glyph glyph-name="Mu" unicode="&#x39c;" horiz-adv-x="1982" 
d="M94 0v126l163 28v1147l-163 28v127h163h263l469 -1105h6l454 1105h439v-127l-163 -28v-1147l163 -28v-126h-523v126l172 28v422v611l-5 1l-473 -1136h-131l-489 1134l-5 -1l7 -609v-422l176 -28v-126h-523z" />
    <glyph glyph-name="Nu" unicode="&#x39d;" horiz-adv-x="1592" 
d="M83 0v126l163 28v1147l-163 28v127h163h199l714 -1135l6 2v978l-179 28v127h360h163v-127l-163 -28v-1301h-180l-733 1141l-6 -2v-985l179 -28v-126h-523z" />
    <glyph glyph-name="Xi" unicode="&#x39e;" horiz-adv-x="1179" 
d="M66 0v321h168l15 -167h690l16 167h167v-321h-1056zM278 678v155h623v-155h-623zM66 1134v322h1045v-322h-169l-15 167h-677l-15 -167h-169z" />
    <glyph glyph-name="Omicron" unicode="&#x39f;" horiz-adv-x="1351" 
d="M675 -21q-141 0 -253 54t-190.5 152.5t-120 233.5t-41.5 298v21q0 162 41.5 297.5t120 234.5t190.5 153t253 54q149 0 262 -54t189.5 -153t115.5 -234.5t39 -297.5v-21q0 -163 -39 -298t-115.5 -233.5t-189.5 -152.5t-262 -54zM675 143q145 0 234.5 72t131.5 201.5
t42 300.5v23q0 170 -42.5 298.5t-132.5 201t-233 72.5q-131 0 -222 -73t-138 -201.5t-47 -297.5v-23q0 -170 47 -299.5t138 -202t222 -72.5z" />
    <glyph glyph-name="Pi" unicode="&#x3a0;" horiz-adv-x="1576" 
d="M77 0v126l163 28v1147l-163 28v127h1428v-127l-163 -28v-1147l163 -28v-126h-523v126l163 28v1147h-708v-1147l163 -28v-126h-523z" />
    <glyph glyph-name="Rho" unicode="&#x3a1;" horiz-adv-x="1297" 
d="M81 0v126l163 28v1147l-163 28v127h163h506q156 0 266 -54.5t168 -152.5t58 -229q0 -132 -58 -230t-168 -152t-266 -54h-309v-430l163 -28v-126h-523zM441 738h309q148 0 221.5 79.5t73.5 200.5t-73.5 202t-221.5 81h-309v-563z" />
    <glyph glyph-name="Sigma" unicode="&#x3a3;" horiz-adv-x="1181" 
d="M79 0v147l479 581l-479 581v147h976v-322h-169l-15 167h-547l-3 -5l446 -557v-24l-446 -555l3 -5h597l15 167h168v-322h-1025z" />
    <glyph glyph-name="Tau" unicode="&#x3a4;" horiz-adv-x="1406" 
d="M440 0v126l163 28v1153h-330l-29 -202h-148v351h1210v-351h-146l-30 202h-330v-1153l163 -28v-126h-523z" />
    <glyph glyph-name="Upsilon" unicode="&#x3a5;" horiz-adv-x="1461" 
d="M470 0v126l163 28v376l-448 780l-120 19v127h502v-127l-166 -19l309 -572l21 -39l1 2l20 37l324 572l-172 19v127h492v-127l-127 -19l-440 -765v-391l163 -28v-126h-522z" />
    <glyph glyph-name="Phi" unicode="&#x3a6;" horiz-adv-x="1471" 
d="M474 0v126l163 28v99h-8q-157 0 -281.5 59t-196.5 165t-72 245t72 247t196.5 170.5t281.5 62.5h8v99l-163 28v127h523v-127l-163 -28v-99h6q158 0 282.5 -62t197 -169.5t72.5 -246.5t-73 -245.5t-197.5 -166t-281.5 -59.5h-6v-99l163 -28v-126h-523zM629 408h8v640h-8
q-113 0 -192.5 -40t-121 -113t-41.5 -173t41.5 -170t120.5 -107t193 -37zM842 408q112 0 191 37.5t121 108t42 170.5q0 99 -42 171.5t-121 112.5t-191 40h-8v-640h8z" />
    <glyph glyph-name="Chi" unicode="&#x3a7;" horiz-adv-x="1404" 
d="M80 0v126l126 22l451 591l-418 568l-127 22v127h472v-127l-137 -13l322 -449l306 449l-140 13v127h475v-127l-133 -22l-395 -568l438 -591l129 -22v-126h-478v126l141 13l-345 473l-344 -473l133 -13v-126h-476z" />
    <glyph glyph-name="Psi" unicode="&#x3a8;" horiz-adv-x="1665" 
d="M557 0v126l163 28v206q-152 16 -265 88t-175 193t-62 284v376l-163 28v127h359v-531q0 -113 37 -198t104.5 -137t158.5 -65l6 1v775l-163 28v127h523v-127l-163 -28v-776l6 -2q96 13 167.5 64t110.5 137t39 201v531h360v-127l-163 -28v-376q0 -163 -65 -284.5
t-182 -193.5t-273 -88v-205l163 -28v-126h-523z" />
    <glyph glyph-name="uni03A9" unicode="&#x3a9;" horiz-adv-x="1354" 
d="M123 0v154h275q-92 62 -159.5 158t-104.5 212.5t-37 237.5v55q0 195 73 343.5t203.5 232.5t302.5 84t303 -84t204.5 -232.5t73.5 -343.5v-55q0 -121 -37 -237.5t-104 -212.5t-159 -158h281v-154h-497v197q101 17 172 87t109 190.5t38 287.5v57q0 162 -46 274.5
t-132 170.5t-206 58q-119 0 -205 -58t-131.5 -170.5t-45.5 -274.5v-57q0 -168 39 -288.5t111.5 -190.5t174.5 -86v-197h-496z" />
    <glyph glyph-name="uni03A9" unicode="&#x2126;" horiz-adv-x="1354" 
d="M123 0v154h275q-92 62 -159.5 158t-104.5 212.5t-37 237.5v55q0 195 73 343.5t203.5 232.5t302.5 84t303 -84t204.5 -232.5t73.5 -343.5v-55q0 -121 -37 -237.5t-104 -212.5t-159 -158h281v-154h-497v197q101 17 172 87t109 190.5t38 287.5v57q0 162 -46 274.5
t-132 170.5t-206 58q-119 0 -205 -58t-131.5 -170.5t-45.5 -274.5v-57q0 -168 39 -288.5t111.5 -190.5t174.5 -86v-197h-496z" />
    <glyph glyph-name="Iotadieresis" unicode="&#x3aa;" horiz-adv-x="685" 
d="M81 0v126l163 28v1147l-163 28v127h523v-127l-163 -28v-1147l163 -28v-126h-523zM450 1643v211h207v-211h-207zM27 1643v211h207v-211h-207z" />
    <glyph glyph-name="Upsilondieresis" unicode="&#x3ab;" horiz-adv-x="1461" 
d="M470 0v126l163 28v376l-448 780l-120 19v127h502v-127l-166 -19l309 -572l21 -39l1 2l20 37l324 572l-172 19v127h492v-127l-127 -19l-440 -765v-391l163 -28v-126h-522zM839 1643v211h207v-211h-207zM416 1643v211h207v-211h-207z" />
    <glyph glyph-name="alphatonos" unicode="&#x3ac;" horiz-adv-x="1208" 
d="M525 -21q-132 0 -226.5 65.5t-144.5 182.5t-50 273v21q0 174 50 305t145 203.5t228 72.5q100 0 176.5 -39.5t129.5 -113.5l17 133h167v-786q0 -84 20 -116t56 -32q8 0 16.5 1.5t14.5 4.5l24 -141q-30 -20 -60 -27t-67 -7q-71 0 -117 37.5t-67 119.5
q-53 -78 -130.5 -117.5t-181.5 -39.5zM575 133q87 0 146.5 46t98.5 130v460q-27 55 -62 95t-80 61.5t-101 21.5q-94 0 -155 -54.5t-91 -150.5t-30 -221v-21q0 -165 67 -266t207 -101zM502 1248l52 374h208l-162 -374h-98z" />
    <glyph glyph-name="epsilontonos" unicode="&#x3ad;" horiz-adv-x="1097" 
d="M558 -19q-135 0 -237 39t-159 111.5t-57 173.5q0 186 201 251q-86 35 -134 96t-48 134q0 101 52.5 171t149.5 106.5t232 36.5q122 0 220 -40t154 -110.5t53 -163.5l-2 -6h-186q0 47 -32 85t-86 60.5t-121 22.5q-116 0 -176.5 -47.5t-60.5 -114.5q0 -74 54 -116.5
t169 -42.5h210v-150h-210q-120 0 -180.5 -42.5t-60.5 -129.5q0 -73 68.5 -123t186.5 -50q112 0 184.5 56t72.5 132h186l2 -6q3 -108 -57 -182.5t-162.5 -112.5t-225.5 -38zM474 1248l52 374h208l-162 -374h-98z" />
    <glyph glyph-name="etatonos" unicode="&#x3ae;" horiz-adv-x="1208" 
d="M871 -415v1094q0 143 -57 205.5t-173 62.5q-85 0 -146.5 -33.5t-99.5 -93.5v-820h-197v821q0 57 -20 79t-54 22q-20 0 -45.5 -7.5t-38.5 -13.5l-44 141q41 28 93 44t105 16q80 0 129.5 -35t61.5 -104q2 -7 3 -14.5t2 -12.5q54 79 133.5 122.5t178.5 43.5
q177 0 271.5 -97.5t94.5 -321.5v-1098h-197zM564 1248l52 374h208l-162 -374h-98z" />
    <glyph glyph-name="iotatonos" unicode="&#x3af;" horiz-adv-x="669" 
d="M437 -21q-119 0 -181 71t-62 229v648l-163 28v127h361v-814q0 -74 26 -101.5t71 -27.5q25 0 49 7t43 19l44 -133q-46 -31 -90 -42t-98 -11zM240 1248l52 374h208l-162 -374h-98z" />
    <glyph glyph-name="upsilondieresistonos" unicode="&#x3b0;" horiz-adv-x="1220" 
d="M630 -21q-192 0 -296.5 110.5t-104.5 339.5v392q0 58 -20 79.5t-55 21.5q-20 0 -45.5 -7.5t-38.5 -13.5l-45 141q42 28 94.5 44t104.5 16q98 0 150 -56t52 -179v-440q0 -153 52 -223.5t142 -70.5q89 0 154.5 61t101.5 159t36 210q-3 126 -36 254.5t-88 264.5h206
q34 -71 60 -151.5t40.5 -172.5t14.5 -195q0 -165 -55 -297.5t-162 -209.5t-262 -77zM534 1396l35 269h213l-137 -269h-111zM264 1248v200h198v-200h-198zM751 1248v200h198v-200h-198z" />
    <glyph glyph-name="alpha" unicode="&#x3b1;" horiz-adv-x="1208" 
d="M525 -21q-132 0 -226.5 65.5t-144.5 182.5t-50 273v21q0 174 50 305t145 203.5t228 72.5q100 0 176.5 -39.5t129.5 -113.5l17 133h167v-786q0 -84 20 -116t56 -32q8 0 16.5 1.5t14.5 4.5l24 -141q-30 -20 -60 -27t-67 -7q-71 0 -117 37.5t-67 119.5
q-53 -78 -130.5 -117.5t-181.5 -39.5zM575 133q87 0 146.5 46t98.5 130v460q-27 55 -62 95t-80 61.5t-101 21.5q-94 0 -155 -54.5t-91 -150.5t-30 -221v-21q0 -165 67 -266t207 -101z" />
    <glyph glyph-name="beta" unicode="&#x3b2;" horiz-adv-x="1172" 
d="M143 -383v1456q0 111 61 202.5t163 146.5t225 55q130 0 227 -50t150.5 -139t53.5 -205q0 -91 -49.5 -167t-136.5 -122q119 -44 185 -142t66 -227q0 -139 -57.5 -239t-160 -153.5t-237.5 -53.5q-82 0 -158.5 22t-134.5 68v-452h-197zM613 133q129 0 203.5 80t74.5 208
q0 75 -29.5 139.5t-84 104.5t-128.5 40h-143v155h82q122 0 180 60.5t58 166.5q0 63 -28 116.5t-80.5 86t-125.5 32.5q-71 0 -128 -33t-90.5 -89t-33.5 -127v-831q44 -51 114.5 -80t158.5 -29z" />
    <glyph glyph-name="gamma" unicode="&#x3b3;" horiz-adv-x="1086" 
d="M456 -416v467l-287 813q-14 39 -30.5 50.5t-49.5 11.5q-9 0 -15 -1l-36 -6l-18 149q25 11 64.5 18.5t70.5 7.5q48 0 79 -11.5t52.5 -42t40.5 -87.5l208 -634l17 -84h6l21 84l201 615l-135 21v127h418v-127l-86 -14l-324 -881v-476h-197z" />
    <glyph glyph-name="delta" unicode="&#x3b4;" horiz-adv-x="1164" 
d="M583 -20q-150 0 -259 68t-168 187t-59 274v21q0 114 42.5 209.5t115.5 160t165 87.5l4 11q-96 38 -149.5 109t-53.5 161q0 91 45.5 157.5t131 102.5t204.5 36q75 0 154 -23t159 -62l-44 -133q-38 15 -83.5 28.5t-94 22t-95.5 8.5q-83 0 -130.5 -36.5t-47.5 -96.5
q0 -47 48.5 -94.5t174.5 -90.5q141 -49 235 -127.5t141 -186t47 -243.5v-21q0 -155 -59 -274t-167 -187t-257 -68zM583 133q93 0 156.5 48.5t96 133.5t32.5 194v21q0 87 -36 167t-100.5 136.5t-148.5 73.5q-94 0 -158 -49t-97 -134.5t-33 -193.5v-21q0 -109 32.5 -194
t96.5 -133.5t159 -48.5z" />
    <glyph glyph-name="epsilon" unicode="&#x3b5;" horiz-adv-x="1097" 
d="M558 -19q-135 0 -237 39t-159 111.5t-57 173.5q0 186 201 251q-86 35 -134 96t-48 134q0 101 52.5 171t149.5 106.5t232 36.5q122 0 220 -40t154 -110.5t53 -163.5l-2 -6h-186q0 47 -32 85t-86 60.5t-121 22.5q-116 0 -176.5 -47.5t-60.5 -114.5q0 -74 54 -116.5
t169 -42.5h210v-150h-210q-120 0 -180.5 -42.5t-60.5 -129.5q0 -73 68.5 -123t186.5 -50q112 0 184.5 56t72.5 132h186l2 -6q3 -108 -57 -182.5t-162.5 -112.5t-225.5 -38z" />
    <glyph glyph-name="zeta" unicode="&#x3b6;" horiz-adv-x="1070" 
d="M747 -383l-104 86q33 38 53.5 68.5t30.5 58t10 54.5q0 35 -36 60.5t-116 46.5l-90 23q-171 45 -238.5 127t-67.5 241q0 80 31 179t93.5 208.5t158.5 222.5l268 304l-2 5h-623v155h855v-123l-342 -421q-86 -102 -139.5 -184.5t-78 -163t-24.5 -177.5t32.5 -146.5
t110.5 -66.5l133 -38q102 -30 159.5 -53t80.5 -60t23 -109q-1 -48 -28 -104t-67.5 -107t-82.5 -86z" />
    <glyph glyph-name="eta" unicode="&#x3b7;" horiz-adv-x="1208" 
d="M871 -415v1094q0 143 -57 205.5t-173 62.5q-85 0 -146.5 -33.5t-99.5 -93.5v-820h-197v821q0 57 -20 79t-54 22q-20 0 -45.5 -7.5t-38.5 -13.5l-44 141q41 28 93 44t105 16q80 0 129.5 -35t61.5 -104q2 -7 3 -14.5t2 -12.5q54 79 133.5 122.5t178.5 43.5
q177 0 271.5 -97.5t94.5 -321.5v-1098h-197z" />
    <glyph glyph-name="theta" unicode="&#x3b8;" horiz-adv-x="1162" 
d="M591 -21q-214 0 -339 149t-125 427v345q0 278 124 427.5t338 149.5q215 0 340 -149.5t125 -427.5v-345q0 -279 -124 -427.5t-339 -148.5zM591 133q131 0 198.5 96t67.5 286v133h-533v-133q0 -189 69 -285.5t198 -96.5zM324 803h533v139q0 189 -68.5 284.5t-199.5 95.5
q-129 0 -197 -95.5t-68 -284.5v-139z" />
    <glyph glyph-name="iota" unicode="&#x3b9;" horiz-adv-x="669" 
d="M437 -21q-119 0 -181 71t-62 229v648l-163 28v127h361v-814q0 -74 26 -101.5t71 -27.5q25 0 49 7t43 19l44 -133q-46 -31 -90 -42t-98 -11z" />
    <glyph glyph-name="kappa" unicode="&#x3ba;" horiz-adv-x="1257" 
d="M410 313l-73 155l470 468l5 6l-116 13v127h466v-127l-139 -26zM64 0v126l163 28v773l-163 28v127h360v-928l163 -28v-126h-523zM949 0l-398 547l104 157l411 -554l120 -24v-126h-237z" />
    <glyph glyph-name="lambda" unicode="&#x3bb;" horiz-adv-x="1135" 
d="M1003 -17q-65 0 -109 15.5t-77 59.5t-64 129l-234 600l-6 -1l-30 -116l-230 -670h-218l389 1026l-99 239q-22 54 -47.5 76t-66.5 22q-9 0 -23.5 -1t-23.5 -1l-1 145q17 4 55 8t64 4q97 0 145.5 -39t76.5 -124l441 -1119q18 -49 39.5 -69t55.5 -20h20.5t15.5 2l6 -154
q-15 -4 -36.5 -8t-42.5 -4z" />
    <glyph glyph-name="uni03BC" unicode="&#x3bc;" horiz-adv-x="1315" 
d="M229 -416v1343l-163 28v127h163h196v-622q0 -189 55 -258t157 -69q99 0 160 36.5t92 107.5v650l-163 28v127h360v-928l163 -28v-126h-340l-9 109q-44 -64 -108 -97t-147 -33q-72 0 -126 16.5t-94 51.5v-463h-196z" />
    <glyph glyph-name="nu" unicode="&#x3bd;" horiz-adv-x="1143" 
d="M523 0l-385 940l-112 15v127h454v-127l-141 -20l240 -616l28 -87h6l32 87l223 616l-145 20v127h453v-127l-114 -15l-366 -940h-173z" />
    <glyph glyph-name="xi" unicode="&#x3be;" horiz-adv-x="1004" 
d="M761 -394l-103 86q55 64 74.5 97.5t19.5 86.5q0 42 -35 63.5t-119 39.5l-56 13q-148 34 -246.5 87t-148 141.5t-49.5 227.5q0 147 82.5 247t230.5 147q-117 42 -183 118.5t-66 171.5q0 161 132 252t358 91q67 0 137.5 -11t117.5 -27l-29 -152q-62 17 -116 26.5t-108 9.5
q-146 0 -220.5 -53.5t-74.5 -131.5q0 -103 77 -160.5t241 -57.5h143v-155h-143q-125 0 -210 -35t-128.5 -106t-43.5 -178q0 -123 77 -198t191 -101l113 -24q96 -23 154 -45.5t84 -62t26 -112.5q-1 -48 -28 -103t-67.5 -106t-83.5 -86z" />
    <glyph glyph-name="omicron" unicode="&#x3bf;" horiz-adv-x="1149" 
d="M563 -21q-150 0 -258.5 70.5t-167.5 195t-59 284.5v22q0 160 59 284.5t167.5 195.5t256.5 71q150 0 258.5 -71t167.5 -195t59 -285v-22q0 -161 -59 -285.5t-167 -194.5t-257 -70zM563 133q94 0 157.5 51.5t96 141t32.5 203.5v22q0 114 -32.5 203.5t-96.5 141t-159 51.5
q-94 0 -158 -51.5t-96 -141t-32 -203.5v-22q0 -114 32 -203.5t96.5 -141t159.5 -51.5z" />
    <glyph glyph-name="pi" unicode="&#x3c0;" horiz-adv-x="1281" 
d="M995 -21q-119 0 -181 71t-62 229v647h-353v-926h-197v926h-127v156h1039v-156h-164v-658q0 -74 26 -101.5t71 -27.5q25 0 49 7t43 19l44 -133q-46 -31 -90 -42t-98 -11z" />
    <glyph glyph-name="rho" unicode="&#x3c1;" horiz-adv-x="1156" 
d="M134 -416v993q0 165 58.5 282.5t160 180t229.5 62.5q152 0 256.5 -72t158.5 -202.5t54 -306.5v-21q0 -157 -49.5 -274t-142.5 -182t-224 -65q-97 0 -173 30t-131 88v-513h-197zM574 133q140 0 210 102t70 265v21q0 126 -29 222t-89.5 150t-153.5 54q-82 0 -138 -54
t-84.5 -139t-28.5 -178v-303q37 -67 96.5 -103.5t146.5 -36.5z" />
    <glyph glyph-name="uni03C2" unicode="&#x3c2;" horiz-adv-x="1092" 
d="M747 -374l-103 86q54 64 73.5 98t19.5 86q0 43 -34 64t-119 40q-240 52 -362.5 181.5t-122.5 338.5v42q0 152 57.5 274t164 194t252.5 72q126 0 220.5 -47.5t147 -134t49.5 -205.5l-2 -6h-178q0 104 -61 171t-176 67q-91 0 -153 -53t-93 -140.5t-31 -191.5v-42
q0 -90 38.5 -161t116 -122t193.5 -83q104 -28 165.5 -53.5t89 -65.5t27.5 -114q-1 -47 -28.5 -102.5t-68 -106.5t-82.5 -86z" />
    <glyph glyph-name="sigma" unicode="&#x3c3;" horiz-adv-x="1246" 
d="M589 -21q-149 0 -257.5 70.5t-167.5 194.5t-59 285v22q0 155 58.5 274.5t166.5 188t257 68.5h568v-156h-277q94 -72 144.5 -178t50.5 -236v-22q0 -140 -60 -256t-168.5 -185.5t-255.5 -69.5zM589 133q94 0 158 51t96.5 140.5t32.5 204.5v22q0 107 -33 192t-97.5 134
t-159.5 49q-94 0 -157 -49t-95 -134t-32 -192v-22q0 -115 32 -204.5t96 -140.5t159 -51z" />
    <glyph glyph-name="tau" unicode="&#x3c4;" horiz-adv-x="1014" 
d="M643 -21q-119 0 -181 71t-62 229v650h-338v153h885v-153h-350v-661q0 -73 26.5 -101t71.5 -28q16 0 32 3.5t31 9.5t28 13l45 -132q-46 -32 -90.5 -43t-97.5 -11z" />
    <glyph glyph-name="upsilon" unicode="&#x3c5;" horiz-adv-x="1220" 
d="M630 -21q-192 0 -296.5 110.5t-104.5 339.5v392q0 58 -20 79.5t-55 21.5q-20 0 -45.5 -7.5t-38.5 -13.5l-45 141q42 28 94.5 44t104.5 16q98 0 150 -56t52 -179v-440q0 -153 52 -223.5t142 -70.5q89 0 154.5 61t101.5 159t36 210q-3 126 -36 254.5t-88 264.5h206
q34 -71 60 -151.5t40.5 -172.5t14.5 -195q0 -165 -55 -297.5t-162 -209.5t-262 -77z" />
    <glyph glyph-name="phi" unicode="&#x3c6;" horiz-adv-x="1500" 
d="M647 -478v462q-183 17 -301 95.5t-175.5 203.5t-57.5 281q0 168 63.5 299.5t191.5 218.5l107 -136q-55 -49 -90.5 -110.5t-53.5 -130t-21 -141.5q0 -103 36 -192.5t109 -149.5t186 -75l6 2v675q0 68 36.5 127t99.5 95t142 36q129 0 236.5 -71t171.5 -193t64 -274
q0 -151 -59.5 -272t-182 -197t-311.5 -91v-462h-197zM850 145q118 15 195.5 72.5t116 142.5t38.5 184q-3 104 -36 191t-93.5 139t-145.5 52q-40 0 -60.5 -26.5t-20.5 -68.5v-683z" />
    <glyph glyph-name="chi" unicode="&#x3c7;" horiz-adv-x="1192" 
d="M62 0v126l116 23l309 388l-299 395l-116 23v127l261 -1l276 -392l194 255l-97 11v127h427v-127l-116 -23l-308 -380l317 -403l117 -23v-126h-247l-293 409l-212 -272l97 -11v-126h-426z" />
    <glyph glyph-name="psi" unicode="&#x3c8;" horiz-adv-x="1577" 
d="M708 -474v460q-243 27 -375 178t-132 432v225q0 57 -20 79t-54 22q-20 0 -45.5 -7.5t-38.5 -13.5l-44 141q40 28 92.5 44t105.5 16q97 0 149 -55.5t52 -178.5v-274q0 -204 82 -313.5t222 -130.5l6 2v929h197v-933l6 -2q122 13 201.5 73t118.5 151t39 197
q-3 125 -35.5 253t-88.5 262h206q34 -71 60 -151t40.5 -171t14.5 -193q0 -161 -59.5 -288t-184 -205t-318.5 -92v-456h-197z" />
    <glyph glyph-name="omega" unicode="&#x3c9;" horiz-adv-x="1679" 
d="M514 -21q-138 0 -226 75t-130 206.5t-42 301.5q0 103 17 195.5t47 173.5t71 151h206q-66 -136 -105 -264.5t-39 -255.5q0 -126 22 -223t69 -151.5t120 -54.5q98 0 156 81t58 256v300h198v-300q0 -175 57.5 -256t156.5 -81q73 0 120 54t69.5 150.5t22.5 224.5
q0 127 -40 256.5t-104 263.5h206q40 -71 70.5 -152t47.5 -173t17 -195q0 -170 -42.5 -301.5t-130.5 -206.5t-225 -75q-119 0 -201 59.5t-123 175.5q-41 -115 -123.5 -175t-199.5 -60z" />
    <glyph glyph-name="iotadieresis" unicode="&#x3ca;" horiz-adv-x="669" 
d="M437 -21q-119 0 -181 71t-62 229v648l-163 28v127h361v-814q0 -74 26 -101.5t71 -27.5q25 0 49 7t43 19l44 -133q-46 -31 -90 -42t-98 -11zM423 1349v211h207v-211h-207zM0 1349v211h207v-211h-207z" />
    <glyph glyph-name="upsilondieresis" unicode="&#x3cb;" horiz-adv-x="1220" 
d="M630 -21q-192 0 -296.5 110.5t-104.5 339.5v392q0 58 -20 79.5t-55 21.5q-20 0 -45.5 -7.5t-38.5 -13.5l-45 141q42 28 94.5 44t104.5 16q98 0 150 -56t52 -179v-440q0 -153 52 -223.5t142 -70.5q89 0 154.5 61t101.5 159t36 210q-3 126 -36 254.5t-88 264.5h206
q34 -71 60 -151.5t40.5 -172.5t14.5 -195q0 -165 -55 -297.5t-162 -209.5t-262 -77zM720 1349v211h207v-211h-207zM297 1349v211h207v-211h-207z" />
    <glyph glyph-name="omicrontonos" unicode="&#x3cc;" horiz-adv-x="1149" 
d="M563 -21q-150 0 -258.5 70.5t-167.5 195t-59 284.5v22q0 160 59 284.5t167.5 195.5t256.5 71q150 0 258.5 -71t167.5 -195t59 -285v-22q0 -161 -59 -285.5t-167 -194.5t-257 -70zM563 133q94 0 157.5 51.5t96 141t32.5 203.5v22q0 114 -32.5 203.5t-96.5 141t-159 51.5
q-94 0 -158 -51.5t-96 -141t-32 -203.5v-22q0 -114 32 -203.5t96.5 -141t159.5 -51.5zM487 1248l52 374h208l-162 -374h-98z" />
    <glyph glyph-name="upsilontonos" unicode="&#x3cd;" horiz-adv-x="1220" 
d="M630 -21q-192 0 -296.5 110.5t-104.5 339.5v392q0 58 -20 79.5t-55 21.5q-20 0 -45.5 -7.5t-38.5 -13.5l-45 141q42 28 94.5 44t104.5 16q98 0 150 -56t52 -179v-440q0 -153 52 -223.5t142 -70.5q89 0 154.5 61t101.5 159t36 210q-3 126 -36 254.5t-88 264.5h206
q34 -71 60 -151.5t40.5 -172.5t14.5 -195q0 -165 -55 -297.5t-162 -209.5t-262 -77zM537 1248l52 374h208l-162 -374h-98z" />
    <glyph glyph-name="omegatonos" unicode="&#x3ce;" horiz-adv-x="1679" 
d="M514 -21q-138 0 -226 75t-130 206.5t-42 301.5q0 103 17 195.5t47 173.5t71 151h206q-66 -136 -105 -264.5t-39 -255.5q0 -126 22 -223t69 -151.5t120 -54.5q98 0 156 81t58 256v300h198v-300q0 -175 57.5 -256t156.5 -81q73 0 120 54t69.5 150.5t22.5 224.5
q0 127 -40 256.5t-104 263.5h206q40 -71 70.5 -152t47.5 -173t17 -195q0 -170 -42.5 -301.5t-130.5 -206.5t-225 -75q-119 0 -201 59.5t-123 175.5q-41 -115 -123.5 -175t-199.5 -60zM765 1248l52 374h208l-162 -374h-98z" />
    <glyph glyph-name="uni03D1" unicode="&#x3d1;" horiz-adv-x="1342" 
d="M654 -21q-158 0 -278 79.5t-187.5 218.5t-67.5 315v660l197 2v-662q0 -133 41 -235t116.5 -159.5t178.5 -57.5q162 0 257 114.5t100 315.5v7.5v7.5q-144 6 -252.5 64.5t-169 158.5t-60.5 228v62q0 116 43 201t119.5 131.5t176.5 46.5q157 0 248 -101t91 -278v-506
q0 -185 -69 -323t-193.5 -214t-290.5 -76zM1005 752l6 2v344q0 108 -36.5 162.5t-106.5 54.5q-66 0 -104 -54.5t-38 -162.5v-64q0 -80 34 -142.5t96.5 -99.5t148.5 -40z" />
    <glyph glyph-name="uni03D2" unicode="&#x3d2;" horiz-adv-x="1231" 
d="M519 0v578l-300 647q-18 39 -45 56.5t-60 17.5q-14 0 -24.5 -2.5t-14.5 -5.5l-23 152q24 14 49 19t60 5q54 0 99 -22.5t83.5 -72.5t73.5 -133l178 -406l18 -68h6l19 68l179 406q34 83 72.5 133t83.5 72.5t99 22.5q34 0 59 -5t51 -19l-23 -152q-6 3 -16.5 5.5t-23.5 2.5
q-34 0 -61 -17.5t-44 -56.5l-299 -645v-580h-196z" />
    <glyph glyph-name="uni03D6" unicode="&#x3d6;" horiz-adv-x="1672" 
d="M512 -21q-123 0 -202.5 75t-117.5 207t-38 301q0 101 16 192t46 172h-111v156h1483v-156h-134q29 -81 45.5 -172t16.5 -192q0 -170 -38 -301.5t-117.5 -206.5t-202.5 -75q-119 0 -201 60t-122 176q-41 -116 -123 -176t-200 -60zM523 133q98 0 156 81t58 256v250h198v-250
q0 -117 26 -191.5t74 -110t114 -35.5q58 0 95.5 54t56 151t18.5 224q-3 89 -22.5 180t-54.5 184h-814q-35 -94 -55 -185t-22 -179q0 -127 18.5 -223.5t56.5 -151t97 -54.5z" />
    <glyph glyph-name="uni0400" unicode="&#x400;" horiz-adv-x="1306" 
d="M81 0v126l163 28v1147l-163 28v127h1078v-350h-158l-22 198h-538v-474h537v-155h-537v-527h570l22 201h157v-349h-1109zM774 1582h-9h-138l-269 266l2 6h230z" />
    <glyph glyph-name="uni0401" unicode="&#x401;" horiz-adv-x="1306" 
d="M81 0v126l163 28v1147l-163 28v127h1078v-350h-158l-22 198h-538v-474h537v-155h-537v-527h570l22 201h157v-349h-1109zM761 1643v211h207v-211h-207zM338 1643v211h207v-211h-207z" />
    <glyph glyph-name="uni0402" unicode="&#x402;" horiz-adv-x="1573" 
d="M1011 -6l-5 2l-2 141q108 0 174.5 34t96.5 100t30 162q-2 143 -82.5 218.5t-240.5 75.5q-62 0 -138.5 -12.5t-146.5 -33.5v-527l144 -28v-126h-504v126l163 28v1147h-243l-15 -167h-168v322h1171v-322h-169l-15 167h-364v-461q81 22 156.5 37t128.5 15q246 0 383 -121
t137 -338q0 -144 -56.5 -242.5t-166 -148.5t-268.5 -48z" />
    <glyph glyph-name="uni0403" unicode="&#x403;" horiz-adv-x="1216" 
d="M77 0v126l163 28v1147l-163 28v127h1056v-322h-169l-15 167h-512v-1147l163 -28v-126h-523zM527 1582l184 272h230l2 -6l-269 -266h-138h-9z" />
    <glyph glyph-name="uni0404" unicode="&#x404;" horiz-adv-x="1284" 
d="M700 -20q-190 0 -336 96t-229 263t-83 379v21q0 214 81.5 380.5t227.5 262.5t339 96q166 0 292 -64.5t189 -144.5v-259h-139l-37 206q-48 47 -118 77t-167 30q-140 0 -241 -65t-158.5 -180t-68.5 -265h6h586v-154h-587h-6q9 -154 65 -272t153.5 -185.5t230.5 -67.5
q99 0 180 31t125 76l37 206h139v-259q-63 -81 -189 -144.5t-292 -63.5z" />
    <glyph glyph-name="uni0405" unicode="&#x405;" horiz-adv-x="1206" 
d="M606 -21q-133 0 -256 39t-235 120v311h153l33 -229q65 -40 141 -62t164 -22q100 0 169.5 30.5t106.5 84.5t37 126q0 67 -32 118t-105.5 89.5t-200.5 67.5q-150 35 -253.5 93.5t-157 142t-53.5 191.5q0 114 60.5 204t168.5 142t252 52q153 0 270.5 -46.5t193.5 -112.5
v-291h-153l-33 208q-45 36 -112 60t-166 24q-84 0 -148 -29.5t-100 -82.5t-36 -125q0 -63 32.5 -110t106 -82.5t196.5 -66.5q230 -57 348.5 -168.5t118.5 -275.5q0 -117 -63 -207.5t-177.5 -141.5t-269.5 -51z" />
    <glyph glyph-name="uni0406" unicode="&#x406;" horiz-adv-x="662" 
d="M81 0v126l163 28v1147l-163 28v127h523v-127l-163 -28v-1147l163 -28v-126h-523z" />
    <glyph glyph-name="uni0407" unicode="&#x407;" horiz-adv-x="685" 
d="M81 0v126l163 28v1147l-163 28v127h523v-127l-163 -28v-1147l163 -28v-126h-523zM450 1643v211h207v-211h-207zM27 1643v211h207v-211h-207z" />
    <glyph glyph-name="uni0408" unicode="&#x408;" horiz-adv-x="1183" 
d="M503 -21q-121 0 -219.5 48t-158 145t-65.5 243l2 6h189q4 -147 67.5 -216t181.5 -69q83 0 136 35.5t78.5 98t25.5 143.5v888l-194 26v129h554v-127l-163 -28v-888q0 -130 -49.5 -228t-146 -152t-238.5 -54z" />
    <glyph glyph-name="uni0409" unicode="&#x409;" horiz-adv-x="2205" 
d="M57 0v154h40q75 0 128.5 34.5t87.5 108t50.5 191t16.5 282.5v531l-163 28v127h1224v-127l-163 -28v-412h359q155 0 264.5 -56t167.5 -156.5t58 -232.5t-58 -232t-167.5 -156t-264.5 -56h-556v1301h-504l-1 -531q0 -201 -26.5 -346.5t-82 -239.5t-144 -139t-214.5 -45h-52
zM1278 154h359q147 0 220.5 84.5t73.5 207.5q0 81 -32.5 146.5t-98 104t-163.5 38.5h-359v-581z" />
    <glyph glyph-name="uni040A" unicode="&#x40a;" horiz-adv-x="2274" 
d="M81 0v126l163 28v1147l-163 28v127h523v-127l-163 -28v-474h708v474l-163 28v127h163h197h163v-127l-163 -28v-461h359q156 0 265.5 -51.5t167.5 -145t58 -219.5t-58.5 -221.5t-168 -149t-264.5 -53.5h-719v126l163 28v519h-708v-519l163 -28v-126h-523zM1346 165h359
q148 0 221.5 74t73.5 187q0 75 -32.5 133.5t-98 92t-164.5 33.5h-359v-520z" />
    <glyph glyph-name="uni040B" unicode="&#x40b;" horiz-adv-x="1745" 
d="M339 0v126l163 28v1147h-263l-14 -167h-169v322h1171v-322h-169l-15 167h-343v-433q76 20 155 30t183 10q240 0 364.5 -106t124.5 -342v-306l163 -28v-126h-523v126l163 28v306q0 164 -69.5 228t-222.5 64q-89 0 -172 -11t-166 -30v-557l163 -28v-126h-524z" />
    <glyph glyph-name="uni040C" unicode="&#x40c;" horiz-adv-x="1452" 
d="M71 0v126l163 28v1147l-163 28v127h523v-127l-163 -28v-501h159l329 474q81 112 141 152.5t139 40.5q47 0 79.5 -11.5t68.5 -33.5l-29 -139q-27 5 -47.5 8.5t-40.5 3.5q-47 0 -79.5 -25t-75.5 -85l-313 -436l484 -598l137 -25v-126h-478v126l111 14l-4 5l-393 489h-188
v-480l163 -28v-126h-523zM605 1582l184 272h230l2 -6l-269 -266h-138h-9z" />
    <glyph glyph-name="uni040D" unicode="&#x40d;" horiz-adv-x="1574" 
d="M77 0v126l163 28v1147l-163 28v127h163h197h163v-127l-163 -28v-839l6 -2l700 749v92l-163 28v127h163h197h163v-127l-163 -28v-1147l163 -28v-126h-523v126l163 28v812l-6 2l-700 -750v-64l163 -28v-126h-523zM911 1582h-9h-138l-269 266l2 6h230z" />
    <glyph glyph-name="uni040E" unicode="&#x40e;" horiz-adv-x="1360" 
d="M387 -21q-25 0 -58.5 3t-42.5 6l6 149q10 -2 43 -3t50 -1q71 0 101.5 35.5t69.5 116.5l39 83l-423 943l-118 18v127h457v-127l-122 -19l221 -535l73 -188h6l273 722l-127 20v127h465v-127l-114 -17l-449 -1073q-39 -87 -81 -145t-105 -86.5t-164 -28.5zM671 1566
q-145 0 -228 78.5t-83 203.5l2 6h150q0 -72 38.5 -117t120.5 -45q80 0 119 45t39 117h151l2 -6q-1 -125 -83.5 -203.5t-227.5 -78.5z" />
    <glyph glyph-name="uni040F" unicode="&#x40f;" horiz-adv-x="1575" 
d="M699 -359v359h-622v126l163 28v1147l-163 28v127h360h163v-127l-163 -28v-1147h708v1147l-163 28v127h523v-127l-163 -28v-1147l163 -28v-126h-609v-359h-197z" />
    <glyph glyph-name="uni0410" unicode="&#x410;" horiz-adv-x="1533" 
d="M70 0v126l108 15l509 1315h169l500 -1315l107 -15v-126h-418v126l110 19l-96 268h-583l-99 -268l110 -19v-126h-417zM537 578h462l-214 592l-12 33h-6l-12 -33z" />
    <glyph glyph-name="uni0411" unicode="&#x411;" horiz-adv-x="1359" 
d="M60 0v126l163 28v1147l-163 28v127h1056v-322h-169l-15 167h-502v-441h359q156 0 265.5 -52t167.5 -147.5t58 -226.5t-58 -229t-168 -151.5t-265 -53.5h-729zM430 154h359q148 0 221 80t73 202q0 118 -73 193.5t-221 75.5h-359v-551z" />
    <glyph glyph-name="uni0412" unicode="&#x412;" horiz-adv-x="1345" 
d="M81 0v126l163 28v1147l-163 28v127h163h465q228 0 356.5 -98.5t128.5 -295.5q0 -97 -61.5 -173.5t-162.5 -113.5q88 -18 151 -70.5t97.5 -128t34.5 -165.5q0 -200 -130 -305.5t-352 -105.5h-690zM441 154h330q135 0 209.5 66.5t74.5 188.5q0 86 -27.5 147t-84 94
t-142.5 33h-360v-529zM441 837h319q106 0 171.5 61.5t65.5 167.5q0 118 -74 176.5t-214 58.5h-268v-464z" />
    <glyph glyph-name="uni0413" unicode="&#x413;" horiz-adv-x="1216" 
d="M77 0v126l163 28v1147l-163 28v127h1056v-322h-169l-15 167h-512v-1147l163 -28v-126h-523z" />
    <glyph glyph-name="uni0414" unicode="&#x414;" horiz-adv-x="1570" 
d="M84 -359l-29 513h125q51 59 97.5 152t77.5 230.5t35 330.5l24 435l-154 27v127h1202v-127l-163 -28v-1147h200l-20 -511h-177v357h-1050v-359h-168zM398 154h704v1147h-490l-23 -434q-6 -159 -31 -292.5t-66 -239.5t-94 -181z" />
    <glyph glyph-name="uni0415" unicode="&#x415;" horiz-adv-x="1306" 
d="M81 0v126l163 28v1147l-163 28v127h1078v-350h-158l-22 198h-538v-474h537v-155h-537v-527h570l22 201h157v-349h-1109z" />
    <glyph glyph-name="uni0416" unicode="&#x416;" horiz-adv-x="2041" 
d="M63 0v126l146 21l388 614l-266 424q-39 59 -73 84.5t-81 25.5q-22 0 -43.5 -3t-42.5 -7l-29 138q32 21 69 32.5t86 11.5q56 0 102 -17t89 -58.5t89 -117.5l290 -474h142v501l-163 28v127h522v-127l-163 -28v-501h154l290 474q69 113 132 153t148 40q48 0 85 -11.5
t69 -32.5l-29 -138q-21 4 -42.5 7t-42.5 3q-48 0 -82 -25.5t-73 -84.5l-279 -433l382 -605l146 -21v-126h-461v126l78 13l-3 5l-297 490h-175v-480l163 -28v-126h-522v126l163 28v480h-182l-299 -491l-2 -4l79 -13v-126h-462z" />
    <glyph glyph-name="uni0417" unicode="&#x417;" horiz-adv-x="1222" 
d="M581 -21q-139 0 -255 48t-184.5 141t-65.5 230l2 6h188q0 -76 37.5 -137.5t109 -97.5t172.5 -36q146 0 241 74.5t95 209.5q0 120 -82 183.5t-242 63.5h-164v156h164q154 0 228 65t74 177q0 116 -82.5 188t-245.5 72q-105 0 -177 -30.5t-117 -76.5l-38 -205h-138v258
q62 80 189 144.5t300 64.5q232 0 369 -104.5t137 -283.5q0 -121 -63 -207.5t-173 -134.5q125 -42 191.5 -129t66.5 -213q0 -133 -67.5 -228.5t-188.5 -146.5t-281 -51z" />
    <glyph glyph-name="uni0418" unicode="&#x418;" horiz-adv-x="1574" 
d="M77 0v126l163 28v1147l-163 28v127h163h197h163v-127l-163 -28v-839l6 -2l700 749v92l-163 28v127h163h197h163v-127l-163 -28v-1147l163 -28v-126h-523v126l163 28v812l-6 2l-700 -750v-64l163 -28v-126h-523z" />
    <glyph glyph-name="uni0419" unicode="&#x419;" horiz-adv-x="1574" 
d="M77 0v126l163 28v1147l-163 28v127h163h197h163v-127l-163 -28v-839l6 -2l700 749v92l-163 28v127h163h197h163v-127l-163 -28v-1147l163 -28v-126h-523v126l163 28v812l-6 2l-700 -750v-64l163 -28v-126h-523zM790 1566q-145 0 -228 78.5t-83 203.5l2 6h150
q0 -72 38.5 -117t120.5 -45q80 0 119 45t39 117h151l2 -6q-1 -125 -83.5 -203.5t-227.5 -78.5z" />
    <glyph glyph-name="uni041A" unicode="&#x41a;" horiz-adv-x="1452" 
d="M71 0v126l163 28v1147l-163 28v127h523v-127l-163 -28v-501h159l329 474q81 112 141 152.5t139 40.5q47 0 79.5 -11.5t68.5 -33.5l-29 -139q-27 5 -47.5 8.5t-40.5 3.5q-47 0 -79.5 -25t-75.5 -85l-313 -436l484 -598l137 -25v-126h-478v126l111 14l-4 5l-393 489h-188
v-480l163 -28v-126h-523z" />
    <glyph glyph-name="uni041B" unicode="&#x41b;" horiz-adv-x="1512" 
d="M57 0v154h40q68 0 114.5 32.5t76 105t46.5 190t24 288.5l24 532l-156 27v127h1215v-127l-163 -28v-1147l163 -28v-126h-523v126l163 28v1147h-503l-24 -531q-9 -205 -36 -351t-78.5 -239t-132.5 -136.5t-198 -43.5h-52z" />
    <glyph glyph-name="uni041C" unicode="&#x41c;" horiz-adv-x="1982" 
d="M94 0v126l163 28v1147l-163 28v127h163h263l469 -1105h6l454 1105h439v-127l-163 -28v-1147l163 -28v-126h-523v126l172 28v422v611l-5 1l-473 -1136h-131l-489 1134l-5 -1l7 -609v-422l176 -28v-126h-523z" />
    <glyph glyph-name="uni041D" unicode="&#x41d;" horiz-adv-x="1578" 
d="M81 0v126l163 28v1147l-163 28v127h523v-127l-163 -28v-503h696v503l-163 28v127h163h197h163v-127l-163 -28v-1147l163 -28v-126h-523v126l163 28v489h-696v-489l163 -28v-126h-523z" />
    <glyph glyph-name="uni041E" unicode="&#x41e;" horiz-adv-x="1445" 
d="M675 -21q-141 0 -253 54t-190.5 152.5t-120 233.5t-41.5 298v21q0 162 41.5 297.5t120 234.5t190.5 153t253 54q149 0 262 -54t189.5 -153t115.5 -234.5t39 -297.5v-21q0 -163 -39 -298t-115.5 -233.5t-189.5 -152.5t-262 -54zM675 143q145 0 234.5 72t131.5 201.5
t42 300.5v23q0 170 -42.5 298.5t-132.5 201t-233 72.5q-131 0 -222 -73t-138 -201.5t-47 -297.5v-23q0 -170 47 -299.5t138 -202t222 -72.5z" />
    <glyph glyph-name="uni041F" unicode="&#x41f;" horiz-adv-x="1576" 
d="M77 0v126l163 28v1147l-163 28v127h1428v-127l-163 -28v-1147l163 -28v-126h-523v126l163 28v1147h-708v-1147l163 -28v-126h-523z" />
    <glyph glyph-name="uni0420" unicode="&#x420;" horiz-adv-x="1301" 
d="M81 0v126l163 28v1147l-163 28v127h163h506q156 0 266 -54.5t168 -152.5t58 -229q0 -132 -58 -230t-168 -152t-266 -54h-309v-430l163 -28v-126h-523zM441 738h309q148 0 221.5 79.5t73.5 200.5t-73.5 202t-221.5 81h-309v-563z" />
    <glyph glyph-name="uni0421" unicode="&#x421;" horiz-adv-x="1321" 
d="M739 -21q-219 0 -365.5 96t-220 263t-73.5 379v21q0 214 77 380.5t221 262.5t344 96q141 0 258 -44t194 -112v-314h-157l-21 230q-32 25 -73.5 42t-92 26t-109.5 9q-143 0 -242 -73.5t-150 -202.5t-51 -298v-23q0 -183 54.5 -312.5t159 -197.5t254.5 -68q70 0 137 17
t111 44l22 203h154v-316q-82 -51 -196 -79.5t-235 -28.5z" />
    <glyph glyph-name="uni0422" unicode="&#x422;" horiz-adv-x="1406" 
d="M440 0v126l163 28v1153h-330l-29 -202h-148v351h1210v-351h-146l-30 202h-330v-1153l163 -28v-126h-523z" />
    <glyph glyph-name="uni0423" unicode="&#x423;" horiz-adv-x="1360" 
d="M387 -21q-25 0 -58.5 3t-42.5 6l6 149q10 -2 43 -3t50 -1q71 0 101.5 35.5t69.5 116.5l39 83l-423 943l-118 18v127h457v-127l-122 -19l221 -535l73 -188h6l273 722l-127 20v127h465v-127l-114 -17l-449 -1073q-39 -87 -81 -145t-105 -86.5t-164 -28.5z" />
    <glyph glyph-name="uni0424" unicode="&#x424;" horiz-adv-x="1600" 
d="M539 -79v126l163 29v118h-29q-169 0 -302 69t-210 189t-77 271q0 155 77.5 277t210.5 192.5t301 70.5h29v117l-163 29v126h523v-126l-163 -29v-117h26q168 0 302 -70t211.5 -191.5t77.5 -276.5q0 -151 -77.5 -271.5t-211.5 -190t-302 -69.5h-26v-118l163 -29v-126h-523z
M673 348h29v760h-29q-126 0 -214 -48t-134 -134.5t-46 -202.5q0 -112 46 -196.5t134 -131.5t214 -47zM899 348h28q124 0 212 47.5t134.5 132.5t46.5 197q0 115 -46.5 201t-134.5 134t-212 48h-28v-760z" />
    <glyph glyph-name="uni0425" unicode="&#x425;" horiz-adv-x="1529" 
d="M80 0v126l126 22l451 591l-418 568l-127 22v127h472v-127l-137 -13l322 -449l306 449l-140 13v127h475v-127l-133 -22l-395 -568l438 -591l129 -22v-126h-478v126l141 13l-345 473l-344 -473l133 -13v-126h-476z" />
    <glyph glyph-name="uni0426" unicode="&#x426;" horiz-adv-x="1594" 
d="M1337 -351v351h-1260v126l163 28v1147l-163 28v127h523v-127l-163 -28v-1147h708v1147l-163 28v127h523v-127l-163 -28v-1147h190v-505h-195z" />
    <glyph glyph-name="uni0427" unicode="&#x427;" horiz-adv-x="1526" 
d="M942 0v126l163 28v449q-95 -29 -184 -42t-211 -13q-240 0 -364 105t-124 343v305l-163 28v127h523v-127l-163 -28v-305q0 -165 69 -228.5t222 -63.5q104 0 200 14t195 41v542l-163 28v127h524v-127l-163 -28v-1147l163 -28v-126h-524z" />
    <glyph glyph-name="uni0428" unicode="&#x428;" horiz-adv-x="2037" 
d="M77 0v126l163 28v1147l-163 28v127h360h163v-127l-163 -28v-1147h492v1147l-163 28v127h522v-127l-163 -28v-1147h490v1147l-163 28v127h163h197h163v-127l-163 -28v-1147l163 -28v-126h-1898z" />
    <glyph glyph-name="uni0429" unicode="&#x429;" horiz-adv-x="2044" 
d="M1797 -351v351h-1720v126l163 28v1147l-163 28v127h523v-127l-163 -28v-1147h492v1147l-163 28v127h522v-127l-163 -28v-1147h490v1147l-163 28v127h523v-127l-163 -28v-1146h180l-20 -506h-175z" />
    <glyph glyph-name="uni042A" unicode="&#x42a;" horiz-adv-x="1740" 
d="M431 0v126l163 28v1147h-349l-14 -166h-169v321h892v-127l-163 -28v-441h359q156 0 265.5 -52t167.5 -147.5t58 -226.5t-58 -228.5t-168 -151.5t-265 -54h-719zM791 154h359q148 0 221 80t73 202q0 118 -73 193.5t-221 75.5h-359v-551z" />
    <glyph glyph-name="uni042B" unicode="&#x42b;" horiz-adv-x="1893" 
d="M70 0v126l163 28v1147l-163 28v127h523v-127l-163 -28v-441h359q156 0 265.5 -52t167.5 -147.5t58 -226.5t-58 -229t-167.5 -151.5t-265.5 -53.5h-719zM430 154h359q148 0 221 80t73 202q0 118 -73 193.5t-221 75.5h-359v-551zM1312 0v126l163 28v1147l-163 28v127h523
v-127l-163 -28v-1147l163 -28v-126h-523z" />
    <glyph glyph-name="uni042C" unicode="&#x42c;" horiz-adv-x="1358" 
d="M70 0v126l163 28v1147l-163 28v127h523v-127l-163 -28v-441h359q156 0 265.5 -52t167.5 -147.5t58 -226.5t-58 -229t-167.5 -151.5t-265.5 -53.5h-719zM430 154h359q148 0 221 80t73 202q0 118 -73 193.5t-221 75.5h-359v-551z" />
    <glyph glyph-name="uni042D" unicode="&#x42d;" horiz-adv-x="1257" 
d="M563 -20q-167 0 -293 64t-187 144v259h138l37 -206q43 -45 124 -76t181 -31q129 0 221.5 65t144 180t58.5 266l-2 5h-554v154h555l2 5q-7 152 -59 268t-149 181t-237 65q-98 0 -168 -30t-117 -77l-37 -206h-138v259q41 53 111 100.5t164 77.5t205 30q192 0 333.5 -95
t218.5 -261.5t77 -381.5v-21q0 -214 -79 -380.5t-221 -262t-329 -95.5z" />
    <glyph glyph-name="uni042E" unicode="&#x42e;" horiz-adv-x="1994" 
d="M1254 -25q-175 0 -312 84.5t-220.5 232.5t-98.5 340h-216v-478l163 -28v-126h-523v126l163 28v1147l-163 28v127h523v-127l-163 -28v-515h214q10 199 92.5 354t222 244t318.5 89q193 0 341 -96.5t231 -264t83 -378.5v-21q0 -212 -83 -379t-231 -263t-341 -96zM1254 136
q145 0 247.5 73t156.5 203t54 301v23q0 169 -55 299t-157.5 203t-245.5 73q-137 0 -235 -73.5t-150 -203t-52 -298.5v-23q0 -171 52 -301t150 -203t235 -73z" />
    <glyph glyph-name="uni042F" unicode="&#x42f;" horiz-adv-x="1384" 
d="M1306 126v-126h-524v126l163 28v416h-295l-219 -403q-49 -85 -112 -130t-138 -45q-42 0 -69.5 10t-55.5 32l28 139q33 -10 61 -10q41 0 71.5 24t58.5 69l203 351l3 5q-156 51 -238 153.5t-82 252.5q0 208 137 323t378 115h630v-127l-163 -28v-1147zM676 1301
q-156 0 -237 -75t-81 -206t82 -212.5t235 -81.5h270v575h-269z" />
    <glyph glyph-name="uni0430" unicode="&#x430;" horiz-adv-x="1132" 
d="M424 -21q-169 0 -257 82.5t-88 232.5q0 103 56.5 179.5t163.5 119t256 42.5h193v106q0 98 -59.5 152t-167.5 54q-68 0 -118 -16.5t-91 -45.5l-21 -151h-152v248q73 59 170 89.5t215 30.5q197 0 309 -94t112 -269v-521q0 -21 0.5 -41t2.5 -40l105 -11v-126h-283
q-9 44 -14 79t-7 70q-57 -73 -142.5 -121.5t-182.5 -48.5zM453 144q98 0 179 47t116 113v196h-200q-136 0 -204 -65t-68 -145q0 -71 44 -108.5t133 -37.5z" />
    <glyph glyph-name="uni0431" unicode="&#x431;" horiz-adv-x="1166" 
d="M590 -21q-149 0 -257.5 67.5t-167.5 187t-59 274.5v140q0 213 60.5 369t171.5 251t262 125q126 23 182.5 55t56.5 105h152l2 -6q2 -88 -18.5 -143t-64.5 -88t-112 -52t-161 -35q-91 -15 -165.5 -56.5t-123 -113t-63.5 -177.5l4 -5q59 63 148.5 103t190.5 40
q137 0 237 -63t154.5 -173.5t54.5 -253.5v-22q0 -155 -59 -274.5t-167.5 -187t-257.5 -67.5zM590 133q94 0 158 48.5t96.5 133t32.5 193.5v22q0 96 -33 172t-97 120t-159 44q-94 0 -157.5 -44t-95.5 -120t-32 -172v-22q0 -109 32 -193.5t96 -133t159 -48.5z" />
    <glyph glyph-name="uni0432" unicode="&#x432;" horiz-adv-x="1271" 
d="M97 0v126l163 28v773l-163 28v127h163h426q214 0 332 -74.5t118 -223.5q0 -76 -46 -135.5t-130 -90.5q101 -25 158 -93.5t57 -156.5q0 -152 -110.5 -230t-309.5 -78h-658zM457 152h298q110 0 166 41.5t56 119.5q0 77 -56 119t-166 42h-298v-322zM457 625h230
q125 0 188.5 37t63.5 112q0 155 -253 155h-229v-304z" />
    <glyph glyph-name="uni0433" unicode="&#x433;" horiz-adv-x="1075" 
d="M72 0v126l163 28v773l-163 28v127h883v-279h-128l-14 123h-381v-772l163 -28v-126h-523z" />
    <glyph glyph-name="uni0434" unicode="&#x434;" horiz-adv-x="1304" 
d="M85 -318l-19 472h85q42 48 73 95.5t54 105t37.5 135t21.5 185.5l10 253l-157 27v127h870h163v-127l-163 -28v-773h144l-20 -472h-177v318h-745v-318h-177zM378 154h485v753h-320l-9 -232q-11 -180 -51.5 -307t-104.5 -214z" />
    <glyph glyph-name="uni0435" unicode="&#x435;" horiz-adv-x="1059" 
d="M567 -21q-150 0 -261 68.5t-171.5 190.5t-60.5 282v44q0 154 63.5 275.5t169 192t230.5 70.5q146 0 244.5 -60t148.5 -168.5t50 -255.5v-123h-702l-3 -5q2 -104 36.5 -184.5t99.5 -126.5t156 -46q100 0 175.5 28.5t130.5 78.5l77 -128q-58 -56 -153.5 -94.5t-229.5 -38.5
zM284 649h499v26q0 78 -27.5 139.5t-82 97t-136.5 35.5q-66 0 -120 -38.5t-89 -104.5t-46 -150z" />
    <glyph glyph-name="uni0436" unicode="&#x436;" horiz-adv-x="1728" 
d="M39 0v126l154 22l281 418l-181 272q-29 43 -61.5 67t-73.5 24q-21 0 -27 -1t-49 -8l-28 134q37 24 67 35.5t77 11.5q75 0 137.5 -45t112.5 -128l187 -303h119v302l-163 28v127h523v-127l-163 -28v-302h129l187 303q49 83 111.5 128t139.5 45q46 0 76.5 -12t66.5 -35
l-27 -134q-43 7 -49.5 8t-26.5 1q-42 0 -75 -24t-60 -67l-187 -280l277 -410l153 -22v-126h-302l-281 459h-132v-305l163 -28v-126h-523v126l163 28v305h-133l-280 -459h-302z" />
    <glyph glyph-name="uni0437" unicode="&#x437;" horiz-adv-x="1048" 
d="M514 -19q-118 0 -216 38t-155 112.5t-54 182.5l2 6h187q0 -51 30 -93.5t83.5 -68.5t122.5 -26q107 0 166 49.5t59 123.5q0 87 -51.5 127t-160.5 40h-188v160h188q104 0 148.5 39.5t44.5 114.5q0 68 -51 115t-155 47q-62 0 -111.5 -22.5t-78.5 -60.5t-29 -85h-187l-2 6
q-4 93 49.5 163.5t147.5 110.5t211 40q190 0 297 -81.5t107 -232.5q0 -73 -44 -134t-123 -96q187 -66 187 -251q0 -101 -53 -173.5t-148.5 -111.5t-222.5 -39z" />
    <glyph glyph-name="uni0438" unicode="&#x438;" horiz-adv-x="1396" 
d="M97 0v126l163 28v773l-163 28v127h359h163v-127l-163 -28v-611l6 -2l477 768h197h163v-127l-163 -28v-773l163 -28v-126h-523v126l163 28v612l-6 2l-477 -768h-359z" />
    <glyph glyph-name="uni0439" unicode="&#x439;" horiz-adv-x="1396" 
d="M97 0v126l163 28v773l-163 28v127h359h163v-127l-163 -28v-611l6 -2l477 768h197h163v-127l-163 -28v-773l163 -28v-126h-523v126l163 28v612l-6 2l-477 -768h-359zM704 1272q-145 0 -228 78.5t-83 203.5l2 6h150q0 -72 38.5 -117t120.5 -45q80 0 119 45t39 117h151l2 -6
q-1 -125 -83.5 -203.5t-227.5 -78.5z" />
    <glyph glyph-name="uni043A" unicode="&#x43a;" horiz-adv-x="1264" 
d="M97 0v126l163 28v773l-163 28v127h523v-127l-163 -28v-302h104l226 303q61 85 119.5 129t131.5 44q46 0 76 -11.5t68 -35.5l-28 -134q-43 7 -49.5 8t-26.5 1q-37 0 -72.5 -27t-62.5 -64l-209 -271l341 -416l139 -25v-126h-263l-366 459h-128v-305l163 -28v-126h-523z" />
    <glyph glyph-name="uni043B" unicode="&#x43b;" horiz-adv-x="1316" 
d="M69 0l3 168l41 1q71 0 112 44.5t59 144t18 262.5v307l-163 28v127h924h163v-127l-163 -28v-773l163 -28v-126h-523v126l163 28v772h-367v-306q0 -320 -84.5 -470t-289.5 -150h-56z" />
    <glyph glyph-name="uni043C" unicode="&#x43c;" horiz-adv-x="1724" 
d="M97 0v126l163 28v773l-163 28v127h163h254l352 -824h6l353 824h247h163v-127l-163 -28v-773l163 -28v-126h-523v126l163 28v597l-6 2l-332 -753h-136l-338 769l-6 -2v-613l163 -28v-126h-523z" />
    <glyph glyph-name="uni043D" unicode="&#x43d;" horiz-adv-x="1395" 
d="M97 0v126l163 28v773l-163 28v127h523v-127l-163 -28v-313h481v313l-163 28v127h163h198h163v-127l-163 -28v-773l163 -28v-126h-524v126l163 28v306h-481v-306l163 -28v-126h-523z" />
    <glyph glyph-name="uni043E" unicode="&#x43e;" horiz-adv-x="1149" 
d="M563 -21q-150 0 -258.5 70.5t-167.5 195t-59 284.5v22q0 160 59 284.5t167.5 195.5t256.5 71q150 0 258.5 -71t167.5 -195t59 -285v-22q0 -161 -59 -285.5t-167 -194.5t-257 -70zM563 133q94 0 157.5 51.5t96 141t32.5 203.5v22q0 114 -32.5 203.5t-96.5 141t-159 51.5
q-94 0 -158 -51.5t-96 -141t-32 -203.5v-22q0 -114 32 -203.5t96.5 -141t159.5 -51.5z" />
    <glyph glyph-name="uni043F" unicode="&#x43f;" horiz-adv-x="1396" 
d="M97 0v126l163 28v773l-163 28v127h1202v-127l-163 -28v-773l163 -28v-126h-523v126l163 28v772h-482v-772l163 -28v-126h-523z" />
    <glyph glyph-name="uni0440" unicode="&#x440;" horiz-adv-x="1240" 
d="M44 -416v127l153 28v1188l-163 28v127h332l18 -132q54 74 131.5 113t179.5 39q134 0 229 -72.5t145 -203t50 -305.5v-21q0 -156 -50.5 -273t-144.5 -182.5t-226 -65.5q-100 0 -175.5 33.5t-128.5 99.5v-373l172 -28v-127h-522zM637 133q140 0 212 102t72 265v21
q0 124 -32 218.5t-95.5 148.5t-158.5 54q-84 0 -144 -38t-97 -104v-527q37 -67 96.5 -103.5t146.5 -36.5z" />
    <glyph glyph-name="uni0441" unicode="&#x441;" horiz-adv-x="1067" 
d="M563 -21q-147 0 -256 68.5t-169 190.5t-60 282v42q0 154 58 276t167 193t260 71q131 0 229.5 -43t165.5 -118l5 -260h-154l-34 189q-34 35 -85 56t-120 21q-88 0 -154.5 -52t-103.5 -139t-37 -194v-42q0 -118 34.5 -205t99 -134.5t153.5 -47.5q100 0 166 55t81 151h177
l2 -6q-5 -93 -55 -174t-142.5 -130.5t-227.5 -49.5z" />
    <glyph glyph-name="uni0442" unicode="&#x442;" horiz-adv-x="1186" 
d="M326 0v126l163 28v775h-228l-15 -169h-168v322h1024v-322h-169l-15 169h-232v-775l163 -28v-126h-523z" />
    <glyph glyph-name="uni0443" unicode="&#x443;" horiz-adv-x="1192" 
d="M309 -437q-23 0 -60 5.5t-57 10.5l20 155q17 -2 47 -3.5t41 -1.5q63 0 102.5 48t73.5 131l47 114l-383 917l-116 16v127h454v-127l-131 -20l211 -541l51 -141h6l250 682l-138 20v127h445v-127l-112 -16l-426 -1105q-30 -78 -72.5 -139.5t-104 -96.5t-148.5 -35z" />
    <glyph glyph-name="uni0444" unicode="&#x444;" horiz-adv-x="1471" 
d="M465 -416v127l163 28v266q-32 -12 -68.5 -19t-77.5 -7q-125 0 -212 64.5t-133 182t-46 274.5v21q0 175 45.5 306t133 203t214.5 72q40 0 76 -7t68 -19v329l-163 28v127h360v-490q34 15 74 23.5t87 8.5q126 0 214 -72t134 -203t46 -306v-21q0 -157 -46 -274.5t-133.5 -182
t-212.5 -64.5q-47 0 -88 8t-75 22v-270l163 -28v-127h-523zM532 133q28 0 52 3.5t44 10.5v786q-20 6 -43.5 10t-50.5 4q-87 0 -141 -53.5t-79.5 -149.5t-25.5 -223v-21q0 -167 57.5 -267t186.5 -100zM928 133q129 0 191.5 101t62.5 266v21q0 125 -28 221t-84.5 150.5
t-143.5 54.5q-30 0 -55 -4.5t-46 -12.5v-783q20 -7 45.5 -10.5t57.5 -3.5z" />
    <glyph glyph-name="uni0445" unicode="&#x445;" horiz-adv-x="1203" 
d="M42 0v126l120 23l323 398l-316 385l-107 23v127h424v-127l-108 -12l222 -276l216 277l-116 11v127h417v-127l-110 -23l-293 -382l337 -401l112 -23v-126h-459v126l130 11l-237 289l-230 -289l117 -11v-126h-442z" />
    <glyph glyph-name="uni0446" unicode="&#x446;" horiz-adv-x="1362" 
d="M1047 -321v321h-977v126l163 28v773l-163 28v127h523v-127l-163 -28v-773h482v773l-163 28v127h523v-127l-163 -29v-772h133l-19 -475h-176z" />
    <glyph glyph-name="uni0447" unicode="&#x447;" horiz-adv-x="1355" 
d="M728 0v126l163 28v232q-58 -15 -118 -22t-127 -7q-131 0 -224.5 46t-143.5 136.5t-50 225.5v164l-163 28v126h360h163v-126l-163 -28v-164q0 -87 24.5 -142.5t74 -82.5t122.5 -27q66 0 126 7.5t119 22.5v384l-163 28v127h523v-127l-163 -28v-773l163 -28v-126h-523z" />
    <glyph glyph-name="uni0448" unicode="&#x448;" horiz-adv-x="1872" 
d="M97 0v126l163 28v773l-163 28v127h360h163v-127l-163 -28v-773h380v928h197v-928h381v773l-163 28v127h360h163v-127l-163 -28v-773l163 -28v-126h-1678z" />
    <glyph glyph-name="uni0449" unicode="&#x449;" horiz-adv-x="1873" 
d="M1579 -321v321h-1494v126l163 28v773l-163 28v127h163h197h163v-127l-163 -28v-773h380v928h197v-928h381v773l-163 28v127h523v-127l-163 -28v-772h174l-20 -476h-175z" />
    <glyph glyph-name="uni044A" unicode="&#x44a;" horiz-adv-x="1420" 
d="M288 0v126l163 28v773h-237l-14 -166h-169v321h780v-127l-163 -28v-217h268q192 0 299 -97.5t107 -253.5q0 -157 -107.5 -258t-298.5 -101h-628zM648 154h268q107 0 157.5 56.5t50.5 141.5q0 82 -51 143t-157 61h-268v-402z" />
    <glyph glyph-name="uni044B" unicode="&#x44b;" horiz-adv-x="1732" 
d="M457 154h268q107 0 157.5 56.5t50.5 141.5q0 82 -51 143t-157 61h-268v-402zM1153 0v126l163 28v773l-163 28v127h360v-928l163 -28v-126h-523zM725 710q192 0 299 -97.5t107 -253.5q0 -157 -107.5 -258t-298.5 -101h-628v126l163 28v773l-163 28v127h523v-127l-163 -28
v-217h268z" />
    <glyph glyph-name="uni044C" unicode="&#x44c;" horiz-adv-x="1212" 
d="M725 710q192 0 299 -97.5t107 -253.5q0 -157 -107.5 -258t-298.5 -101h-628v126l163 28v773l-163 28v127h523v-127l-163 -28v-217h268zM725 154q107 0 157.5 56.5t50.5 141.5q0 82 -51 143t-157 61h-268v-402h268z" />
    <glyph glyph-name="uni044D" unicode="&#x44d;" horiz-adv-x="1089" 
d="M524 -21q-115 0 -214 50.5t-158 132t-55 174.5l2 6h178q0 -59 34.5 -106t90.5 -75t122 -28q96 0 157 44t91 120t33 172l-2 5h-400v154h399l2 5q-5 89 -36.5 160t-92 112.5t-151.5 41.5q-70 0 -125 -21t-90 -55l-42 -170h-158l10 240q67 75 170.5 118t234.5 43
q156 0 264.5 -71t164.5 -193t56 -276v-42q0 -155 -56 -277.5t-164 -193t-265 -70.5z" />
    <glyph glyph-name="uni044E" unicode="&#x44e;" horiz-adv-x="1766" 
d="M1176 -21q-141 0 -245.5 62t-165.5 173t-72 257h-264v-317l163 -28v-126h-523v126l163 28v773l-163 28v127h360v-457h265q13 141 75 248.5t165 168t240 60.5q149 0 258 -71t168 -195t59 -285v-22q0 -161 -59 -285t-167 -194.5t-257 -70.5zM1176 133q93 0 157 51
t96.5 140.5t32.5 204.5v22q0 113 -32.5 202.5t-96.5 141.5t-159 52t-158.5 -52t-95.5 -141.5t-32 -202.5v-22q0 -115 32.5 -204.5t96.5 -140.5t159 -51z" />
    <glyph glyph-name="uni044F" unicode="&#x44f;" horiz-adv-x="1302" 
d="M65 0v126l142 21l185 302q-103 37 -158.5 117t-55.5 185q0 97 50 172t143 117t222 42h620v-127l-163 -28v-773l163 -28v-126h-523v126l163 28v266h-267l-256 -420h-265zM573 575h280v354h-260q-107 0 -162 -53.5t-55 -126.5q0 -72 49.5 -123t147.5 -51z" />
    <glyph glyph-name="uni0450" unicode="&#x450;" horiz-adv-x="1059" 
d="M567 -21q-150 0 -261 68.5t-171.5 190.5t-60.5 282v44q0 154 63.5 275.5t169 192t230.5 70.5q146 0 244.5 -60t148.5 -168.5t50 -255.5v-123h-702l-3 -5q2 -104 36.5 -184.5t99.5 -126.5t156 -46q100 0 175.5 28.5t130.5 78.5l77 -128q-58 -56 -153.5 -94.5t-229.5 -38.5
zM284 649h499v26q0 78 -27.5 139.5t-82 97t-136.5 35.5q-66 0 -120 -38.5t-89 -104.5t-46 -150zM657 1288h-9h-138l-269 266l2 6h230z" />
    <glyph glyph-name="uni0451" unicode="&#x451;" horiz-adv-x="1059" 
d="M567 -21q-150 0 -261 68.5t-171.5 190.5t-60.5 282v44q0 154 63.5 275.5t169 192t230.5 70.5q146 0 244.5 -60t148.5 -168.5t50 -255.5v-123h-702l-3 -5q2 -104 36.5 -184.5t99.5 -126.5t156 -46q100 0 175.5 28.5t130.5 78.5l77 -128q-58 -56 -153.5 -94.5t-229.5 -38.5
zM284 649h499v26q0 78 -27.5 139.5t-82 97t-136.5 35.5q-66 0 -120 -38.5t-89 -104.5t-46 -150zM644 1349v211h207v-211h-207zM221 1349v211h207v-211h-207z" />
    <glyph glyph-name="uni0452" unicode="&#x452;" horiz-adv-x="1298" 
d="M780 -437q-32 0 -58.5 4.5t-54.5 13.5l15 150q13 -5 47 -9t51 -4q60 0 94 51.5t34 141.5v769q0 134 -57.5 198t-171.5 64q-81 0 -147.5 -38.5t-109.5 -104.5v-645l163 -28v-126h-523v126l163 28v1026h-194v113h194v112l-163 28v127h360v-267h214v-113h-214v-242
q56 78 137 121t180 43q174 0 270 -104t96 -320v-767q0 -167 -85.5 -257.5t-239.5 -90.5z" />
    <glyph glyph-name="uni0453" unicode="&#x453;" horiz-adv-x="1075" 
d="M72 0v126l163 28v773l-163 28v127h883v-279h-128l-14 123h-381v-772l163 -28v-126h-523zM417 1288l184 272h230l2 -6l-269 -266h-138h-9z" />
    <glyph glyph-name="uni0454" unicode="&#x454;" horiz-adv-x="1118" 
d="M599 -21q-157 0 -265.5 70.5t-164 193t-55.5 277.5v42q0 154 56 276t164 193t265 71q130 0 233.5 -43t171.5 -118l9 -240h-157l-43 170q-35 34 -90 55t-124 21q-94 0 -155 -43t-92 -116.5t-34 -165.5l2 -5h364v-154h-364l-2 -5q3 -94 33.5 -167.5t91.5 -115.5t156 -42
q65 0 121.5 28t91 75t34.5 106h177l2 -6q3 -93 -56 -174.5t-157 -132t-213 -50.5z" />
    <glyph glyph-name="uni0455" unicode="&#x455;" horiz-adv-x="1022" 
d="M512 -21q-109 0 -204 22t-202 68l-2 257h149l37 -155q56 -23 108.5 -33.5t113.5 -10.5q120 0 172 46t52 114q0 64 -52.5 108.5t-190.5 75.5q-196 45 -288.5 120.5t-92.5 201.5q0 88 51 157.5t142 110.5t212 41q123 0 210.5 -28t152.5 -75l10 -247h-148l-32 144
q-35 26 -83 40t-110 14q-92 0 -149.5 -43t-57.5 -108q0 -38 16.5 -66t63.5 -50.5t138 -44.5q226 -53 315.5 -135t89.5 -202q0 -137 -101.5 -229.5t-319.5 -92.5z" />
    <glyph glyph-name="uni0456" unicode="&#x456;" horiz-adv-x="673" 
d="M67 0v126l163 28v773l-163 28v127h360v-928l163 -28v-126h-523zM220 1349v211h207v-211h-207z" />
    <glyph glyph-name="uni0457" unicode="&#x457;" horiz-adv-x="652" 
d="M67 0v126l163 28v773l-163 28v127h360v-928l163 -28v-126h-523zM432 1349v211h207v-211h-207zM9 1349v211h207v-211h-207z" />
    <glyph glyph-name="uni0458" unicode="&#x458;" horiz-adv-x="571" 
d="M56 -437q-32 0 -58 4.5t-54 13.5l13 150q14 -5 47.5 -9t51.5 -4q59 0 93.5 51.5t34.5 141.5v1016l-163 28v127h360v-1171q0 -167 -86 -257.5t-239 -90.5zM174 1349v211h207v-211h-207z" />
    <glyph glyph-name="uni0459" unicode="&#x459;" horiz-adv-x="1786" 
d="M65 0l3 158l41 1q71 0 114.5 48t64 149.5t20.5 263.5v307l-163 28v127h785h253v-127l-163 -28v-256h268q192 0 299 -92.5t107 -239.5q0 -148 -107.5 -243.5t-298.5 -95.5h-628v126l163 28v772h-318v-306q0 -318 -89 -469t-295 -151h-56zM1020 152h268q106 0 157 56
t51 133q0 73 -50.5 124.5t-157.5 51.5h-268v-365z" />
    <glyph glyph-name="uni045A" unicode="&#x45a;" horiz-adv-x="1894" 
d="M97 0v126l163 28v773l-163 28v127h523v-127l-163 -28v-253h481v253l-163 28v127h156h205h163v-127l-163 -28v-257h268q192 0 299 -92t107 -239q0 -148 -107.5 -243.5t-298.5 -95.5h-629v126l163 28v367h-481v-367l163 -28v-126h-523zM1136 152h268q106 0 157 56t51 133
q0 73 -50.5 124.5t-157.5 51.5h-268v-365z" />
    <glyph glyph-name="uni045B" unicode="&#x45b;" horiz-adv-x="1315" 
d="M49 0v126l163 28v1251l-163 28v127h360v-622q56 78 137 121t180 43q174 0 270 -104t96 -320v-524l163 -28v-126h-523v126l163 28v526q0 134 -57.5 198t-171.5 64q-81 0 -147.5 -38.5t-109.5 -104.5v-645l163 -28v-126h-523zM49 1154v155h603v-155h-603z" />
    <glyph glyph-name="uni045C" unicode="&#x45c;" horiz-adv-x="1264" 
d="M97 0v126l163 28v773l-163 28v127h523v-127l-163 -28v-302h104l226 303q61 85 119.5 129t131.5 44q46 0 76 -11.5t68 -35.5l-28 -134q-43 7 -49.5 8t-26.5 1q-37 0 -72.5 -27t-62.5 -64l-209 -271l341 -416l139 -25v-126h-263l-366 459h-128v-305l163 -28v-126h-523z
M511 1288l184 272h230l2 -6l-269 -266h-138h-9z" />
    <glyph glyph-name="uni045D" unicode="&#x45d;" horiz-adv-x="1396" 
d="M97 0v126l163 28v773l-163 28v127h359h163v-127l-163 -28v-611l6 -2l477 768h197h163v-127l-163 -28v-773l163 -28v-126h-523v126l163 28v612l-6 2l-477 -768h-359zM825 1288h-9h-138l-269 266l2 6h230z" />
    <glyph glyph-name="uni045E" unicode="&#x45e;" horiz-adv-x="1192" 
d="M309 -437q-23 0 -60 5.5t-57 10.5l20 155q17 -2 47 -3.5t41 -1.5q63 0 102.5 48t73.5 131l47 114l-383 917l-116 16v127h454v-127l-131 -20l211 -541l51 -141h6l250 682l-138 20v127h445v-127l-112 -16l-426 -1105q-30 -78 -72.5 -139.5t-104 -96.5t-148.5 -35zM596 1272
q-145 0 -228 78.5t-83 203.5l2 6h150q0 -72 38.5 -117t120.5 -45q80 0 119 45t39 117h151l2 -6q-1 -125 -83.5 -203.5t-227.5 -78.5z" />
    <glyph glyph-name="uni045F" unicode="&#x45f;" horiz-adv-x="1397" 
d="M603 -356v356h-505v126l163 28v773l-163 28v127h360h163v-127l-163 -28v-773h482v773l-163 28v127h523v-127l-163 -28v-773l163 -28v-126h-500v-356h-197z" />
    <glyph glyph-name="uni0460" unicode="&#x460;" horiz-adv-x="1763" 
d="M543 -21q-120 0 -209.5 47t-139.5 139t-50 226v1065h197v-1065q0 -126 55.5 -192t146.5 -66q108 0 174.5 65.5t66.5 192.5v1065h204v-1065q0 -126 61 -192t161 -66q99 0 160 66t61 192v1065h197v-1065q0 -134 -52.5 -226t-146.5 -139t-219 -47q-109 0 -194 43.5
t-132 129.5q-51 -86 -139.5 -129.5t-201.5 -43.5z" />
    <glyph glyph-name="uni0461" unicode="&#x461;" horiz-adv-x="1605" 
d="M509 -21q-162 0 -260.5 95.5t-98.5 277.5v730h197v-730q0 -108 44 -163.5t118 -55.5q90 0 146 56t56 163v730h198v-730q0 -108 49.5 -163.5t132.5 -55.5q81 0 131.5 56t50.5 163v730h197v-730q0 -182 -105 -277.5t-274 -95.5q-94 0 -167 36t-116 107q-47 -71 -124.5 -107
t-174.5 -36z" />
    <glyph glyph-name="uni0462" unicode="&#x462;" horiz-adv-x="1358" 
d="M70 0v126l163 28v1147l-163 28v127h523v-127l-163 -28v-441h359q156 0 265.5 -52t167.5 -147.5t58 -226.5t-58 -229t-167.5 -151.5t-265.5 -53.5h-719zM430 154h359q148 0 221 80t73 202q0 118 -73 193.5t-221 75.5h-359v-551zM70 1014v155h603v-155h-603z" />
    <glyph glyph-name="uni0463" unicode="&#x463;" horiz-adv-x="1204" 
d="M103 0v126l163 28v928h-191v154h191v169l-163 28v127h360v-324h321v-154h-321v-334h268q128 0 219 -46.5t139 -130t48 -193.5q0 -165 -107.5 -271.5t-298.5 -106.5h-628zM463 154h268q107 0 157.5 62t50.5 155q0 90 -51 156.5t-157 66.5h-268v-440z" />
    <glyph glyph-name="uni0464" unicode="&#x464;" horiz-adv-x="1804" 
d="M1256 -20q-181 0 -323.5 89t-227.5 244.5t-96 354.5v5.5v5.5h-192v-525l163 -28v-126h-523v126l163 28v1147l-163 28v127h163h197h163v-127l-163 -28v-467h195q18 190 103.5 335t224 227t316.5 82q166 0 292 -64.5t189 -144.5v-259h-139l-37 206q-48 47 -118 77t-167 30
q-136 0 -235.5 -61.5t-157 -170.5t-69.5 -251l3 -6h543v-155h-547l-3 -5q4 -156 58.5 -278t153.5 -192t234 -70q99 0 180 31t125 76l37 206h139v-259q-63 -81 -189 -144.5t-292 -63.5z" />
    <glyph glyph-name="uni0465" unicode="&#x465;" horiz-adv-x="1646" 
d="M1146 -21q-147 0 -251.5 62t-163 171t-68.5 250h-215v-308l163 -28v-126h-523v126l163 28v773l-163 28v127h163h197v-466h215q9 141 67.5 250.5t163.5 172.5t252 63q130 0 233.5 -43t171.5 -118l9 -240h-157l-43 170q-35 34 -90 55t-124 21q-94 0 -155 -43t-92 -116.5
t-34 -166.5l2 -5h360v-154h-360l-2 -5q5 -140 72 -232t209 -92q65 0 121.5 28t91 75t34.5 106h177l2 -6q3 -93 -56 -174.5t-157 -132t-213 -50.5z" />
    <glyph glyph-name="uni0466" unicode="&#x466;" horiz-adv-x="1427" 
d="M52 0v126l104 15l474 1315h168l465 -1315l104 -15v-126h-418v126l113 19l-105 312h-155v-457h-196v457h-142l-108 -312l113 -19v-126h-417zM521 621h380l-171 504l-14 40h-6l-12 -34z" />
    <glyph glyph-name="uni0467" unicode="&#x467;" horiz-adv-x="1203" 
d="M60 0v126l70 13l384 943h169l386 -943l72 -13v-126h-216l-119 294h-106v-294h-196v294h-113l-116 -294h-215zM452 449h292l-126 312l-18 68h-6l-18 -68z" />
    <glyph glyph-name="uni0468" unicode="&#x468;" horiz-adv-x="1935" 
d="M40 0v126l163 28v1147l-163 28v127h163h197h163v-127l-163 -28v-679h478l301 834h168l465 -1315l104 -15v-126h-418v126l113 19l-105 312h-155v-457h-196v457h-142l-108 -312l113 -19v-126h-417v126l104 15l114 317h-419v-304l163 -28v-126h-523zM1070 621h380l-171 503
l-14 41h-6l-15 -42z" />
    <glyph glyph-name="uni0469" unicode="&#x469;" horiz-adv-x="1760" 
d="M42 0v126l163 28v773l-163 28v127h163h197v-633h404l258 633h169l386 -943l72 -13v-126h-216l-119 294h-106v-294h-196v294h-113l-116 -294h-215v126l70 13l63 154h-341v-139l163 -28v-126h-523zM1002 449h292l-126 312l-18 68h-6l-18 -68z" />
    <glyph glyph-name="uni046A" unicode="&#x46a;" horiz-adv-x="1895" 
d="M55 0v126l163 28v217q0 234 123.5 338.5t363.5 104.5h18.5h18.5l-301 494l-144 21v127h1316v-127l-143 -21l-301 -494h11h11q239 0 363.5 -104.5t124.5 -338.5v-217l163 -28v-126h-523v126l163 28v217q0 162 -69 225t-222 63h-116l-25 -22v-483l163 -28v-126h-523v126
l163 28v478l-17 27h-131q-153 0 -221.5 -63t-68.5 -225v-217l163 -28v-126h-523zM950 814h10l17 29l267 458h-578l270 -464z" />
    <glyph glyph-name="uni046B" unicode="&#x46b;" horiz-adv-x="1600" 
d="M68 0v126l124 28v8q0 221 101 325.5t291 114.5q11 1 16.5 1h9.5l-197 331l-142 21v127h1072v-127l-141 -21l-197 -331h11t22 -2q178 -13 275 -118t97 -321v-8l124 -28v-126h-321v162q0 162 -59.5 225t-191.5 63h-51l-8 -9v-287l163 -28v-126h-523v126l163 28v287l-5 9
h-61q-133 0 -192 -62.5t-59 -225.5v-162h-321zM806 610h6l171 316h-351z" />
    <glyph glyph-name="uni046C" unicode="&#x46c;" horiz-adv-x="2438" 
d="M56 0v126l163 28v1147l-163 28v127h523v-127l-163 -28v-486h1017v-155h-1017v-506l163 -28v-126h-523zM621 0v126l163 28v217q0 234 123.5 338.5t363.5 104.5h18.5h18.5l-301 494l-144 21v127h1316v-127l-143 -21l-301 -494h11h11q239 0 363.5 -104.5t124.5 -338.5v-217
l163 -28v-126h-523v126l163 28v217q0 162 -69 225t-222 63h-116l-25 -22v-483l163 -28v-126h-523v126l163 28v478l-17 27h-131q-153 0 -221.5 -63t-68.5 -225v-217l163 -28v-126h-523zM1516 814h10l17 29l267 458h-578l270 -464z" />
    <glyph glyph-name="uni046D" unicode="&#x46d;" horiz-adv-x="2188" 
d="M18 0v126l163 28v773l-163 28v127h360v-477h863v-155h-863v-296l163 -28v-126h-523zM601 0v126l124 28v8q0 221 101 325.5t291 114.5q11 1 16.5 1h9.5l-197 331l-142 21v127h1072v-127l-141 -21l-197 -331h11t22 -2q178 -13 275 -118t97 -321v-8l124 -28v-126h-321v162
q0 162 -59.5 225t-191.5 63h-51l-8 -9v-287l163 -28v-126h-523v126l163 28v287l-5 9h-61q-133 0 -192 -62.5t-59 -225.5v-162h-321zM1339 610h6l171 316h-351z" />
    <glyph glyph-name="uni046E" unicode="&#x46e;" horiz-adv-x="1053" 
d="M356 -444q-74 31 -134.5 78t-96.5 108.5t-36 135.5q0 129 89.5 193t250.5 64h41q130 0 204.5 74.5t74.5 193.5q0 133 -82 200t-240 67h-143v155h143q154 0 227 63.5t73 177.5q0 104 -72 174.5t-208 70.5q-77 0 -136.5 -20.5t-97.5 -55.5l-13 -170h-158l1 241
q67 75 170.5 117.5t233.5 42.5q139 0 247 -50.5t169 -141.5t61 -212q0 -103 -65 -185t-179 -126q129 -41 198 -129t69 -215q0 -133 -60.5 -229t-168 -147t-248.5 -51h-49q-76 0 -110.5 -29.5t-34.5 -82.5q0 -47 21.5 -81t57.5 -59t80 -45zM154 1829l248 -238h119l246 237v26
h-160l-145 -148l-147 148h-161v-25z" />
    <glyph glyph-name="uni046F" unicode="&#x46f;" horiz-adv-x="947" 
d="M315 -444q-74 31 -134.5 78t-96 108.5t-36.5 135.5q0 129 89.5 193t250.5 64h41q112 0 175 41.5t63 114.5q0 81 -72 122t-210 41h-142v155h142q132 0 196 45.5t64 121.5q0 67 -58 113.5t-172 47.5q-69 0 -123.5 -15.5t-89.5 -40.5l-14 -148h-156l-1 218q63 66 161.5 103
t222.5 37q126 0 222.5 -40t150.5 -112t54 -167q0 -74 -52.5 -136t-144.5 -99q106 -33 162.5 -94.5t56.5 -147.5q0 -100 -55 -170.5t-153 -107.5t-227 -37h-49q-75 0 -110 -29.5t-35 -82.5q0 -47 21.5 -81t58 -59t80.5 -45zM359 1297l-248 238v25h161l147 -148l145 148h160
v-26l-246 -237h-119z" />
    <glyph glyph-name="uni0470" unicode="&#x470;" horiz-adv-x="1665" 
d="M557 0v126l163 28v206q-152 16 -265 88t-175 193t-62 284v376l-163 28v127h359v-531q0 -113 37 -198t104.5 -137t158.5 -65l6 1v775l-163 28v127h523v-127l-163 -28v-776l6 -2q96 13 167.5 64t110.5 137t39 201v531h360v-127l-163 -28v-376q0 -163 -65 -284.5
t-182 -193.5t-273 -88v-205l163 -28v-126h-523z" />
    <glyph glyph-name="uni0471" unicode="&#x471;" horiz-adv-x="1577" 
d="M708 -474v460q-243 27 -375 178t-132 432v225q0 57 -20 79t-54 22q-20 0 -45.5 -7.5t-38.5 -13.5l-44 141q40 28 92.5 44t105.5 16q97 0 149 -55.5t52 -178.5v-274q0 -204 82 -313.5t222 -130.5l6 2v929h197v-933l6 -2q122 13 201.5 73t118.5 151t39 197
q-3 125 -35.5 253t-88.5 262h206q34 -71 60 -151t40.5 -171t14.5 -193q0 -161 -59.5 -288t-184 -205t-318.5 -92v-456h-197z" />
    <glyph glyph-name="uni0472" unicode="&#x472;" horiz-adv-x="1403" 
d="M713 -21q-188 0 -331 96t-223 263t-80 379v21q0 211 80 378.5t223 264t331 96.5q193 0 341 -96.5t231 -264t83 -378.5v-21q0 -212 -83 -379t-231 -263t-341 -96zM713 140q134 0 231.5 62t153.5 173.5t65 260.5l-2 5h-875l-2 -5q9 -148 62.5 -259.5t146.5 -174t220 -62.5z
M284 796h878l2 5q-7 151 -62.5 267t-154.5 181.5t-234 65.5q-129 0 -223.5 -65.5t-148 -181.5t-59.5 -267z" />
    <glyph glyph-name="uni0473" unicode="&#x473;" horiz-adv-x="1186" 
d="M589 -21q-150 0 -258.5 70.5t-167.5 194.5t-59 285v22q0 160 59 284.5t167 195.5t257 71t258 -71t168 -195t59 -285v-22q0 -161 -59 -285t-167 -194.5t-257 -70.5zM589 133q85 0 145.5 42t94 117t38.5 172l-2 5h-555l-2 -5q5 -97 38.5 -172t94.5 -117t148 -42zM311 624
h553l2 5q-7 93 -41.5 164.5t-94.5 112.5t-143 41q-84 0 -143.5 -41t-93.5 -112.5t-41 -164.5z" />
    <glyph glyph-name="uni0474" unicode="&#x474;" horiz-adv-x="1387" 
d="M620 0l-461 1314l-102 15v127h430v-127l-116 -20l298 -927l33 -121h6l33 121l253 805q49 156 114.5 222.5t173.5 66.5l50 -1l-1 -169h-12q-33 0 -57 -13.5t-43 -45t-38 -84.5l-392 -1163h-169z" />
    <glyph glyph-name="uni0475" unicode="&#x475;" horiz-adv-x="1164" 
d="M499 0l-331 940l-103 15v127h417v-127l-118 -20l190 -616l18 -77h6l19 77l149 535q41 127 107 187t148 60q34 0 59 -5t50 -20l-22 -151q-5 3 -16 5.5t-24 2.5q-32 0 -61.5 -26t-42.5 -68l-296 -839h-149z" />
    <glyph glyph-name="uni0476" unicode="&#x476;" horiz-adv-x="1387" 
d="M620 0l-461 1314l-102 15v127h430v-127l-116 -20l298 -927l33 -121h6l33 121l253 805q49 156 114.5 222.5t173.5 66.5l50 -1l-1 -169h-12q-33 0 -57 -13.5t-43 -45t-38 -84.5l-392 -1163h-169zM725 1582h-171l-299 266l3 6h228l241 -267zM989 1582h-150l-240 267l2 5h211
l184 -272h-7z" />
    <glyph glyph-name="uni0477" unicode="&#x477;" horiz-adv-x="1164" 
d="M499 0l-331 940l-103 15v127h417v-127l-118 -20l190 -616l18 -77h6l19 77l149 535q41 127 107 187t148 60q34 0 59 -5t50 -20l-22 -151q-5 3 -16 5.5t-24 2.5q-32 0 -61.5 -26t-42.5 -68l-296 -839h-149zM602 1288h-171l-299 266l3 6h228l241 -267zM866 1288h-150
l-240 267l2 5h211l184 -272h-7z" />
    <glyph glyph-name="uni0478" unicode="&#x478;" horiz-adv-x="2543" 
d="M675 -21q-141 0 -253 54t-190.5 152.5t-120 233.5t-41.5 298v21q0 162 41.5 297.5t120 234.5t190.5 153t253 54q149 0 262 -54t189.5 -153t115.5 -234.5t39 -297.5v-21q0 -163 -39 -298t-115.5 -233.5t-189.5 -152.5t-262 -54zM675 143q145 0 234.5 72t131.5 201.5
t42 300.5v23q0 170 -42.5 298.5t-132.5 201t-233 72.5q-131 0 -222 -73t-138 -201.5t-47 -297.5v-23q0 -170 47 -299.5t138 -202t222 -72.5zM1660 -437q-23 0 -60 5.5t-57 10.5l20 155q17 -2 47 -3.5t41 -1.5q63 0 102.5 48t73.5 131l47 114l-383 917l-116 16v127h454v-127
l-131 -20l211 -541l51 -141h6l250 682l-138 20v127h445v-127l-112 -16l-426 -1105q-30 -78 -72.5 -139.5t-104 -96.5t-148.5 -35z" />
    <glyph glyph-name="uni0479" unicode="&#x479;" horiz-adv-x="2306" 
d="M563 -21q-150 0 -258.5 70.5t-167.5 195t-59 284.5v22q0 160 59 284.5t167.5 195.5t256.5 71q150 0 258.5 -71t167.5 -195t59 -285v-22q0 -161 -59 -285.5t-167 -194.5t-257 -70zM563 133q94 0 157.5 51.5t96 141t32.5 203.5v22q0 114 -32.5 203.5t-96.5 141t-159 51.5
q-94 0 -158 -51.5t-96 -141t-32 -203.5v-22q0 -114 32 -203.5t96.5 -141t159.5 -51.5zM1423 -437q-23 0 -60 5.5t-57 10.5l20 155q17 -2 47 -3.5t41 -1.5q63 0 102.5 48t73.5 131l47 114l-383 917l-116 16v127h454v-127l-131 -20l211 -541l51 -141h6l250 682l-138 20v127
h445v-127l-112 -16l-426 -1105q-30 -78 -72.5 -139.5t-104 -96.5t-148.5 -35z" />
    <glyph glyph-name="uni047A" unicode="&#x47a;" horiz-adv-x="1445" 
d="M713 -21q-188 0 -331 96t-223 263t-80 379v21q0 211 80 378.5t223 264t331 96.5q193 0 341 -96.5t231 -264t83 -378.5v-21q0 -212 -83 -379t-231 -263t-341 -96zM713 140q145 0 247.5 73t156.5 203t54 301v23q0 169 -55 299t-157.5 203t-245.5 73q-137 0 -235 -73.5
t-150 -203t-52 -298.5v-23q0 -171 52 -301t150 -203t235 -73zM635 -141v398h161v-398h-161zM635 1200v389h161v-389h-161z" />
    <glyph glyph-name="uni047B" unicode="&#x47b;" horiz-adv-x="1166" 
d="M589 -21q-150 0 -258.5 70.5t-167.5 194.5t-59 285v22q0 160 59 284.5t167 195.5t257 71t258 -71t168 -195t59 -285v-22q0 -161 -59 -285t-167 -194.5t-257 -70.5zM589 133q93 0 157 51t96.5 140.5t32.5 204.5v22q0 113 -32.5 202.5t-96.5 141.5t-159 52t-158.5 -52
t-95.5 -141.5t-32 -202.5v-22q0 -115 32.5 -204.5t96.5 -140.5t159 -51zM508 -118v369h157v-369h-157zM508 836v370h157v-370h-157z" />
    <glyph glyph-name="uni047C" unicode="&#x47c;" horiz-adv-x="1742" 
d="M535 -21q-120 0 -209.5 51.5t-139.5 152t-50 246.5v576q0 145 49.5 245t138 151t205.5 48l6 -2v-146q-91 0 -146.5 -76t-55.5 -220v-576q0 -145 55.5 -220.5t146.5 -75.5q108 0 174.5 65.5t66.5 192.5v432h198v-432q0 -126 66 -192t174 -66q91 0 147 75.5t56 220.5v576
q0 144 -56 220t-147 76v146l6 2q116 3 205 -48t139 -151t50 -245v-576q0 -146 -50.5 -246.5t-140.5 -152t-209 -51.5q-114 0 -201.5 42.5t-137.5 127.5q-51 -85 -139 -127.5t-201 -42.5zM831 1318l-80 66l58 115l-1 140h188v-123zM556 1626v36q0 108 62 163t176 55
q36 0 93.5 -18.5t125 -43.5t135 -43.5t124.5 -18.5h45v-129h-47q-66 0 -139 18.5t-141.5 43t-119.5 43t-72 18.5q-50 0 -78.5 -27t-28.5 -79v-18h-135z" />
    <glyph glyph-name="uni047D" unicode="&#x47d;" horiz-adv-x="1532" 
d="M473 -21q-108 0 -188.5 47t-125.5 138.5t-45 225.5v291q0 133 44.5 224t124 137.5t184.5 43.5l6 -3v-146q-74 0 -118 -65.5t-44 -190.5v-291q0 -127 44 -192t118 -65q90 0 146 56t56 163v234h197v-234q0 -108 55 -163.5t146 -55.5q73 0 118 65.5t45 191.5v291
q0 125 -45 190.5t-118 65.5v146l6 3q105 3 184.5 -43.5t124.5 -137.5t45 -224v-291q0 -134 -45 -225.5t-126 -138.5t-189 -47q-100 0 -177.5 36t-122.5 108q-47 -72 -124.5 -108t-175.5 -36zM761 959l-80 66l58 115l-1 140h188v-123zM486 1267v36q0 108 62 163t176 55
q36 0 93.5 -18.5t125 -43.5t135 -43.5t124.5 -18.5h45v-129h-47q-66 0 -139 18.5t-141.5 43t-119.5 43t-72 18.5q-50 0 -79 -27t-29 -79v-18h-134z" />
    <glyph glyph-name="uni047E" unicode="&#x47e;" horiz-adv-x="1763" 
d="M543 -21q-120 0 -209.5 47t-139.5 139t-50 226v1065h197v-1065q0 -126 55.5 -192t146.5 -66q108 0 174.5 65.5t66.5 192.5v1065h204v-1065q0 -126 61 -192t161 -66q99 0 160 66t61 192v1065h197v-1065q0 -134 -52.5 -226t-146.5 -139t-219 -47q-109 0 -194 43.5
t-132 129.5q-51 -86 -139.5 -129.5t-201.5 -43.5zM779 1562v126h-313v109h821l2 -109h-332v-126h-178z" />
    <glyph glyph-name="uni047F" unicode="&#x47f;" horiz-adv-x="1564" 
d="M509 -21q-162 0 -260.5 95.5t-98.5 277.5v730h197v-730q0 -108 44 -163.5t118 -55.5q90 0 146 56t56 163v730h198v-730q0 -108 49.5 -163.5t132.5 -55.5q81 0 131.5 56t50.5 163v730h197v-730q0 -182 -105 -277.5t-274 -95.5q-94 0 -167 36t-116 107q-47 -71 -124.5 -107
t-174.5 -36zM716 1220v128h-313v109h821l3 -109h-333v-128h-178z" />
    <glyph glyph-name="uni0480" unicode="&#x480;" horiz-adv-x="1267" 
d="M590 -383v368q-143 19 -250 102.5t-166.5 215t-59.5 295.5v259q0 179 71 319t196.5 220.5t290.5 80.5t285.5 -59.5t186 -167.5t62.5 -253l-2 -6h-189q0 153 -89.5 242t-253.5 89q-110 0 -191 -61t-125.5 -166t-44.5 -236v-261q0 -133 44.5 -238t125.5 -166t191 -61h114
v-516h-196z" />
    <glyph glyph-name="uni0481" unicode="&#x481;" horiz-adv-x="1058" 
d="M488 -383v370q-121 21 -207 96t-131.5 188.5t-45.5 248.5v42q0 151 57.5 273.5t164 194.5t252.5 72q121 0 216 -51.5t149 -139t51 -196.5l-2 -6h-178q0 65 -31.5 119t-85 86.5t-119.5 32.5q-91 0 -153 -53t-93 -141t-31 -191v-42q0 -106 30.5 -194t92 -140.5t154.5 -52.5
h107v-516h-197z" />
    <glyph glyph-name="uni0482" unicode="&#x482;" horiz-adv-x="1138" 
d="M103 0l225 398l-289 171l70 124l293 -171l203 364l-290 171l72 126l291 -171l186 330h170l-228 -407l293 -171l-76 -124l-288 170l-204 -363l289 -172l-72 -125l-291 170l-181 -320h-173z" />
    <glyph glyph-name="uni0483" unicode="&#x483;" 
d="M215 1188l-175 1v235h545l-1 108l175 -1v-217h-544v-126z" />
    <glyph glyph-name="uni0484" unicode="&#x484;" 
d="M40 1303v130h44q57 0 124.5 18.5t135 43.5t125 43.5t93.5 18.5q113 0 175.5 -55t62.5 -163v-36h-134v18q0 52 -29.5 79t-78.5 27q-21 0 -72.5 -18.5t-120 -43.5t-141.5 -43.5t-138 -18.5h-46z" />
    <glyph glyph-name="uni0485" unicode="&#x485;" 
d="M204 1301l-164 199v123h187l-1 -140l59 -116z" />
    <glyph glyph-name="uni0486" unicode="&#x486;" 
d="M120 1301l-80 66l58 116l-1 140h188v-123z" />
    <glyph glyph-name="uni0488" unicode="&#x488;" horiz-adv-x="2016" 
d="M218 990l-2 6q-5 79 51.5 130.5t153.5 51.5q96 0 152.5 -51.5t52.5 -130.5l-2 -6h-104q0 43 -24.5 72t-74.5 29t-73.5 -29t-23.5 -72h-106zM208 -32l-2 6q-5 78 51.5 130t152.5 52t153 -51.5t53 -130.5l-2 -6h-105q0 44 -24 72.5t-75 28.5q-50 0 -73 -29t-23 -72h-106z
M796 -316l-2 6q-5 80 51 131t153 51q96 0 152.5 -51t52.5 -131l-2 -6h-104q0 44 -24.5 72.5t-74.5 28.5t-73.5 -28.5t-23.5 -72.5h-105zM42 487l-2 6q-5 78 51.5 130t152.5 52t152.5 -51.5t52.5 -130.5l-2 -6h-104q0 44 -24 72.5t-75 28.5q-50 0 -73.5 -29t-23.5 -72h-105z
M1372 -32l-2 6q-5 78 51.5 130t152.5 52t152.5 -51.5t52.5 -130.5l-2 -6h-104q0 44 -24 72.5t-75 28.5q-50 0 -73.5 -29t-23.5 -72h-105zM1569 487l-2 6q-5 78 51.5 130t152.5 52t152.5 -51.5t52.5 -130.5l-2 -6h-104q0 44 -24 72.5t-75 28.5q-50 0 -73.5 -29t-23.5 -72
h-105zM791 1267l-2 6q-5 79 51 130.5t153 51.5q96 0 152.5 -51.5t52.5 -130.5l-2 -6h-104q0 43 -24.5 72t-74.5 29t-73.5 -29t-23.5 -72h-105zM1382 990l-2 6q-5 78 51.5 130t152.5 52t153 -51.5t53 -130.5l-2 -6h-105q0 44 -24 72.5t-75 28.5q-50 0 -73 -29t-23 -72h-106z
" />
    <glyph glyph-name="uni0489" unicode="&#x489;" horiz-adv-x="1936" 
d="M304 -149l-69 69l294 200l97 -99l-2 -17zM860 -413l70 353h137l11 -14l-122 -339h-96zM373 421l-333 124v98l346 -71v-139zM1548 -237l-197 299l97 99l17 -2l149 -325zM486 860l-17 2l-148 326l65 69l198 -299zM1896 421l-346 71v139l13 12l333 -124v-98zM872 1126
l-12 14l122 338h96l-70 -352h-136zM1407 903l-97 99l2 16l321 153l68 -68q-19 -11 -92.5 -61t-201.5 -139z" />
    </font>
</defs>
</svg>
