<?xml version="1.0" standalone="no"?>
<!DOCTYPE svg PUBLIC "-//W3C//DTD SVG 1.1//EN" "http://www.w3.org/Graphics/SVG/1.1/DTD/svg11.dtd" >
<svg xmlns="http://www.w3.org/2000/svg" xmlns:xlink="http://www.w3.org/1999/xlink" version="1.1">
<metadata>
Created by FontForge 20170731 at Tue Oct 22 06:33:30 2019
 By Aleksey,,,
Copyright (c) 2002, Adobe
</metadata>
<defs>
<font id="UniversLT-45LtObl" horiz-adv-x="556" >
  <font-face 
    font-family="Univers LT Light"
    font-weight="300"
    font-stretch="normal"
    units-per-em="1000"
    panose-1="2 0 3 3 0 0 0 0 0 0"
    ascent="800"
    descent="-200"
    x-height="502"
    cap-height="725"
    bbox="-43 -250 1144 957"
    underline-thickness="50"
    underline-position="-150"
    unicode-range="U+000D-2122"
  />
<missing-glyph horiz-adv-x="500" 
d="M0 0v700h500v-700h-500zM250 395l170 255h-340zM280 350l170 -255v510zM80 50h340l-170 255zM50 605v-510l170 255z" />
    <glyph glyph-name=".notdef" horiz-adv-x="500" 
d="M0 0v700h500v-700h-500zM250 395l170 255h-340zM280 350l170 -255v510zM80 50h340l-170 255zM50 605v-510l170 255z" />
    <glyph glyph-name="glyph1" horiz-adv-x="0" 
 />
    <glyph glyph-name="glyph1" horiz-adv-x="0" 
 />
    <glyph glyph-name="uni000D" unicode="&#xd;" horiz-adv-x="1000" 
 />
    <glyph glyph-name="space" unicode=" " horiz-adv-x="278" 
 />
    <glyph glyph-name="exclam" unicode="!" horiz-adv-x="389" 
d="M259 171h-56l104 551h82zM173 86h80l-18 -86h-80z" />
    <glyph glyph-name="quotedbl" unicode="&#x22;" horiz-adv-x="278" 
d="M163 496l48 226h52l-48 -226h-52zM273 496l48 226h52l-48 -226h-52z" />
    <glyph glyph-name="numbersign" unicode="#" 
d="M451 423h-135l-51 -137h137zM630 483l-13 -60h-107l-49 -137h101l-13 -60h-110l-79 -226h-59l79 226h-136l-82 -226h-58l82 226h-109l13 60h118l49 137h-111l13 60h119l76 209h59l-75 -209h135l74 209h59l-75 -209h99z" />
    <glyph glyph-name="dollar" unicode="$" 
d="M367 309l-56 -264q57 4 108 38.5t63 92.5q6 24 1 43.5t-12.5 31t-27 23.5t-30.5 16.5t-36 14.5q-7 3 -10 4zM298 -15l-11 -53h-50l11 53q-88 3 -140 51.5t-29 139.5h70q-17 -62 15.5 -94.5t96.5 -36.5l58 275q-6 3 -29.5 12t-39.5 16t-37.5 22.5t-33.5 33t-17 47t2 64.5
q17 77 90.5 134.5t146.5 57.5l10 48h50l-10 -48q78 0 127.5 -47t37.5 -128h-70q11 58 -21.5 86.5t-85.5 30.5l-59 -275q32 -11 43 -14.5t38.5 -15.5t37.5 -20t27 -24t22 -32.5t7.5 -41t-3.5 -52.5q-19 -91 -93 -140t-161 -49zM334 389l55 258q-52 -1 -97 -37t-57 -94
q-12 -53 16.5 -81t82.5 -46z" />
    <glyph glyph-name="percent" unicode="%" horiz-adv-x="1000" 
d="M418 662q-53 0 -88 -43.5t-47 -100.5t4 -100.5t69 -43.5t88 43.5t47 100.5t-4 100.5t-69 43.5zM803 707h58l-540 -707h-58zM427 707q73 0 104.5 -55.5t15 -133.5t-71.5 -133.5t-128 -55.5t-104 55.5t-14.5 133.5t71 133.5t127.5 55.5zM800 363q73 0 104.5 -55.5
t14.5 -133.5t-71.5 -133.5t-127.5 -55.5t-104.5 55.5t-14.5 133.5t71.5 133.5t127.5 55.5zM791 318q-53 0 -88 -43.5t-47 -100.5t4 -100.5t69 -43.5t88 43.5t47 100.5t-4 100.5t-69 43.5z" />
    <glyph glyph-name="ampersand" unicode="&#x26;" horiz-adv-x="722" 
d="M530 138l-174 243q-36 -21 -70.5 -44t-72.5 -59.5t-44 -65.5q-16 -76 30 -121.5t123 -45.5q57 0 106 23.5t102 69.5zM385 461q8 7 30 23.5t34.5 27t28.5 26.5t25.5 32.5t13.5 34.5q7 35 -15 53.5t-58 18.5q-39 0 -69 -17.5t-37 -54.5q-13 -59 47 -144zM320 422l5 4
q-25 37 -35.5 55.5t-19.5 55t-2 69.5q13 63 67 97t119 34t106 -33t27 -95q-8 -40 -38 -78t-58 -59.5t-76 -52.5l163 -225q36 55 64.5 130t38.5 137h70q-1 -3 -9.5 -31t-10.5 -33.5t-10 -31t-11 -34t-12 -30.5t-14 -33t-14 -30t-17.5 -31.5t-18.5 -28t-21 -29.5l105 -149h-93
l-66 96q-117 -111 -244 -111q-113 0 -176.5 58t-42.5 155q7 32 25 61.5t35.5 48.5t53 44.5t52.5 35.5t58 34z" />
    <glyph glyph-name="quotesingle" unicode="'" horiz-adv-x="278" 
d="M218 496l48 226h52l-48 -226h-52z" />
    <glyph glyph-name="parenleft" unicode="(" horiz-adv-x="278" 
d="M214 -96h-51q-2 12 -9.5 55t-10 59.5t-7 54.5t-5.5 61t-1 56.5t3 63t10 59.5q13 65 50 146t61.5 124t82.5 139h50q-135 -224 -174 -409q-39 -183 1 -409z" />
    <glyph glyph-name="parenright" unicode=")" horiz-adv-x="278" 
d="M75 -96h-51q136 226 175 409q39 185 -2 409h50q18 -96 24.5 -139t8.5 -124t-11 -146q-7 -30 -16 -59.5t-24 -63t-25 -56.5t-31.5 -61t-31 -54.5t-35 -59.5t-31.5 -55z" />
    <glyph glyph-name="asterisk" unicode="*" 
d="M364 722l40 -136l95 136l46 -28l-115 -127l145 12l-12 -58l-140 11l59 -129l-58 -27l-36 138l-98 -140l-43 29l114 128l-146 -10l12 58l143 -12l-65 126z" />
    <glyph glyph-name="plus" unicode="+" horiz-adv-x="660" 
d="M360 281l47 221h60l-47 -221h220l-13 -60h-220l-47 -221h-60l47 221h-220l13 60h220z" />
    <glyph glyph-name="comma" unicode="," horiz-adv-x="278" 
d="M119 81h81l-115 -205h-52z" />
    <glyph glyph-name="hyphen" unicode="-" horiz-adv-x="278" 
d="M63 237l13 60h252l-13 -60h-252z" />
    <glyph glyph-name="period" unicode="." horiz-adv-x="278" 
d="M179 0h-80l18 86h80z" />
    <glyph glyph-name="slash" unicode="/" horiz-adv-x="278" 
d="M-43 -96l432 818h65l-434 -818h-63z" />
    <glyph glyph-name="zero" unicode="0" 
d="M416 647q-160 0 -224 -301t96 -301t224 301t-96 301zM428 707q230 0 153.5 -361t-306.5 -361t-153.5 361t306.5 361z" />
    <glyph glyph-name="one" unicode="1" 
d="M226 518l14 65q91 34 182 109h62l-147 -692h-65l132 622q-73 -58 -178 -104z" />
    <glyph glyph-name="two" unicode="2" 
d="M485 0h-435l14 68q56 42 115.5 90.5t139 119t134.5 137t64 109.5q13 58 -20 90.5t-92 32.5q-62 0 -109.5 -38.5t-60.5 -99.5h-70q19 90 90.5 144t163.5 54q88 0 138 -46.5t31 -132.5q-7 -33 -27.5 -70.5t-54.5 -76.5t-66.5 -72t-81 -73.5t-78 -65t-77.5 -62t-62 -48.5
h357z" />
    <glyph glyph-name="three" unicode="3" 
d="M295 329l13 63q46 -5 90.5 5.5t81.5 43t47 81.5q12 58 -25 91.5t-101 33.5q-66 0 -112.5 -33t-65.5 -93h-70q18 84 91.5 135t159.5 51q97 0 154.5 -47.5t37.5 -141.5q-13 -60 -61.5 -101.5t-112.5 -54.5v-2q64 -15 96.5 -61t17.5 -114q-19 -92 -102 -146t-177 -54
q-96 0 -149.5 51.5t-36.5 146.5h70q-12 -62 26.5 -100t101.5 -38q73 0 128.5 38.5t70.5 109.5q11 53 -13 87t-66.5 45t-93.5 4z" />
    <glyph glyph-name="four" unicode="4" 
d="M347 0l34 161h-325l14 63l403 468h86l-101 -477h111l-12 -54h-111l-34 -161h-65zM393 215l87 412h-2l-355 -412h270z" />
    <glyph glyph-name="five" unicode="5" 
d="M138 291l101 401h381l-13 -60h-319l-63 -247l1 -2q79 73 168 73q95 0 138.5 -67.5t23.5 -163.5q-22 -102 -97.5 -171t-175.5 -69q-95 0 -148.5 46t-36.5 139h70q-10 -60 24.5 -92.5t96.5 -32.5q77 0 128.5 51.5t68.5 131.5q17 77 -13 122.5t-106 45.5q-51 0 -96.5 -28.5
t-65.5 -76.5h-67z" />
    <glyph glyph-name="six" unicode="6" 
d="M380 394q-80 0 -135.5 -51.5t-72.5 -131.5q-14 -67 20.5 -116.5t100.5 -49.5q74 0 126 47.5t68 123.5q16 75 -9.5 126.5t-97.5 51.5zM447 707q89 0 137 -45.5t31 -131.5h-70q9 53 -21.5 85t-85.5 32q-48 0 -87.5 -20.5t-65 -50.5t-46.5 -75t-32 -82t-21 -83h2
q35 55 89 84t117 29q100 0 142.5 -63.5t21 -165.5t-94.5 -168.5t-173 -66.5q-70 0 -114.5 27t-61.5 74.5t-17 103t14 121.5q13 61 28 110t42.5 105t62 93.5t87 62.5t116.5 25z" />
    <glyph glyph-name="seven" unicode="7" 
d="M639 692l-12 -58l-404 -634h-76l411 632h-373l13 60h441z" />
    <glyph glyph-name="eight" unicode="8" 
d="M270 359l1 2q-59 6 -89.5 52t-17.5 108q19 90 95.5 138t168.5 48t148.5 -48t37.5 -138q-13 -61 -61 -103.5t-112 -56.5v-1q140 -39 112 -172q-21 -98 -101.5 -150.5t-176.5 -52.5t-154.5 52.5t-37.5 150.5q13 65 64 110.5t123 60.5zM229 521q-14 -63 23 -96.5t109 -33.5
t123 33.5t65 96.5q14 65 -26.5 98t-105.5 33t-119.5 -33t-68.5 -98zM153 188q-15 -70 25 -106.5t110 -36.5t125 36.5t70 106.5t-25 106.5t-110 36.5t-125 -36.5t-70 -106.5z" />
    <glyph glyph-name="nine" unicode="9" 
d="M405 647q-74 0 -123.5 -47.5t-65.5 -123.5q-14 -69 16.5 -112t98.5 -43q72 0 129.5 46t72.5 118q15 71 -21 116.5t-107 45.5zM83 170h70q-22 -125 124 -125q55 0 100 34.5t73 91.5t44 103.5t27 97.5h-2q-36 -50 -90.5 -78t-114.5 -28q-93 0 -140 61t-27 154
q21 100 95 163t174 63q246 0 174 -342q-13 -61 -30 -111.5t-45 -102t-64 -87t-88.5 -57.5t-116.5 -22q-90 0 -132 50t-31 135z" />
    <glyph glyph-name="colon" unicode=":" horiz-adv-x="278" 
d="M206 502h80l-19 -86h-80zM117 86h80l-18 -86h-80z" />
    <glyph glyph-name="semicolon" unicode=";" horiz-adv-x="278" 
d="M138 81h81l-115 -205h-52zM214 502h80l-19 -86h-80z" />
    <glyph glyph-name="less" unicode="&#x3c;" horiz-adv-x="660" 
d="M212 251l379 -197l-13 -64l-450 235l11 53l547 223l-13 -64z" />
    <glyph glyph-name="equal" unicode="=" horiz-adv-x="660" 
d="M660 378l-12 -60h-500l12 60h500zM619 184l-13 -60h-500l13 60h500z" />
    <glyph glyph-name="greater" unicode="&#x3e;" horiz-adv-x="660" 
d="M554 251l-379 197l14 64l450 -235l-11 -53l-548 -223l14 64z" />
    <glyph glyph-name="question" unicode="?" horiz-adv-x="500" 
d="M270 169h-60l23 108q6 26 31.5 53t57.5 51t64.5 49.5t58.5 58t33 67.5q14 65 -26 93t-110 28q-44 0 -97 -15l13 61q49 14 113 14q91 0 141 -46t32 -133q-9 -39 -32.5 -74t-44.5 -54.5t-65 -54.5q-19 -16 -44 -36.5t-33.5 -27.5t-19.5 -19.5t-15 -24t-5 -28.5zM182 86h80
l-18 -86h-80z" />
    <glyph glyph-name="at" unicode="@" horiz-adv-x="800" 
d="M319 290q-8 -38 6.5 -66t50.5 -28q63 1 132.5 91.5t86.5 166.5q6 30 -8.5 50.5t-44.5 20.5q-73 0 -140 -79t-83 -156zM650 520l24 46h66l-163 -300q-11 -19 -16.5 -31t-7.5 -23.5t4 -17t20 -5.5q39 0 84 37.5t78.5 92.5t45.5 108q25 117 -41.5 188.5t-183.5 71.5
q-136 0 -245.5 -96.5t-138.5 -233.5q-29 -135 42 -228.5t205 -93.5q78 0 156.5 35.5t135.5 99.5h58q-64 -85 -162.5 -135t-197.5 -50q-159 0 -244 110.5t-52 268.5q33 154 166.5 263.5t285.5 109.5q144 0 224 -89t51 -224q-24 -114 -117 -202t-176 -88q-29 0 -50 13.5
t-23 38.5q-59 -50 -130 -50q-62 0 -90.5 43t-14.5 106q14 68 58.5 136.5t112.5 116t138 47.5q36 0 62.5 -17t35.5 -48z" />
    <glyph glyph-name="A" unicode="A" horiz-adv-x="667" 
d="M227 255h315l-69 407zM76 0h-67l439 722h76l135 -722h-71l-36 195h-359z" />
    <glyph glyph-name="B" unicode="B" horiz-adv-x="667" 
d="M238 344l-60 -284h159q97 -2 153 30t73 112q8 36 1.5 62t-23 41.5t-45.5 24t-61 11.5t-77 3h-120zM251 404h157q71 0 126 31.5t70 99.5q26 125 -144 127h-154zM375 0h-275l153 722l259 -1q84 0 132.5 -48.5t30.5 -131.5q-13 -59 -60.5 -104t-108.5 -59v-2
q72 -12 106.5 -59.5t18.5 -123.5q-17 -80 -82 -136.5t-174 -56.5z" />
    <glyph glyph-name="C" unicode="C" horiz-adv-x="667" 
d="M730 553h-70q5 62 -36 93t-108 31q-66 0 -121 -28t-91.5 -75.5t-60 -100t-36 -112.5t-11.5 -112.5t17 -100t59.5 -75.5t109.5 -28q65 0 122 33t83 97h70q-34 -88 -115.5 -139t-172.5 -51q-79 0 -134 30.5t-80.5 83t-29.5 119t13 143.5q16 76 48.5 142.5t80.5 119.5
t115.5 83.5t146.5 30.5q97 0 155 -46t46 -138z" />
    <glyph glyph-name="D" unicode="D" horiz-adv-x="722" 
d="M169 60h146q147 0 233 79t117 222q33 156 -37 231t-229 70h-102zM244 722h195q179 0 256.5 -91.5t39.5 -269.5t-154 -269.5t-295 -91.5h-195z" />
    <glyph glyph-name="E" unicode="E" horiz-adv-x="611" 
d="M546 0h-444l153 722h429l-12 -60h-364l-55 -259h350l-13 -60h-350l-60 -283h379z" />
    <glyph glyph-name="F" unicode="F" 
d="M160 0h-65l153 722h408l-12 -60h-343l-54 -255h331l-13 -60h-331z" />
    <glyph glyph-name="G" unicode="G" horiz-adv-x="722" 
d="M463 368h246l-72 -338q-124 -45 -268 -45q-145 0 -204.5 103t-23.5 273q15 72 48 137.5t81.5 119.5t116 86.5t142.5 32.5q97 0 160.5 -51t52.5 -142h-74q4 65 -39.5 99t-112.5 34q-62 0 -115.5 -28t-90.5 -74.5t-62 -100.5t-37 -113q-31 -146 17 -231t188 -85
q58 0 166 30l49 233h-181z" />
    <glyph glyph-name="H" unicode="H" horiz-adv-x="722" 
d="M164 0h-65l153 722h65l-67 -317h394l67 317h65l-153 -722h-65l73 345h-394z" />
    <glyph glyph-name="I" unicode="I" horiz-adv-x="278" 
d="M172 0h-65l154 725h65z" />
    <glyph glyph-name="J" unicode="J" horiz-adv-x="500" 
d="M51 178h70q-8 -59 21.5 -96t87.5 -37q64 0 106.5 53t58.5 127l105 497h65l-103 -487q-25 -118 -88 -179q-73 -71 -178 -71q-83 0 -117.5 53.5t-27.5 139.5z" />
    <glyph glyph-name="K" unicode="K" horiz-adv-x="611" 
d="M170 0h-64l153 722h64l-66 -318l390 318h82l-402 -326l279 -396h-89l-266 377z" />
    <glyph glyph-name="L" unicode="L" 
d="M528 0h-428l153 722h65l-140 -662h363z" />
    <glyph glyph-name="M" unicode="M" horiz-adv-x="944" 
d="M162 0h-65l153 722h104l138 -629l410 629h99l-153 -722h-65l142 667h-2l-418 -667h-65l-135 664h-2z" />
    <glyph glyph-name="N" unicode="N" horiz-adv-x="722" 
d="M92 0l153 722h74l263 -635h2l135 635h65l-153 -722h-82l-257 624h-2l-133 -624h-65z" />
    <glyph glyph-name="O" unicode="O" horiz-adv-x="778" 
d="M214 361q-13 -62 -10.5 -116.5t22 -100t64 -72.5t109.5 -27t120.5 27t94 72.5t65 100t39.5 116.5t10 116.5t-22.5 100t-63.5 72.5t-109 27t-121 -27t-94.5 -72.5t-64.5 -100t-39 -116.5zM787.5 361q-36.5 -172 -142.5 -274t-259 -102t-216 102t-26.5 274t143 274
t259.5 102t215.5 -102t26 -274z" />
    <glyph glyph-name="P" unicode="P" horiz-adv-x="611" 
d="M306 662l-62 -288h158q183 0 214 144t-152 144h-158zM165 0h-65l153 722h181q59 1 105 -7t86.5 -29t57 -63.5t3.5 -104.5t-47.5 -104.5t-84 -63.5t-99 -29t-107.5 -7h-116z" />
    <glyph glyph-name="Q" unicode="Q" horiz-adv-x="778" 
d="M738 0h-147q-9 0 -35.5 2t-50.5 2t-42 -5q-47 -14 -77 -14q-153 0 -216 102t-26.5 274t143 274t259.5 102t215.5 -102t26.5 -274q-20 -93 -71 -174.5t-126 -131.5l1 -2q23 4 49.5 5t60 1t49.5 1zM214 361q-13 -62 -10.5 -116.5t22 -100t64 -72.5t109.5 -27t120.5 27
t94 72.5t65 100t39.5 116.5t10 116.5t-22.5 100t-63.5 72.5t-109 27t-121 -27t-94.5 -72.5t-64.5 -100t-39 -116.5z" />
    <glyph glyph-name="R" unicode="R" horiz-adv-x="667" 
d="M254 404h139q34 0 58 1.5t55.5 8.5t53 20t40.5 38.5t26 60.5q6 27 3.5 48t-9 34.5t-23 23t-28 14t-35 7t-33 2.5h-33.5h-13h-146zM241 344l-73 -344h-65l153 722h236q109 0 162 -38q65 -44 42 -151q-12 -58 -58 -98.5t-114 -56.5v-2q62 -10 78 -49.5t9 -111.5
q-4 -30 -9.5 -74.5t-7 -62.5t0 -40t8.5 -38h-75q-7 48 7 150q6 47 8 72.5t0.5 51t-8.5 36t-22.5 20t-37 12t-55.5 2.5h-179z" />
    <glyph glyph-name="S" unicode="S" horiz-adv-x="611" 
d="M593 190q-12 -57 -43.5 -98t-77 -63.5t-95 -33t-107.5 -10.5q-88 0 -138.5 57.5t-33.5 145.5h70q-27 -143 151 -143q67 0 128 37t75 102q19 89 -86 126q-11 4 -42.5 14.5t-47 16.5t-44 18.5t-43 23t-33.5 27.5t-27 35.5t-11.5 43.5t2.5 53q19 90 99.5 142.5t172.5 52.5
q39 0 73 -8t66 -25.5t48 -53t11 -85.5h-70q6 32 -2.5 55t-29.5 35t-46 17t-55 5q-64 0 -123 -32.5t-72 -93.5q-9 -41 7.5 -71t48.5 -47t72.5 -31t81 -30t72 -37t46 -58t3.5 -87z" />
    <glyph glyph-name="T" unicode="T" 
d="M248 0l140 662h-233l12 60h528l-12 -60h-229l-142 -662h-64z" />
    <glyph glyph-name="U" unicode="U" horiz-adv-x="722" 
d="M250 722h65l-99 -467q-17 -98 24.5 -154t130.5 -56t153.5 56t89.5 154l99 467h65l-99 -468q-28 -121 -111 -195t-210 -74t-179 74t-28 195z" />
    <glyph glyph-name="V" unicode="V" horiz-adv-x="611" 
d="M230 722l93 -657h2l368 657h65l-414 -722h-74l-111 722h71z" />
    <glyph glyph-name="W" unicode="W" horiz-adv-x="1000" 
d="M636 655l-346 -655h-92l-35 722h69l29 -657h2l350 657h79l81 -657h2l306 657h63l-343 -722h-89l-74 655h-2z" />
    <glyph glyph-name="X" unicode="X" horiz-adv-x="611" 
d="M370 323l-288 -323h-74l336 372l-170 350h85l140 -304l276 304h73l-324 -350l179 -372h-83z" />
    <glyph glyph-name="Y" unicode="Y" horiz-adv-x="611" 
d="M274 0l66 312l-179 410h83l147 -349l295 349h70l-350 -408l-67 -314h-65z" />
    <glyph glyph-name="Z" unicode="Z" 
d="M517 0h-478l13 60l529 602h-401l12 60h478l-12 -60l-530 -602h402z" />
    <glyph glyph-name="bracketleft" unicode="[" horiz-adv-x="278" 
d="M202 -96h-137l173 818h137l-10 -50h-72l-153 -718h72z" />
    <glyph glyph-name="backslash" unicode="\" horiz-adv-x="278" 
d="M258 0l-149 722h65l149 -722h-65z" />
    <glyph glyph-name="bracketright" unicode="]" horiz-adv-x="278" 
d="M209 722h137l-173 -818h-137l10 50h72l153 718h-72z" />
    <glyph glyph-name="asciicircum" unicode="^" horiz-adv-x="660" 
d="M183 239h-58l326 453h52l135 -453h-57l-118 392z" />
    <glyph glyph-name="underscore" unicode="_" horiz-adv-x="500" 
d="M474 -124h-500l12 56h500z" />
    <glyph glyph-name="grave" unicode="`" horiz-adv-x="278" 
d="M170 707h80l61 -143h-44z" />
    <glyph glyph-name="a" unicode="a" horiz-adv-x="500" 
d="M131 140q-11 -49 16 -74.5t76 -25.5q162 0 195 213q-9 0 -40.5 -0.5t-50 -1.5t-49 -4t-51 -10.5t-42 -19.5t-35.5 -31.5t-19 -45.5zM429 308l10 46q9 59 -15.5 83.5t-80.5 24.5q-113 0 -141 -87h-64q51 142 218 142q86 0 123.5 -41t19.5 -125l-51 -238q-4 -19 -19 -113
h-62l14 74h-2l-5 -7q-24 -33 -74.5 -57.5t-99.5 -24.5q-72 0 -110.5 42t-23.5 113q10 50 46 88t86 57q32 13 69 17.5t91.5 4.5t70.5 1z" />
    <glyph glyph-name="b" unicode="b" 
d="M390 462q-82 0 -134 -58t-71 -143q-20 -97 7 -159t118 -62q41 0 74.5 20.5t56.5 54.5t37 69t22 74q11 52 7 96t-33.5 76t-83.5 32zM146 74l-19 -74h-62q23 85 29 113l129 609h60l-62 -294l2 -2q34 43 86.5 67t104.5 24q71 0 110.5 -40t46.5 -97.5t-7 -126.5
q-11 -50 -32 -95.5t-53 -85t-77.5 -63.5t-97.5 -24q-111 0 -155 93z" />
    <glyph glyph-name="c" unicode="c" horiz-adv-x="500" 
d="M536 348h-65q17 114 -113 114q-67 0 -121 -61t-72 -149q-19 -89 9 -150.5t95 -61.5q58 0 102 32.5t59 84.5h65q-60 -172 -232 -172q-106 0 -146.5 77.5t-17.5 188.5q24 110 99.5 188t181.5 78q80 0 124.5 -45.5t31.5 -123.5z" />
    <glyph glyph-name="d" unicode="d" 
d="M480 263q18 85 -10 142t-110 57q-54 0 -96 -31.5t-64.5 -75t-33.5 -95.5q-8 -39 -9 -74.5t6 -70t32.5 -55t66.5 -20.5q62 0 109 33t71.5 80.5t37.5 109.5zM429 0l13 74l-1 4q-84 -93 -192 -93q-53 0 -89.5 24t-51.5 63.5t-17 85t9 95.5q14 69 46 126.5t88.5 97.5
t127.5 40q52 0 94.5 -24t58.5 -67l2 2l62 294h60l-129 -609q-6 -28 -19 -113h-62z" />
    <glyph glyph-name="e" unicode="e" 
d="M553 237h-388q-16 -87 15 -142t118 -55q53 0 100.5 34t69.5 86h63q-82 -175 -264 -175q-106 0 -146.5 77.5t-17.5 188.5q24 110 99.5 188t181.5 78q119 0 157.5 -76.5t11.5 -203.5zM179 292h321q10 77 -21 123.5t-106 46.5q-69 0 -120.5 -49t-73.5 -121z" />
    <glyph glyph-name="f" unicode="f" horiz-adv-x="333" 
d="M183 0h-60l95 447h-101l12 55h101l22 107q14 65 49 95t99 30q8 0 55 -11l-11 -48q-23 4 -36 4q-56 0 -75 -25t-30 -88l-13 -64h114l-12 -55h-114z" />
    <glyph glyph-name="g" unicode="g" 
d="M482 262q16 79 -13.5 139.5t-105.5 60.5q-51 0 -94 -32t-68 -76.5t-36 -93.5q-17 -79 10.5 -141t103.5 -62q80 0 132.5 61t70.5 144zM517 428l19 74h62q-23 -85 -29 -113l-64 -301l-3 -12q-8 -39 -13 -59t-17.5 -53.5t-27 -53.5t-40.5 -42.5t-60 -36.5q-53 -23 -119 -23
q-51 0 -90.5 11.5t-65 43t-14.5 80.5h65q-4 -41 33 -60.5t92 -19.5q61 0 114 39t67 100l20 94h-2q-30 -43 -81.5 -68.5t-101.5 -25.5q-108 0 -146.5 71t-15.5 182q16 72 49 129t90.5 95t130.5 38q101 0 145 -93z" />
    <glyph glyph-name="h" unicode="h" 
d="M293 722l-62 -296h2q70 91 176 91q47 0 78 -16t44 -38t17 -53t2 -52t-7 -44l-67 -314h-60l69 324q14 65 -13.5 101.5t-89.5 36.5q-70 0 -117.5 -50t-63.5 -123l-61 -289h-60l153 722h60z" />
    <glyph glyph-name="i" unicode="i" horiz-adv-x="222" 
d="M188 502h60l-107 -502h-60zM299 722l-15 -75h-70l15 75h70z" />
    <glyph glyph-name="j" unicode="j" horiz-adv-x="222" 
d="M-38 -192l12 55q57 -1 72 18.5t31 99.5q5 23 8 36l103 485h60l-112 -524q-8 -39 -13 -58.5t-14 -43t-20 -34t-28.5 -20.5t-41 -12.5t-57.5 -1.5zM299 722l-15 -75h-70l15 75h70z" />
    <glyph glyph-name="k" unicode="k" horiz-adv-x="500" 
d="M299 722l-90 -425l287 205h77l-300 -217l213 -285h-76l-206 272l-58 -272h-60l153 722h60z" />
    <glyph glyph-name="l" unicode="l" horiz-adv-x="222" 
d="M294 722l-153 -722h-60l153 722h60z" />
    <glyph glyph-name="m" unicode="m" horiz-adv-x="889" 
d="M243 502l-13 -74l2 -2q70 91 176 91q59 0 96 -30t44 -80q92 110 196 110q47 0 78 -16t44 -38t17 -53t2 -52t-7 -44l-67 -314h-60l69 324q14 65 -13.5 101.5t-89.5 36.5q-70 0 -117.5 -50t-63.5 -123l-61 -289h-60l69 324q14 65 -13.5 101.5t-89.5 36.5q-70 0 -117.5 -50
t-63.5 -123l-61 -289h-60l83 389q6 28 19 113h62z" />
    <glyph glyph-name="n" unicode="n" 
d="M201 289l-61 -289h-60l83 389q6 28 19 113h62l-13 -74l2 -2q70 91 176 91q47 0 78 -16t44 -38t17 -53t2 -52t-7 -44l-67 -314h-60l69 324q14 65 -13.5 101.5t-89.5 36.5q-70 0 -117.5 -50t-63.5 -123z" />
    <glyph glyph-name="o" unicode="o" 
d="M500.5 251q17.5 81 -12 146t-112.5 65t-139.5 -65t-74 -146t12 -146t112.5 -65t139.5 65t74 146zM388 517q113 0 156.5 -79t20.5 -187t-100 -187t-190 -79t-157 79t-21 187t100.5 187t190.5 79z" />
    <glyph glyph-name="p" unicode="p" 
d="M186 263q-13 -62 -8.5 -109.5t37.5 -80.5t95 -33q41 0 74.5 20.5t56.5 55t37 70t22 74.5q11 52 7 95.5t-33.5 75t-83.5 31.5q-82 0 -134 -57t-70 -142zM147 78l-58 -270h-60l124 581q4 19 19 113h62l-13 -74l2 -2q34 43 86.5 67t104.5 24q71 0 110.5 -40t46.5 -97.5
t-7 -126.5q-11 -50 -32 -95.5t-53 -85t-77.5 -63.5t-97.5 -24q-111 0 -155 93h-2z" />
    <glyph glyph-name="q" unicode="q" 
d="M482 263q18 85 -10 142t-110 57q-54 0 -96.5 -31.5t-65.5 -75t-34 -95.5q-8 -39 -9 -74.5t7 -70t33.5 -55t66.5 -20.5q62 0 109 33t71.5 80.5t37.5 109.5zM517 428l19 74h62q-23 -85 -29 -113l-124 -580h-60l58 269h-2q-84 -93 -195 -93q-52 0 -87.5 24t-50.5 63.5
t-17 85t9 95.5q14 69 46 126.5t88.5 97.5t127.5 40q52 0 94 -23.5t59 -65.5l-1 -3h2z" />
    <glyph glyph-name="r" unicode="r" horiz-adv-x="333" 
d="M204 302l-64 -302h-60l83 389q4 19 19 113h62l-13 -74h2q22 38 58.5 63t73.5 26q20 1 60 -1l-13 -58q-4 0 -16.5 2t-19.5 2q-65 0 -109.5 -43t-62.5 -117z" />
    <glyph glyph-name="s" unicode="s" horiz-adv-x="500" 
d="M143 377q15 72 76.5 106t137.5 34q173 0 153 -139h-65q10 84 -106 84q-47 0 -84 -20t-46 -61q-4 -21 3.5 -35t28.5 -23.5t44 -16t62 -17.5t71 -23q36 -14 52 -45.5t8 -71.5q-17 -80 -88 -122t-158 -42q-47 0 -84.5 14t-60 50t-12.5 88h65q-8 -52 26.5 -74.5t92.5 -22.5
q53 0 97 25.5t55 74.5q6 31 -13 52t-40 28t-68 18q-11 3 -17 4q-35 9 -55.5 16.5t-43.5 22.5t-30.5 39t-0.5 57z" />
    <glyph glyph-name="t" unicode="t" horiz-adv-x="333" 
d="M151 134l67 313h-100l12 55h100l22 107l66 26l-28 -133h114l-12 -55h-114l-71 -336q-17 -71 54 -71q33 0 53 6l-11 -52q-36 -9 -63 -9q-29 0 -49.5 5t-31 17t-16 22t-4 30t3 31t6.5 34q2 7 2 10z" />
    <glyph glyph-name="u" unicode="u" 
d="M461 213l62 289h60l-83 -389q-6 -28 -19 -113h-62l13 74l-2 2q-70 -91 -176 -91q-47 0 -78 16t-44 38t-17 53t-2 52t7 44l67 314h60l-69 -324q-14 -65 13.5 -101.5t89.5 -36.5q70 0 117.5 50t62.5 123z" />
    <glyph glyph-name="v" unicode="v" horiz-adv-x="500" 
d="M121 502h66l84 -419l256 419h66l-306 -502h-68z" />
    <glyph glyph-name="w" unicode="w" horiz-adv-x="833" 
d="M189 502l60 -423h2l242 423h71l59 -419h2l234 419h66l-294 -502h-57l-62 433h-2l-249 -433h-61l-77 502h66z" />
    <glyph glyph-name="x" unicode="x" horiz-adv-x="500" 
d="M317 300l194 202h63l-232 -243l141 -259h-79l-115 218l-204 -218h-68l2 2l247 255l-133 245h80z" />
    <glyph glyph-name="y" unicode="y" horiz-adv-x="500" 
d="M115 502h73l79 -420l258 420h65l-425 -694h-66l117 192z" />
    <glyph glyph-name="z" unicode="z" horiz-adv-x="444" 
d="M40 0l12 55l376 392h-293l12 55h364l-12 -55l-374 -392h291l-12 -55h-364z" />
    <glyph glyph-name="braceleft" unicode="{" horiz-adv-x="278" 
d="M238 -46l-10 -50h-50q-33 3 -54 33t-11 76l30 143q13 61 5 92t-50 36l12 55q44 5 65.5 36.5t34.5 93.5l30 144q10 46 44 76t67 33h50l-10 -50h-33q-42 -9 -56 -75l-30 -143q-3 -14 -7.5 -27t-9 -23.5t-11 -20.5t-12 -18t-12 -15t-11.5 -12t-11 -10t-9.5 -7.5t-7.5 -5.5
l-5 -3q56 -49 35 -141l-30 -142q-14 -66 24 -75h33z" />
    <glyph glyph-name="bar" unicode="|" horiz-adv-x="222" 
d="M28 -250l212 1000h60l-212 -1000h-60z" />
    <glyph glyph-name="braceright" unicode="}" horiz-adv-x="278" 
d="M173 672l10 50h50q33 -3 54 -33t11 -76l-30 -143q-13 -62 -5 -93t49 -36l-11 -55q-44 -5 -65 -36t-35 -93l-30 -144q-10 -46 -44 -76t-67 -33h-50l10 50h33q42 9 56 75l31 143q3 14 7 27t9 23.5t11 20.5t11.5 18t12 15t11.5 12t11 10t9.5 7.5t7.5 5.5l5 3q-56 49 -35 141
l30 142q14 66 -24 75h-33z" />
    <glyph glyph-name="asciitilde" unicode="~" horiz-adv-x="660" 
d="M289 319q39 0 109 -36q73 -36 96 -36q53 0 117 87l33 -34q-80 -109 -163 -109q-33 0 -126 42q-6 3 -22.5 12.5t-29.5 14t-26 4.5q-19 0 -37 -8t-36.5 -26t-27.5 -28.5t-27 -32.5l-23 47q26 30 44.5 47.5t52 36.5t66.5 19z" />
    <glyph glyph-name="uni00A0" unicode="&#xa0;" horiz-adv-x="278" 
 />
    <glyph glyph-name="exclamdown" unicode="&#xa1;" horiz-adv-x="389" 
d="M270 542h80l-18 -86h-80zM246 371h56l-104 -551h-82z" />
    <glyph glyph-name="cent" unicode="&#xa2;" 
d="M219 71l192 389q-20 2 -29 2q-67 0 -121 -61t-72 -149q-13 -58 -5 -106t35 -75zM437 514l62 125h44l-67 -134q48 -18 70.5 -58.5t13.5 -98.5h-65q13 78 -45 102l-198 -402q20 -8 41 -8q58 0 102 32.5t59 84.5h65q-60 -172 -232 -172q-36 0 -61 9l-63 -127h-45l71 144
q-50 32 -66 96.5t0 143.5q24 110 99.5 188t181.5 78q19 0 33 -3z" />
    <glyph glyph-name="sterling" unicode="&#xa3;" 
d="M505 0h-445l13 60h60l66 312h-74l13 60h75q8 47 19.5 85t32.5 74.5t50.5 61t74 39.5t100.5 15q79 0 124.5 -38t32.5 -105h-70q7 38 -23 60.5t-84 22.5q-74 0 -121 -47.5t-63 -125.5l-9 -42h162l-13 -60h-162l-66 -312h320z" />
    <glyph glyph-name="currency" unicode="&#xa4;" 
d="M55 110l52 42q-33 70 -16 148q17 83 80 151l-34 43l63 53l35 -43q76 49 165 49q75 0 135 -49l53 43l41 -53l-52 -43q33 -69 15 -156q-16 -72 -79 -143l34 -42l-63 -53l-35 43q-78 -50 -165 -50q-74 0 -135 50l-53 -43zM302 120q75 0 140 53.5t81 129.5q16 72 -25 126.5
t-113 53.5q-78 2 -143.5 -51.5t-80.5 -131.5q-17 -72 26 -126t115 -54z" />
    <glyph glyph-name="yen" unicode="&#xa5;" 
d="M312 0h-65l29 136h-203l13 60h203l12 60h-203l13 60h201l-164 376h83l133 -319l268 319h70l-322 -376h199l-13 -60h-200l-12 -60h200l-13 -60h-200z" />
    <glyph glyph-name="brokenbar" unicode="&#xa6;" horiz-adv-x="222" 
d="M44 -175l74 350h60l-74 -350h-60zM150 325l74 350h60l-74 -350h-60z" />
    <glyph glyph-name="section" unicode="&#xa7;" 
d="M358 461q-6 -3 -22 -11.5t-23 -12.5t-19.5 -13t-18.5 -16t-12.5 -18.5t-8.5 -24.5q-3 -11 0.5 -21.5t8.5 -17.5t17 -15t18 -11t21.5 -10t17.5 -8q6 3 27 13t30.5 15.5t24.5 16t23 22.5t11 27q5 24 -10 39t-46.5 28t-38.5 18zM558 718l-12 -55q-40 19 -95 19
q-46 0 -85.5 -18t-48.5 -60q-6 -28 15 -49.5t55 -35.5t67.5 -29.5t53.5 -41t12 -60.5q-15 -74 -130 -122q47 -20 70.5 -49.5t13.5 -77.5q-17 -76 -81.5 -115t-143.5 -39q-70 0 -125 22l13 57q53 -24 119 -24q53 0 97.5 24t54.5 74q6 29 -17 48.5t-60 32t-73.5 26.5t-58 42.5
t-12.5 71.5q9 40 47 71t86 50q-40 24 -58.5 51.5t-9.5 69.5q15 70 73.5 103t131.5 33q33 0 101 -19z" />
    <glyph glyph-name="dieresis" unicode="&#xa8;" horiz-adv-x="278" 
d="M395 619h-74l18 88h74zM221 619h-74l18 88h74z" />
    <glyph glyph-name="copyright" unicode="&#xa9;" horiz-adv-x="800" 
d="M398 -15q-156 0 -243 110.5t-54 266.5q33 155 167 265t290 110q155 0 241.5 -110t53.5 -265q-33 -156 -166.5 -266.5t-288.5 -110.5zM161 362q-30 -139 41 -228t209 -89q137 0 244.5 89t137.5 228q29 137 -41 226t-207 89q-138 0 -246.5 -89t-137.5 -226zM598 294h55
q-20 -66 -78.5 -106t-125.5 -40q-93 0 -137 61.5t-24 155.5q20 95 88 155t162 60q69 0 109.5 -37.5t36.5 -104.5h-55q1 40 -27.5 66t-72.5 26q-70 0 -118.5 -47.5t-62.5 -116.5q-14 -67 14.5 -117.5t97.5 -50.5q44 0 84 27t54 69z" />
    <glyph glyph-name="ordfeminine" unicode="&#xaa;" horiz-adv-x="300" 
d="M354 574v-2h-24.5t-30 -0.5t-30 -2.5t-30.5 -6t-25.5 -10t-20.5 -17t-11 -25q-12 -53 54 -53q99 0 120 116h-2zM362 612l6 27q4 35 -10 46.5t-51 11.5q-33 0 -53.5 -8.5t-30.5 -36.5h-46q30 85 140 85q56 0 81 -24.5t14 -74.5l-35 -165q-2 -9 -3.5 -25t-2.5 -21h-46l5 40
h-2q-15 -20 -45 -34.5t-62 -14.5q-47 0 -73 25t-16 68q6 30 29 52.5t55 34.5q22 8 46.5 10.5t56.5 2.5t43 1z" />
    <glyph glyph-name="guillemotleft" unicode="&#xab;" 
d="M486 462h51l-134 -195l50 -195h-50l-64 195zM306 462h51l-134 -195l50 -195h-50l-64 195z" />
    <glyph glyph-name="logicalnot" unicode="&#xac;" horiz-adv-x="660" 
d="M544 112l44 206h-440l12 60h500l-56 -266h-60z" />
    <glyph glyph-name="uni00AD" unicode="&#xad;" horiz-adv-x="278" 
d="M63 237l13 60h252l-13 -60h-252z" />
    <glyph glyph-name="registered" unicode="&#xae;" horiz-adv-x="800" 
d="M398 -15q-156 0 -243 110.5t-54 266.5q33 155 167 265t290 110q155 0 241.5 -110t53.5 -265q-33 -156 -166.5 -266.5t-288.5 -110.5zM411 45q137 0 244.5 89t137.5 228q29 137 -41 226t-207 89q-138 0 -246.5 -89t-137.5 -226q-30 -139 41 -228t209 -89zM387 340
l-40 -191h-55l91 430h185q81 0 109.5 -29.5t15.5 -89.5q-23 -109 -159 -120l88 -191h-62l-81 191h-92zM398 390h76h22.5h25.5t23.5 1t24.5 4t20.5 8t19.5 12.5t13.5 19t9.5 26.5q9 41 -16 54.5t-72 13.5h-118z" />
    <glyph glyph-name="macron" unicode="&#xaf;" horiz-adv-x="278" 
d="M400 647h-245l12 60h245z" />
    <glyph glyph-name="degree" unicode="&#xb0;" horiz-adv-x="400" 
d="M468 557q-13 -62 -66 -106t-115 -44t-97 44t-22 106q12 61 66 105.5t116 44.5t96.5 -44.5t21.5 -105.5zM213 557q-9 -46 14 -75.5t69 -29.5q45 0 81.5 29.5t45.5 75.5q10 45 -13.5 75t-69.5 30q-45 0 -81.5 -30t-45.5 -75z" />
    <glyph glyph-name="plusminus" unicode="&#xb1;" horiz-adv-x="660" 
d="M370 330l37 172h60l-37 -172h220l-13 -60h-220l-36 -170h-60l36 170h-220l13 60h220zM80 0l13 60h500l-13 -60h-500z" />
    <glyph glyph-name="uni00B2" unicode="&#xb2;" horiz-adv-x="333" 
d="M375 283h-282l9 41q82 58 176 141.5t104 131.5q6 28 -13 45t-55 17q-39 0 -68.5 -21t-35.5 -50h-48q11 54 57 86.5t106 32.5q57 0 90 -27.5t22 -79.5q-8 -34 -43 -77.5t-68.5 -73t-83.5 -70t-59 -48.5h202z" />
    <glyph glyph-name="uni00B3" unicode="&#xb3;" horiz-adv-x="333" 
d="M247 476l10 48q47 -5 85 13.5t47 59.5q6 27 -16 44.5t-62 17.5q-80 0 -103 -62h-54q11 50 58 80t103 30q63 0 101 -28t26 -84q-7 -37 -38.5 -61.5t-73.5 -32.5v-2q42 -8 64 -35.5t13 -68.5q-12 -55 -65 -86.5t-114 -31.5q-63 0 -98.5 30t-24.5 87h54q-6 -30 16.5 -49.5
t61.5 -19.5q46 0 78 20t39 55q10 45 -22.5 64t-84.5 12z" />
    <glyph glyph-name="acute" unicode="&#xb4;" horiz-adv-x="278" 
d="M328 707h80l-157 -143h-44z" />
    <glyph glyph-name="uni00B5" unicode="&#xb5;" 
d="M461 213l62 289h60l-83 -389q-6 -28 -19 -113h-62l13 74l-2 2q-70 -91 -176 -91q-52 0 -112 25l-43 -202h-60l148 694h60l-69 -324q-14 -65 13.5 -101.5t89.5 -36.5q70 0 117.5 50t62.5 123z" />
    <glyph glyph-name="paragraph" unicode="&#xb6;" horiz-adv-x="650" 
d="M227 -146l102 482q-77 -1 -122.5 56t-28.5 134q20 94 89 145t175 51h217l-184 -868h-65l172 808h-118l-172 -808h-65z" />
    <glyph glyph-name="periodcentered" unicode="&#xb7;" horiz-adv-x="278" 
d="M241 294l-18 -86h-80l18 86h80z" />
    <glyph glyph-name="cedilla" unicode="&#xb8;" horiz-adv-x="278" 
d="M-6 -161l13 28q45 -19 83 -25q7 -1 22.5 2.5t22.5 8.5q14 11 19 32q7 36 -41 36l-33 -3l46 87h23l-27 -55q22 0 37.5 -2t30 -8.5t19.5 -21t0 -35.5q-7 -32 -39.5 -49t-67.5 -17q-15 0 -25.5 0.5t-22 3.5t-17 4t-21.5 6.5t-22 7.5z" />
    <glyph glyph-name="uni00B9" unicode="&#xb9;" horiz-adv-x="333" 
d="M287 283h-51l77 361q-49 -36 -115 -62l9 45q61 20 118 65h49z" />
    <glyph glyph-name="ordmasculine" unicode="&#xba;" horiz-adv-x="334" 
d="M188 578q-10 -47 8.5 -83.5t67.5 -36.5t83.5 36.5t44.5 83.5q10 46 -9 82.5t-68 36.5t-83 -36t-44 -83zM324 737q73 0 102.5 -47t15.5 -112q-14 -66 -63.5 -113t-122.5 -47t-102.5 47t-15.5 113q14 65 63.5 112t122.5 47z" />
    <glyph glyph-name="guillemotright" unicode="&#xbb;" 
d="M183 72h-51l135 195l-51 195h50l65 -195zM363 72h-51l135 195l-51 195h50l65 -195z" />
    <glyph glyph-name="onequarter" unicode="&#xbc;" horiz-adv-x="834" 
d="M626 0l21 97h-212l6 31l262 287h62l-57 -270h63l-10 -48h-63l-21 -97h-51zM802 707l-565 -707h-55l567 707h53zM657 145l45 213h-2l-185 -213h142zM319 283h-51l77 361q-49 -36 -115 -62l9 45q61 20 118 65h49z" />
    <glyph glyph-name="onehalf" unicode="&#xbd;" horiz-adv-x="834" 
d="M802 707l-565 -707h-55l567 707h53zM319 283h-51l77 361q-49 -36 -115 -62l9 45q61 20 118 65h49zM785 0h-282l9 41q82 58 176 141.5t104 131.5q6 28 -13 45t-55 17q-39 0 -68.5 -21t-35.5 -50h-48q11 54 57 86.5t106 32.5q57 0 89.5 -27.5t21.5 -79.5q-7 -34 -42 -77.5
t-68.5 -73t-83.5 -70t-59 -48.5h202z" />
    <glyph glyph-name="threequarters" unicode="&#xbe;" horiz-adv-x="834" 
d="M626 0l21 97h-212l6 31l262 287h62l-57 -270h63l-10 -48h-63l-21 -97h-51zM802 707l-565 -707h-55l567 707h53zM657 145l45 213h-2l-185 -213h142zM247 476l10 48q47 -5 85 13.5t47 59.5q6 27 -16 44.5t-62 17.5q-80 0 -103 -62h-54q11 50 58 80t103 30q63 0 101 -28
t26 -84q-7 -37 -38.5 -61.5t-73.5 -32.5v-2q42 -8 64 -35.5t13 -68.5q-12 -55 -65 -86.5t-114 -31.5q-63 0 -98.5 30t-24.5 87h54q-6 -30 16.5 -49.5t61.5 -19.5q46 0 78 20t39 55q10 45 -22.5 64t-84.5 12z" />
    <glyph glyph-name="questiondown" unicode="&#xbf;" horiz-adv-x="500" 
d="M345 376h60l-23 -108q-7 -26 -32 -53t-57 -51t-64.5 -49.5t-58.5 -58t-33 -67.5q-14 -65 26 -93t110 -28q44 0 97 15l-13 -61q-49 -14 -113 -14q-91 0 -141 46t-32 133q9 39 32 74t44.5 54.5t65.5 54.5q19 16 44 36.5t33.5 27.5t19.5 19.5t14.5 24t5.5 28.5zM370 542h80
l-18 -86h-80z" />
    <glyph glyph-name="Agrave" unicode="&#xc0;" horiz-adv-x="667" 
d="M227 255h315l-69 407zM76 0h-67l439 722h76l135 -722h-71l-36 195h-359zM412 927h80l61 -143h-44z" />
    <glyph glyph-name="Aacute" unicode="&#xc1;" horiz-adv-x="667" 
d="M227 255h315l-69 407zM76 0h-67l439 722h76l135 -722h-71l-36 195h-359zM570 927h80l-157 -143h-44z" />
    <glyph glyph-name="Acircumflex" unicode="&#xc2;" horiz-adv-x="667" 
d="M227 255h315l-69 407zM76 0h-67l439 722h76l135 -722h-71l-36 195h-359zM364 782l131 145h73l68 -145h-47l-66 106l-113 -106h-46z" />
    <glyph glyph-name="Atilde" unicode="&#xc3;" horiz-adv-x="667" 
d="M227 255h315l-69 407zM76 0h-67l439 722h76l135 -722h-71l-36 195h-359zM628 915h38q-16 -37 -44.5 -61t-64.5 -24q-16 0 -42 11q-28 10 -52 10q-40 0 -53 -29h-38q18 42 51 64.5t74 15.5q11 -1 37 -11q32 -9 37 -9q37 0 57 33z" />
    <glyph glyph-name="Adieresis" unicode="&#xc4;" horiz-adv-x="667" 
d="M227 255h315l-69 407zM76 0h-67l439 722h76l135 -722h-71l-36 195h-359zM636 839h-74l19 88h74zM462 839h-74l19 88h74z" />
    <glyph glyph-name="Aring" unicode="&#xc5;" horiz-adv-x="667" 
d="M227 255h315l-69 407zM76 0h-67l439 722h76l135 -722h-71l-36 195h-359zM431 869q7 36 39 62t67 26q36 0 56.5 -26t13.5 -62q-8 -35 -39.5 -61.5t-67.5 -26.5q-35 0 -56 26.5t-13 61.5zM574 869q4 21 -9.5 38t-34.5 17t-41.5 -16.5t-24.5 -38.5q-5 -20 8.5 -37.5
t34.5 -17.5q20 0 41 17.5t26 37.5z" />
    <glyph glyph-name="AE" unicode="&#xc6;" horiz-adv-x="1000" 
d="M579 722h499l-12 -60h-389l-12 -259h328l-13 -60h-319l-13 -283h299l-13 -60h-356l8 196h-350l-156 -196h-72zM606 662l-324 -406h308l18 406h-2z" />
    <glyph glyph-name="Ccedilla" unicode="&#xc7;" horiz-adv-x="667" 
d="M214 -161l13 28q45 -19 83 -25q7 -1 22.5 2.5t22.5 8.5q14 11 19 32q7 36 -41 36l-33 -3l37 70q-92 8 -145 62t-64 133t10 178q16 76 48.5 142.5t80.5 119.5t115.5 83.5t146.5 30.5q97 0 155 -46t46 -138h-70q5 62 -36 93t-108 31q-66 0 -121 -28t-91.5 -75.5t-60 -100
t-36 -112.5t-11.5 -112.5t17 -100t59.5 -75.5t109.5 -28q65 0 122 33t83 97h70q-34 -88 -115.5 -139t-172.5 -51q-7 0 -9 1l-18 -36q22 0 37.5 -2t30 -8.5t19.5 -21t0 -35.5q-7 -32 -39.5 -49t-67.5 -17q-15 0 -25.5 0.5t-22 3.5t-17 4t-21.5 6.5t-22 7.5z" />
    <glyph glyph-name="Egrave" unicode="&#xc8;" horiz-adv-x="611" 
d="M546 0h-444l153 722h429l-12 -60h-364l-55 -259h350l-13 -60h-350l-60 -283h379zM384 927h80l61 -143h-44z" />
    <glyph glyph-name="Eacute" unicode="&#xc9;" horiz-adv-x="611" 
d="M546 0h-444l153 722h429l-12 -60h-364l-55 -259h350l-13 -60h-350l-60 -283h379zM542 927h80l-157 -143h-44z" />
    <glyph glyph-name="Ecircumflex" unicode="&#xca;" horiz-adv-x="611" 
d="M546 0h-444l153 722h429l-12 -60h-364l-55 -259h350l-13 -60h-350l-60 -283h379zM336 782l131 145h73l68 -145h-47l-66 106l-113 -106h-46z" />
    <glyph glyph-name="Edieresis" unicode="&#xcb;" horiz-adv-x="611" 
d="M546 0h-444l153 722h429l-12 -60h-364l-55 -259h350l-13 -60h-350l-60 -283h379zM608 839h-74l19 88h74zM434 839h-74l19 88h74z" />
    <glyph glyph-name="Igrave" unicode="&#xcc;" horiz-adv-x="278" 
d="M172 0h-65l154 725h65zM217 927h80l61 -143h-44z" />
    <glyph glyph-name="Iacute" unicode="&#xcd;" horiz-adv-x="278" 
d="M172 0h-65l154 725h65zM375 927h80l-157 -143h-44z" />
    <glyph glyph-name="Icircumflex" unicode="&#xce;" horiz-adv-x="278" 
d="M172 0h-65l154 725h65zM169 782l131 145h73l68 -145h-47l-66 106l-113 -106h-46z" />
    <glyph glyph-name="Idieresis" unicode="&#xcf;" horiz-adv-x="278" 
d="M172 0h-65l154 725h65zM441 839h-74l19 88h74zM267 839h-74l19 88h74z" />
    <glyph glyph-name="Eth" unicode="&#xd0;" horiz-adv-x="722" 
d="M297 662l-52 -242h216l-9 -45h-216l-67 -315h146q147 0 233 79t117 222q33 156 -37 231t-229 70h-102zM91 0l80 375h-68l9 45h68l64 302h195q179 0 256.5 -91.5t39.5 -269.5t-154 -269.5t-295 -91.5h-195z" />
    <glyph glyph-name="Ntilde" unicode="&#xd1;" horiz-adv-x="722" 
d="M92 0l153 722h74l263 -635h2l135 635h65l-153 -722h-82l-257 624h-2l-133 -624h-65zM655 915h38q-16 -37 -44.5 -61t-64.5 -24q-16 0 -42 11q-28 10 -52 10q-40 0 -53 -29h-38q18 42 51 64.5t74 15.5q10 -1 37 -11q32 -9 37 -9q37 0 57 33z" />
    <glyph glyph-name="Ograve" unicode="&#xd2;" horiz-adv-x="778" 
d="M214 361q-13 -62 -10.5 -116.5t22 -100t64 -72.5t109.5 -27t120.5 27t94 72.5t65 100t39.5 116.5t10 116.5t-22.5 100t-63.5 72.5t-109 27t-121 -27t-94.5 -72.5t-64.5 -100t-39 -116.5zM787.5 361q-36.5 -172 -142.5 -274t-259 -102t-216 102t-26.5 274t143 274
t259.5 102t215.5 -102t26 -274zM467 927h80l61 -143h-44z" />
    <glyph glyph-name="Oacute" unicode="&#xd3;" horiz-adv-x="778" 
d="M214 361q-13 -62 -10.5 -116.5t22 -100t64 -72.5t109.5 -27t120.5 27t94 72.5t65 100t39.5 116.5t10 116.5t-22.5 100t-63.5 72.5t-109 27t-121 -27t-94.5 -72.5t-64.5 -100t-39 -116.5zM787.5 361q-36.5 -172 -142.5 -274t-259 -102t-216 102t-26.5 274t143 274
t259.5 102t215.5 -102t26 -274zM625 927h80l-157 -143h-44z" />
    <glyph glyph-name="Ocircumflex" unicode="&#xd4;" horiz-adv-x="778" 
d="M214 361q-13 -62 -10.5 -116.5t22 -100t64 -72.5t109.5 -27t120.5 27t94 72.5t65 100t39.5 116.5t10 116.5t-22.5 100t-63.5 72.5t-109 27t-121 -27t-94.5 -72.5t-64.5 -100t-39 -116.5zM787.5 361q-36.5 -172 -142.5 -274t-259 -102t-216 102t-26.5 274t143 274
t259.5 102t215.5 -102t26 -274zM419 782l131 145h73l68 -145h-47l-66 106l-113 -106h-46z" />
    <glyph glyph-name="Otilde" unicode="&#xd5;" horiz-adv-x="778" 
d="M214 361q-13 -62 -10.5 -116.5t22 -100t64 -72.5t109.5 -27t120.5 27t94 72.5t65 100t39.5 116.5t10 116.5t-22.5 100t-63.5 72.5t-109 27t-121 -27t-94.5 -72.5t-64.5 -100t-39 -116.5zM787.5 361q-36.5 -172 -142.5 -274t-259 -102t-216 102t-26.5 274t143 274
t259.5 102t215.5 -102t26 -274zM683 915h38q-16 -37 -44.5 -61t-64.5 -24q-16 0 -42 11q-28 10 -52 10q-40 0 -53 -29h-38q18 42 51 64.5t74 15.5q10 -1 37 -11q32 -9 37 -9q37 0 57 33z" />
    <glyph glyph-name="Odieresis" unicode="&#xd6;" horiz-adv-x="778" 
d="M214 361q-13 -62 -10.5 -116.5t22 -100t64 -72.5t109.5 -27t120.5 27t94 72.5t65 100t39.5 116.5t10 116.5t-22.5 100t-63.5 72.5t-109 27t-121 -27t-94.5 -72.5t-64.5 -100t-39 -116.5zM787.5 361q-36.5 -172 -142.5 -274t-259 -102t-216 102t-26.5 274t143 274
t259.5 102t215.5 -102t26 -274zM691 839h-74l19 88h74zM517 839h-74l19 88h74z" />
    <glyph glyph-name="multiply" unicode="&#xd7;" horiz-adv-x="660" 
d="M377 216l-259 -210l-29 36l259 211l-169 211l45 38l169 -212l257 212l29 -38l-257 -211l167 -211l-45 -36z" />
    <glyph glyph-name="Oslash" unicode="&#xd8;" horiz-adv-x="778" 
d="M220 160l477 433q-48 84 -164 84q-65 0 -121 -27t-94.5 -72.5t-64.5 -100t-39 -116.5q-26 -122 6 -201zM179 76l-99 -91l-23 27l104 94q-51 95 -17 255q36 172 142.5 274t259.5 102q142 0 208 -92l102 92l21 -25l-105 -97q49 -97 16 -254q-37 -172 -143 -274t-259 -102
q-141 0 -207 91zM712 561l-476 -434q49 -82 163 -82q65 0 120.5 27t94 72.5t65 100t39.5 116.5q25 117 -6 200z" />
    <glyph glyph-name="Ugrave" unicode="&#xd9;" horiz-adv-x="722" 
d="M250 722h65l-99 -467q-17 -98 24.5 -154t130.5 -56t153.5 56t89.5 154l99 467h65l-99 -468q-28 -121 -111 -195t-210 -74t-179 74t-28 195zM439 927h80l61 -143h-44z" />
    <glyph glyph-name="Uacute" unicode="&#xda;" horiz-adv-x="722" 
d="M250 722h65l-99 -467q-17 -98 24.5 -154t130.5 -56t153.5 56t89.5 154l99 467h65l-99 -468q-28 -121 -111 -195t-210 -74t-179 74t-28 195zM597 927h80l-157 -143h-44z" />
    <glyph glyph-name="Ucircumflex" unicode="&#xdb;" horiz-adv-x="722" 
d="M250 722h65l-99 -467q-17 -98 24.5 -154t130.5 -56t153.5 56t89.5 154l99 467h65l-99 -468q-28 -121 -111 -195t-210 -74t-179 74t-28 195zM391 782l131 145h73l68 -145h-47l-66 106l-113 -106h-46z" />
    <glyph glyph-name="Udieresis" unicode="&#xdc;" horiz-adv-x="722" 
d="M250 722h65l-99 -467q-17 -98 24.5 -154t130.5 -56t153.5 56t89.5 154l99 467h65l-99 -468q-28 -121 -111 -195t-210 -74t-179 74t-28 195zM663 839h-74l19 88h74zM489 839h-74l19 88h74z" />
    <glyph glyph-name="Yacute" unicode="&#xdd;" horiz-adv-x="611" 
d="M274 0l66 312l-179 410h83l147 -349l295 349h70l-350 -408l-67 -314h-65zM542 927h80l-157 -143h-44z" />
    <glyph glyph-name="Thorn" unicode="&#xde;" horiz-adv-x="611" 
d="M273 507l-61 -288h158q183 0 213.5 144t-152.5 144h-158zM100 0l153 722h65l-32 -155h143q56 0 97.5 -8t77.5 -29t49 -63t0 -104t-44 -104t-76 -63t-90 -29t-101 -8h-143l-34 -159h-65z" />
    <glyph glyph-name="germandbls" unicode="&#xdf;" horiz-adv-x="611" 
d="M251 488l-104 -488h-60l108 509q24 106 87.5 167t166.5 61q74 0 118 -41.5t29 -113.5q-8 -34 -44.5 -68.5t-72 -63t-40.5 -48.5q-4 -23 7.5 -42t33 -31.5t46 -29t45 -34t30 -46.5t2.5 -65q-17 -78 -76 -123.5t-132 -45.5q-72 0 -107 41.5t-22 114.5h65q-11 -45 10 -73
t64 -28q51 0 85.5 28t46.5 83q7 32 -10 56.5t-45 42t-56.5 35.5t-44.5 46t-8 64q6 29 30.5 56t50 45t49 41.5t28.5 46.5q10 47 -21 72.5t-80 25.5q-39 0 -71 -17.5t-53 -47t-34.5 -61.5t-20.5 -68z" />
    <glyph glyph-name="agrave" unicode="&#xe0;" horiz-adv-x="500" 
d="M131 140q-11 -49 16 -74.5t76 -25.5q162 0 195 213q-9 0 -40.5 -0.5t-50 -1.5t-49 -4t-51 -10.5t-42 -19.5t-35.5 -31.5t-19 -45.5zM429 308l10 46q9 59 -15.5 83.5t-80.5 24.5q-113 0 -141 -87h-64q51 142 218 142q86 0 123.5 -41t19.5 -125l-51 -238q-4 -19 -19 -113
h-62l14 74h-2l-5 -7q-24 -33 -74.5 -57.5t-99.5 -24.5q-72 0 -110.5 42t-23.5 113q10 50 46 88t86 57q32 13 69 17.5t91.5 4.5t70.5 1zM281 707h80l61 -143h-44z" />
    <glyph glyph-name="aacute" unicode="&#xe1;" horiz-adv-x="500" 
d="M131 140q-11 -49 16 -74.5t76 -25.5q162 0 195 213q-9 0 -40.5 -0.5t-50 -1.5t-49 -4t-51 -10.5t-42 -19.5t-35.5 -31.5t-19 -45.5zM429 308l10 46q9 59 -15.5 83.5t-80.5 24.5q-113 0 -141 -87h-64q51 142 218 142q86 0 123.5 -41t19.5 -125l-51 -238q-4 -19 -19 -113
h-62l14 74h-2l-5 -7q-24 -33 -74.5 -57.5t-99.5 -24.5q-72 0 -110.5 42t-23.5 113q10 50 46 88t86 57q32 13 69 17.5t91.5 4.5t70.5 1zM439 707h80l-157 -143h-44z" />
    <glyph glyph-name="acircumflex" unicode="&#xe2;" horiz-adv-x="500" 
d="M131 140q-11 -49 16 -74.5t76 -25.5q162 0 195 213q-9 0 -40.5 -0.5t-50 -1.5t-49 -4t-51 -10.5t-42 -19.5t-35.5 -31.5t-19 -45.5zM429 308l10 46q9 59 -15.5 83.5t-80.5 24.5q-113 0 -141 -87h-64q51 142 218 142q86 0 123.5 -41t19.5 -125l-51 -238q-4 -19 -19 -113
h-62l14 74h-2l-5 -7q-24 -33 -74.5 -57.5t-99.5 -24.5q-72 0 -110.5 42t-23.5 113q10 50 46 88t86 57q32 13 69 17.5t91.5 4.5t70.5 1zM233 562l131 145h73l68 -145h-47l-66 106l-113 -106h-46z" />
    <glyph glyph-name="atilde" unicode="&#xe3;" horiz-adv-x="500" 
d="M131 140q-11 -49 16 -74.5t76 -25.5q162 0 195 213q-9 0 -40.5 -0.5t-50 -1.5t-49 -4t-51 -10.5t-42 -19.5t-35.5 -31.5t-19 -45.5zM429 308l10 46q9 59 -15.5 83.5t-80.5 24.5q-113 0 -141 -87h-64q51 142 218 142q86 0 123.5 -41t19.5 -125l-51 -238q-4 -19 -19 -113
h-62l14 74h-2l-5 -7q-24 -33 -74.5 -57.5t-99.5 -24.5q-72 0 -110.5 42t-23.5 113q10 50 46 88t86 57q32 13 69 17.5t91.5 4.5t70.5 1zM498 695h38q-17 -37 -45 -61t-64 -24q-16 0 -43 11q-28 10 -52 10q-40 0 -53 -29h-38q18 42 51 64.5t74 15.5q11 -1 38 -11q32 -9 37 -9
q37 0 57 33z" />
    <glyph glyph-name="adieresis" unicode="&#xe4;" horiz-adv-x="500" 
d="M131 140q-11 -49 16 -74.5t76 -25.5q162 0 195 213q-9 0 -40.5 -0.5t-50 -1.5t-49 -4t-51 -10.5t-42 -19.5t-35.5 -31.5t-19 -45.5zM429 308l10 46q9 59 -15.5 83.5t-80.5 24.5q-113 0 -141 -87h-64q51 142 218 142q86 0 123.5 -41t19.5 -125l-51 -238q-4 -19 -19 -113
h-62l14 74h-2l-5 -7q-24 -33 -74.5 -57.5t-99.5 -24.5q-72 0 -110.5 42t-23.5 113q10 50 46 88t86 57q32 13 69 17.5t91.5 4.5t70.5 1zM506 619h-74l18 88h74zM332 619h-74l18 88h74z" />
    <glyph glyph-name="aring" unicode="&#xe5;" horiz-adv-x="500" 
d="M131 140q-11 -49 16 -74.5t76 -25.5q162 0 195 213q-9 0 -40.5 -0.5t-50 -1.5t-49 -4t-51 -10.5t-42 -19.5t-35.5 -31.5t-19 -45.5zM429 308l10 46q9 59 -15.5 83.5t-80.5 24.5q-113 0 -141 -87h-64q51 142 218 142q86 0 123.5 -41t19.5 -125l-51 -238q-4 -19 -19 -113
h-62l14 74h-2l-5 -7q-24 -33 -74.5 -57.5t-99.5 -24.5q-72 0 -110.5 42t-23.5 113q10 50 46 88t86 57q32 13 69 17.5t91.5 4.5t70.5 1zM300 649q8 36 40 62t67 26q36 0 56.5 -26t12.5 -62q-7 -35 -39 -61.5t-68 -26.5q-35 0 -55.5 26.5t-13.5 61.5zM443 649q4 21 -9 38
t-34 17t-41.5 -16.5t-25.5 -38.5q-4 -20 9 -37.5t34 -17.5q20 0 41.5 17.5t25.5 37.5z" />
    <glyph glyph-name="ae" unicode="&#xe6;" horiz-adv-x="833" 
d="M492 299h285q15 72 -11 117.5t-101 45.5q-64 0 -113.5 -51.5t-59.5 -111.5zM202 375h-64q51 142 218 142q55 -4 95 -31t40 -74h2q32 50 79.5 76.5t96.5 28.5q112 0 149.5 -75.5t11.5 -197.5h-350q-13 -55 -10.5 -98.5t28 -74.5t75.5 -31q53 0 100.5 34t69.5 86h63
q-82 -175 -244 -175q-56 5 -93.5 35t-48.5 84q-63 -109 -220 -119q-72 0 -110.5 42t-23.5 113q20 93 130 137q33 13 69.5 17.5t92.5 4t69 0.5l11 55q9 59 -15 83.5t-80 24.5q-113 0 -141 -87zM415 243l-77 1q-34 0 -55.5 -1t-50.5 -7.5t-47 -18.5t-34 -35t-23 -56
q-9 -41 22.5 -63.5t74.5 -22.5q46 0 80.5 16.5t55.5 47t33.5 63.5t20.5 76z" />
    <glyph glyph-name="ccedilla" unicode="&#xe7;" horiz-adv-x="500" 
d="M124 -161l13 28q45 -19 83 -25q7 -1 22.5 2.5t22.5 8.5q14 11 19 32q7 36 -41 36l-33 -3l36 68q-66 4 -104.5 43.5t-47.5 96.5t5 125q24 110 99.5 188t181.5 78q80 0 124.5 -45.5t31.5 -123.5h-65q17 114 -113 114q-67 0 -121 -61t-72 -149q-19 -89 9 -150.5t95 -61.5
q58 0 102 32.5t59 84.5h65q-60 -169 -225 -171l-18 -36q22 0 37.5 -2t30 -8.5t19.5 -21t0 -35.5q-7 -32 -39.5 -49t-67.5 -17q-15 0 -25.5 0.5t-22 3.5t-17 4t-21.5 6.5t-22 7.5z" />
    <glyph glyph-name="egrave" unicode="&#xe8;" 
d="M553 237h-388q-16 -87 15 -142t118 -55q53 0 100.5 34t69.5 86h63q-82 -175 -264 -175q-106 0 -146.5 77.5t-17.5 188.5q24 110 99.5 188t181.5 78q119 0 157.5 -76.5t11.5 -203.5zM179 292h321q10 77 -21 123.5t-106 46.5q-69 0 -120.5 -49t-73.5 -121zM309 707h80
l61 -143h-44z" />
    <glyph glyph-name="eacute" unicode="&#xe9;" 
d="M553 237h-388q-16 -87 15 -142t118 -55q53 0 100.5 34t69.5 86h63q-82 -175 -264 -175q-106 0 -146.5 77.5t-17.5 188.5q24 110 99.5 188t181.5 78q119 0 157.5 -76.5t11.5 -203.5zM179 292h321q10 77 -21 123.5t-106 46.5q-69 0 -120.5 -49t-73.5 -121zM467 707h80
l-157 -143h-44z" />
    <glyph glyph-name="ecircumflex" unicode="&#xea;" 
d="M553 237h-388q-16 -87 15 -142t118 -55q53 0 100.5 34t69.5 86h63q-82 -175 -264 -175q-106 0 -146.5 77.5t-17.5 188.5q24 110 99.5 188t181.5 78q119 0 157.5 -76.5t11.5 -203.5zM179 292h321q10 77 -21 123.5t-106 46.5q-69 0 -120.5 -49t-73.5 -121zM261 562l131 145
h73l68 -145h-47l-66 106l-113 -106h-46z" />
    <glyph glyph-name="edieresis" unicode="&#xeb;" 
d="M553 237h-388q-16 -87 15 -142t118 -55q53 0 100.5 34t69.5 86h63q-82 -175 -264 -175q-106 0 -146.5 77.5t-17.5 188.5q24 110 99.5 188t181.5 78q119 0 157.5 -76.5t11.5 -203.5zM179 292h321q10 77 -21 123.5t-106 46.5q-69 0 -120.5 -49t-73.5 -121zM534 619h-74
l18 88h74zM360 619h-74l18 88h74z" />
    <glyph glyph-name="igrave" unicode="&#xec;" horiz-adv-x="222" 
d="M141 0h-60l107 502h60zM142 707h80l61 -143h-44z" />
    <glyph glyph-name="iacute" unicode="&#xed;" horiz-adv-x="222" 
d="M141 0h-60l107 502h60zM300 707h80l-157 -143h-44z" />
    <glyph glyph-name="icircumflex" unicode="&#xee;" horiz-adv-x="222" 
d="M141 0h-60l107 502h60zM94 562l131 145h73l68 -145h-47l-66 106l-113 -106h-46z" />
    <glyph glyph-name="idieresis" unicode="&#xef;" horiz-adv-x="222" 
d="M141 0h-60l107 502h60zM367 619h-74l18 88h74zM193 619h-74l18 88h74z" />
    <glyph glyph-name="eth" unicode="&#xf0;" 
d="M303 697l26 40q67 -16 117 -45l105 58l24 -28l-96 -53q150 -119 90 -401q-28 -133 -104.5 -208t-189.5 -75q-76 0 -123 37.5t-59 93.5t1 121q22 103 97.5 178t182.5 75q126 0 151 -129l2 2q10 78 -12.5 153.5t-89.5 122.5l-105 -57l-23 29l94 51q-34 19 -88 35z
M159.5 237q-16.5 -77 13.5 -138.5t113 -61.5t139 61.5t72.5 138.5t-13.5 139t-113 62t-139 -62t-72.5 -139z" />
    <glyph glyph-name="ntilde" unicode="&#xf1;" 
d="M201 289l-61 -289h-60l83 389q6 28 19 113h62l-13 -74l2 -2q70 91 176 91q47 0 78 -16t44 -38t17 -53t2 -52t-7 -44l-67 -314h-60l69 324q14 65 -13.5 101.5t-89.5 36.5q-70 0 -117.5 -50t-63.5 -123zM526 695h38q-17 -37 -45 -61t-64 -24q-16 0 -43 11q-28 10 -52 10
q-40 0 -53 -29h-38q18 42 51 64.5t74 15.5q11 -1 38 -11q32 -9 37 -9q37 0 57 33z" />
    <glyph glyph-name="ograve" unicode="&#xf2;" 
d="M500.5 251q17.5 81 -12 146t-112.5 65t-139.5 -65t-74 -146t12 -146t112.5 -65t139.5 65t74 146zM388 517q113 0 156.5 -79t20.5 -187t-100 -187t-190 -79t-157 79t-21 187t100.5 187t190.5 79zM309 707h80l61 -143h-44z" />
    <glyph glyph-name="oacute" unicode="&#xf3;" 
d="M500.5 251q17.5 81 -12 146t-112.5 65t-139.5 -65t-74 -146t12 -146t112.5 -65t139.5 65t74 146zM388 517q113 0 156.5 -79t20.5 -187t-100 -187t-190 -79t-157 79t-21 187t100.5 187t190.5 79zM467 707h80l-157 -143h-44z" />
    <glyph glyph-name="ocircumflex" unicode="&#xf4;" 
d="M500.5 251q17.5 81 -12 146t-112.5 65t-139.5 -65t-74 -146t12 -146t112.5 -65t139.5 65t74 146zM388 517q113 0 156.5 -79t20.5 -187t-100 -187t-190 -79t-157 79t-21 187t100.5 187t190.5 79zM261 562l131 145h73l68 -145h-47l-66 106l-113 -106h-46z" />
    <glyph glyph-name="otilde" unicode="&#xf5;" 
d="M500.5 251q17.5 81 -12 146t-112.5 65t-139.5 -65t-74 -146t12 -146t112.5 -65t139.5 65t74 146zM388 517q113 0 156.5 -79t20.5 -187t-100 -187t-190 -79t-157 79t-21 187t100.5 187t190.5 79zM526 695h38q-17 -37 -45 -61t-64 -24q-16 0 -43 11q-28 10 -52 10
q-40 0 -53 -29h-38q18 42 51 64.5t74 15.5q11 -1 38 -11q32 -9 37 -9q37 0 57 33z" />
    <glyph glyph-name="odieresis" unicode="&#xf6;" 
d="M500.5 251q17.5 81 -12 146t-112.5 65t-139.5 -65t-74 -146t12 -146t112.5 -65t139.5 65t74 146zM388 517q113 0 156.5 -79t20.5 -187t-100 -187t-190 -79t-157 79t-21 187t100.5 187t190.5 79zM534 619h-74l18 88h74zM360 619h-74l18 88h74z" />
    <glyph glyph-name="divide" unicode="&#xf7;" horiz-adv-x="660" 
d="M127 221l13 60h500l-13 -60h-500zM368 0h-75l19 88h75zM456 414h-75l19 88h75z" />
    <glyph glyph-name="oslash" unicode="&#xf8;" 
d="M167 127l315 280q-34 55 -106 55q-83 0 -139.5 -65t-74.5 -146q-14 -69 5 -124zM495 377l-315 -280q33 -57 107 -57q83 0 139.5 65t73.5 146q15 71 -5 126zM35 10l77 68q-36 71 -15 173q23 108 100.5 187t190.5 79q98 0 145 -64l73 64l19 -25l-74 -66q36 -73 14 -175
q-23 -108 -100 -187t-190 -79q-99 0 -147 65l-74 -65z" />
    <glyph glyph-name="ugrave" unicode="&#xf9;" 
d="M461 213l62 289h60l-83 -389q-6 -28 -19 -113h-62l13 74l-2 2q-70 -91 -176 -91q-47 0 -78 16t-44 38t-17 53t-2 52t7 44l67 314h60l-69 -324q-14 -65 13.5 -101.5t89.5 -36.5q70 0 117.5 50t62.5 123zM309 707h80l61 -143h-44z" />
    <glyph glyph-name="uacute" unicode="&#xfa;" 
d="M461 213l62 289h60l-83 -389q-6 -28 -19 -113h-62l13 74l-2 2q-70 -91 -176 -91q-47 0 -78 16t-44 38t-17 53t-2 52t7 44l67 314h60l-69 -324q-14 -65 13.5 -101.5t89.5 -36.5q70 0 117.5 50t62.5 123zM467 707h80l-157 -143h-44z" />
    <glyph glyph-name="ucircumflex" unicode="&#xfb;" 
d="M461 213l62 289h60l-83 -389q-6 -28 -19 -113h-62l13 74l-2 2q-70 -91 -176 -91q-47 0 -78 16t-44 38t-17 53t-2 52t7 44l67 314h60l-69 -324q-14 -65 13.5 -101.5t89.5 -36.5q70 0 117.5 50t62.5 123zM261 562l131 145h73l68 -145h-47l-66 106l-113 -106h-46z" />
    <glyph glyph-name="udieresis" unicode="&#xfc;" 
d="M461 213l62 289h60l-83 -389q-6 -28 -19 -113h-62l13 74l-2 2q-70 -91 -176 -91q-47 0 -78 16t-44 38t-17 53t-2 52t7 44l67 314h60l-69 -324q-14 -65 13.5 -101.5t89.5 -36.5q70 0 117.5 50t62.5 123zM534 619h-74l18 88h74zM360 619h-74l18 88h74z" />
    <glyph glyph-name="yacute" unicode="&#xfd;" horiz-adv-x="500" 
d="M115 502h73l79 -420l258 420h65l-425 -694h-66l117 192zM439 707h80l-157 -143h-44z" />
    <glyph glyph-name="thorn" unicode="&#xfe;" 
d="M186 263q-13 -62 -8.5 -109.5t37.5 -80.5t95 -33q41 0 74.5 20.5t56.5 55t37 70t22 74.5q11 52 7 95.5t-33.5 75t-83.5 31.5q-82 0 -134 -57t-70 -142zM147 78l-58 -270h-60l194 914h60l-62 -294l2 -2q34 43 86.5 67t104.5 24q71 0 110.5 -40t46.5 -97.5t-7 -126.5
q-11 -50 -32 -95.5t-53 -85t-77.5 -63.5t-97.5 -24q-111 0 -155 93h-2z" />
    <glyph glyph-name="ydieresis" unicode="&#xff;" horiz-adv-x="500" 
d="M115 502h73l79 -420l258 420h65l-425 -694h-66l117 192zM506 619h-74l18 88h74zM332 619h-74l18 88h74z" />
    <glyph glyph-name="dotlessi" unicode="&#x131;" horiz-adv-x="222" 
d="M141 0h-60l107 502h60z" />
    <glyph glyph-name="OE" unicode="&#x152;" horiz-adv-x="1000" 
d="M207.5 361q-17.5 -83 -8.5 -152.5t53.5 -116.5t120.5 -47q89 3 149.5 48.5t77.5 127.5l54 253q23 107 -14.5 155t-132.5 48q-76 0 -140.5 -47t-103 -116.5t-56 -152.5zM555 0l15 69h-4q-40 -41 -96 -62.5t-110 -21.5q-139 0 -198.5 103t-23.5 273t139.5 273t242.5 103
q115 0 175 -78l13 63h376l-12 -60h-311l-55 -259h297l-13 -60h-297l-60 -283h326l-13 -60h-391z" />
    <glyph glyph-name="oe" unicode="&#x153;" horiz-adv-x="889" 
d="M479 256q18 83 -6 145t-106 61q-77 0 -132.5 -65.5t-72.5 -145.5t11 -145.5t105 -65.5q44 0 79.5 18.5t59 51.5t39 69t23.5 77zM552 292h285q16 77 -9.5 123.5t-100.5 46.5q-64 0 -113.5 -52.5t-61.5 -117.5zM890 237h-350q-19 -82 1.5 -140.5t93.5 -56.5q53 0 100.5 34
t69.5 86h63q-82 -175 -244 -175q-60 0 -100.5 32t-43.5 93h-2q-34 -60 -89 -92.5t-114 -32.5q-113 0 -157 79t-21 187t100.5 187t190.5 79q60 0 100 -33t51 -92q32 60 86 92.5t106 32.5q112 0 149 -76.5t10 -203.5z" />
    <glyph glyph-name="Scaron" unicode="&#x160;" horiz-adv-x="611" 
d="M593 190q-12 -57 -43.5 -98t-77 -63.5t-95 -33t-107.5 -10.5q-88 0 -138.5 57.5t-33.5 145.5h70q-27 -143 151 -143q67 0 128 37t75 102q19 89 -86 126q-11 4 -42.5 14.5t-47 16.5t-44 18.5t-43 23t-33.5 27.5t-27 35.5t-11.5 43.5t2.5 53q19 90 99.5 142.5t172.5 52.5
q39 0 73 -8t66 -25.5t48 -53t11 -85.5h-70q6 32 -2.5 55t-29.5 35t-46 17t-55 5q-64 0 -123 -32.5t-72 -93.5q-9 -41 7.5 -71t48.5 -47t72.5 -31t81 -30t72 -37t46 -58t3.5 -87zM639 927l-131 -145h-73l-68 145h47l67 -106l112 106h46z" />
    <glyph glyph-name="scaron" unicode="&#x161;" horiz-adv-x="500" 
d="M143 377q15 72 76.5 106t137.5 34q173 0 153 -139h-65q10 84 -106 84q-47 0 -84 -20t-46 -61q-4 -21 3.5 -35t28.5 -23.5t44 -16t62 -17.5t71 -23q36 -14 52 -45.5t8 -71.5q-17 -80 -88 -122t-158 -42q-47 0 -84.5 14t-60 50t-12.5 88h65q-8 -52 26.5 -74.5t92.5 -22.5
q53 0 97 25.5t55 74.5q6 31 -13 52t-40 28t-68 18q-11 3 -17 4q-35 9 -55.5 16.5t-43.5 22.5t-30.5 39t-0.5 57zM536 707l-131 -145h-73l-68 145h47l67 -106l112 106h46z" />
    <glyph glyph-name="Ydieresis" unicode="&#x178;" horiz-adv-x="611" 
d="M274 0l66 312l-179 410h83l147 -349l295 349h70l-350 -408l-67 -314h-65zM608 839h-74l19 88h74zM434 839h-74l19 88h74z" />
    <glyph glyph-name="Zcaron" unicode="&#x17d;" 
d="M517 0h-478l13 60l529 602h-401l12 60h478l-12 -60l-530 -602h402zM611 927l-131 -145h-73l-68 145h47l67 -106l112 106h46z" />
    <glyph glyph-name="zcaron" unicode="&#x17e;" horiz-adv-x="444" 
d="M40 0l12 55l376 392h-293l12 55h364l-12 -55l-374 -392h291l-12 -55h-364zM508 707l-131 -145h-73l-68 145h47l67 -106l112 106h46z" />
    <glyph glyph-name="florin" unicode="&#x192;" 
d="M320 408h-94l21 60h94l33 80q13 33 24.5 55t31 49t48 41t64.5 14q29 0 70 -7l-20 -57q-18 4 -43 4q-42 0 -63.5 -19.5t-36.5 -59.5l-42 -100h106l-20 -60h-107l-147 -363q-5 -11 -16.5 -41.5t-18.5 -46.5t-20 -43.5t-26.5 -42.5t-31.5 -31.5t-40.5 -24t-48.5 -7.5
q-24 0 -45 6l23 54q26 -7 48 -1q8 2 16 7t15.5 14t12 14.5t11.5 19t9.5 18t9.5 20t7 16.5z" />
    <glyph glyph-name="circumflex" unicode="&#x2c6;" horiz-adv-x="278" 
d="M122 562l131 145h73l68 -145h-47l-66 106l-113 -106h-46z" />
    <glyph glyph-name="caron" unicode="&#x2c7;" horiz-adv-x="278" 
d="M425 707l-131 -145h-73l-68 145h47l67 -106l112 106h46z" />
    <glyph glyph-name="ring" unicode="&#x2da;" horiz-adv-x="278" 
d="M189 649q8 36 40 62t67 26q36 0 56.5 -26t12.5 -62q-7 -35 -39 -61.5t-68 -26.5q-35 0 -55.5 26.5t-13.5 61.5zM332 649q4 21 -9 38t-34 17t-41.5 -16.5t-25.5 -38.5q-4 -20 9 -37.5t34 -17.5q20 0 41.5 17.5t25.5 37.5z" />
    <glyph glyph-name="tilde" unicode="&#x2dc;" horiz-adv-x="278" 
d="M387 695h38q-17 -37 -45 -61t-64 -24q-16 0 -43 11q-28 10 -52 10q-40 0 -53 -29h-38q18 42 51 64.5t74 15.5q10 -1 38 -11q32 -9 37 -9q37 0 57 33z" />
    <glyph glyph-name="endash" unicode="&#x2013;" horiz-adv-x="500" 
d="M550 237h-500l13 60h500z" />
    <glyph glyph-name="emdash" unicode="&#x2014;" horiz-adv-x="1000" 
d="M1050 237h-1000l13 60h1000z" />
    <glyph glyph-name="quoteleft" unicode="&#x2018;" horiz-adv-x="278" 
d="M264 517h-81l115 205h52z" />
    <glyph glyph-name="quoteright" unicode="&#x2019;" horiz-adv-x="278" 
d="M277 722h81l-115 -205h-52z" />
    <glyph glyph-name="quotesinglbase" unicode="&#x201a;" horiz-adv-x="278" 
d="M141 81h81l-115 -205h-52z" />
    <glyph glyph-name="quotedblleft" unicode="&#x201c;" 
d="M494 517h-81l115 205h52zM310 517h-81l115 205h52z" />
    <glyph glyph-name="quotedblright" unicode="&#x201d;" 
d="M509 722h81l-115 -205h-52zM325 722h81l-115 -205h-52z" />
    <glyph glyph-name="quotedblbase" unicode="&#x201e;" 
d="M371 81h81l-115 -205h-52zM187 81h81l-115 -205h-52z" />
    <glyph glyph-name="dagger" unicode="&#x2020;" 
d="M352 487h-172l11 55h172l38 180h60l-38 -180h172l-11 -55h-172l-104 -487h-60z" />
    <glyph glyph-name="daggerdbl" unicode="&#x2021;" 
d="M352 487h-172l11 55h172l38 180h60l-38 -180h172l-11 -55h-172l-55 -255h172l-11 -55h-172l-38 -177h-60l38 177h-172l11 55h172z" />
    <glyph glyph-name="bullet" unicode="&#x2022;" horiz-adv-x="500" 
d="M507 361q-16 -74 -80.5 -127t-139.5 -53q-73 0 -114.5 53t-25.5 127q16 75 79.5 127.5t137.5 52.5q75 0 117 -52.5t26 -127.5z" />
    <glyph glyph-name="ellipsis" unicode="&#x2026;" horiz-adv-x="1000" 
d="M145 86h80l-18 -86h-80zM478 86h80l-18 -86h-80zM811 86h80l-18 -86h-80z" />
    <glyph glyph-name="perthousand" unicode="&#x2030;" horiz-adv-x="1000" 
d="M88 -15l571 722h53l-568 -722h-56zM316 662q-44 0 -74 -35t-40 -82t5 -82t59 -35t74 35t40 82t-5 82t-59 35zM534 264q-44 0 -74 -35t-40 -82t5 -82t59 -35t74 35t40 82t-5 82t-59 35zM475 -15q-70 0 -97.5 44.5t-12 117.5t62 117.5t116.5 44.5t97.5 -44.5t12 -117.5
t-62 -117.5t-116.5 -44.5zM256 383q-70 0 -97.5 44.5t-12 117.5t62 117.5t116.5 44.5t97.5 -44.5t12 -117.5t-62 -117.5t-116.5 -44.5zM822 -15q-70 0 -97.5 44.5t-12 117.5t62 117.5t116.5 44.5t97.5 -44.5t12 -117.5t-62 -117.5t-116.5 -44.5zM881 264q-44 0 -74 -35
t-40 -82t5 -82t59 -35t74 35t40 82t-5 82t-59 35z" />
    <glyph glyph-name="guilsinglleft" unicode="&#x2039;" horiz-adv-x="278" 
d="M262 462h51l-134 -195l50 -195h-50l-64 195z" />
    <glyph glyph-name="guilsinglright" unicode="&#x203a;" horiz-adv-x="278" 
d="M129 72h-51l135 195l-51 195h50l65 -195z" />
    <glyph glyph-name="Euro" unicode="&#x20ac;" 
d="M114 331h44l4 15q4 23 8 35h-60l29 56h49q40 118 121 194t192 76q114 0 158 -84l-45 -88q-6 55 -40.5 83.5t-85.5 28.5q-82 0 -139.5 -59.5t-90.5 -150.5h306l-29 -56h-295q-4 -12 -8 -35l-4 -15h280l-29 -56h-259q-6 -64 2.5 -112.5t43.5 -83t94 -34.5q84 0 170 85
l-18 -83q-75 -62 -164 -62q-116 0 -163.5 81t-34.5 209h-65z" />
    <glyph glyph-name="trademark" unicode="&#x2122;" horiz-adv-x="940" 
d="M502 722l-8 -40h-132l-81 -381h-55l81 381h-133l8 40h320zM676 722l54 -311h2l184 311h99l-89 -421h-55l80 377h-2l-225 -377h-34l-65 377h-2l-80 -377h-55l89 421h99z" />
    </font>
</defs>
</svg>
