<?xml version="1.0" standalone="no"?>
<!DOCTYPE svg PUBLIC "-//W3C//DTD SVG 1.1//EN" "http://www.w3.org/Graphics/SVG/1.1/DTD/svg11.dtd" >
<svg xmlns="http://www.w3.org/2000/svg" xmlns:xlink="http://www.w3.org/1999/xlink" version="1.1">
<metadata>
Created by FontForge 20170731 at Tue Oct 22 06:38:31 2019
 By Aleksey,,,
Copyright (c) 2002, Adobe
</metadata>
<defs>
<font id="UniversLT-55Obl" horiz-adv-x="556" >
  <font-face 
    font-family="Univers LT"
    font-weight="400"
    font-stretch="normal"
    units-per-em="1000"
    panose-1="2 0 5 3 0 0 0 0 0 0"
    ascent="800"
    descent="-200"
    x-height="502"
    cap-height="722"
    bbox="-42 -250 1145 947"
    underline-thickness="50"
    underline-position="-150"
    unicode-range="U+000D-2122"
  />
<missing-glyph horiz-adv-x="500" 
d="M0 0v700h500v-700h-500zM250 395l170 255h-340zM280 350l170 -255v510zM80 50h340l-170 255zM50 605v-510l170 255z" />
    <glyph glyph-name=".notdef" horiz-adv-x="500" 
d="M0 0v700h500v-700h-500zM250 395l170 255h-340zM280 350l170 -255v510zM80 50h340l-170 255zM50 605v-510l170 255z" />
    <glyph glyph-name="glyph1" horiz-adv-x="0" 
 />
    <glyph glyph-name="glyph1" horiz-adv-x="0" 
 />
    <glyph glyph-name="uni000D" unicode="&#xd;" horiz-adv-x="1000" 
 />
    <glyph glyph-name="space" unicode=" " horiz-adv-x="278" 
 />
    <glyph glyph-name="exclam" unicode="!" horiz-adv-x="389" 
d="M415 721l-140 -556h-71l99 556h112zM149 0l21 100h106l-21 -100h-106z" />
    <glyph glyph-name="quotedbl" unicode="&#x22;" horiz-adv-x="400" 
d="M223 692h83l-66 -246h-54zM388 692h83l-67 -246h-54z" />
    <glyph glyph-name="numbersign" unicode="#" 
d="M47 197l16 69h112l59 149h-100l15 69h113l82 208h81l-83 -208h122l82 208h81l-83 -208h100l-15 -69h-113l-58 -149h99l-15 -69h-112l-79 -197h-80l78 197h-121l-79 -197h-80l78 197h-100zM256 266h121l59 149h-122z" />
    <glyph glyph-name="dollar" unicode="$" 
d="M418 775h51l-17 -81q22 0 40 -2t50.5 -11.5t53 -25t33 -48.5t4.5 -77h-105q14 79 -95 83l-44 -209q37 -11 59.5 -19t54 -25t46.5 -37t23.5 -52.5t-0.5 -72.5q-22 -106 -125 -165q-52 -30 -147 -38l-21 -99h-51l21 99q-32 1 -50.5 3t-49.5 15t-54 38q-28 32 -31.5 65
t4.5 74h102q-10 -41 11 -75t86 -35l50 234q-115 37 -149.5 77.5t-17.5 120.5q20 97 117 150q52 28 133 31zM341 419l41 194q-31 -3 -55 -12.5t-37.5 -20t-23 -24t-12 -21.5t-4.5 -16q-5 -24 1 -41.5t23 -29t30.5 -17t36.5 -12.5zM367 301l-47 -221q60 1 98.5 32.5t47.5 73.5
q5 27 -1.5 47t-25 33.5t-33.5 20t-39 14.5z" />
    <glyph glyph-name="percent" unicode="%" horiz-adv-x="889" 
d="M373 711q80 0 107 -50.5t11 -126.5q-19 -89 -75 -135t-128 -46q-70 0 -106 44t-18 131q18 82 72.5 132.5t136.5 50.5zM302 411q83 0 109 119q25 121 -58 121q-86 0 -112 -122q-25 -118 61 -118zM749 346q76 0 109 -48q32 -46 14 -127q-18 -84 -69.5 -133.5t-130.5 -49.5
q-46 0 -76 15.5t-41.5 42.5t-13.5 56.5t5 63.5q19 87 75.5 133.5t127.5 46.5zM684 47q86 0 112 122q3 16 4 32.5t-1.5 39t-18 36t-42.5 13.5q-86 0 -115 -134q-3 -17 -4 -32.5t3 -34.5t19.5 -30.5t42.5 -11.5zM243 -39h-66l604 770h66z" />
    <glyph glyph-name="ampersand" unicode="&#x26;" horiz-adv-x="778" 
d="M694 468h97q-23 -106 -55 -170.5t-97 -130.5l137 -167h-140l-75 89q-131 -106 -273 -106q-113 0 -165 59.5t-33 148.5q8 40 27.5 74.5t50.5 63.5t56 47t66 45q-66 77 -47 166q15 72 75.5 115.5t152.5 43.5q101 0 140 -45q35 -40 22 -99q-8 -37 -29.5 -70t-54 -59.5
t-51.5 -39t-47 -29.5l140 -175q39 49 62 99.5t41 139.5zM401 469q111 66 124 129q6 26 -10.5 47t-57.5 21q-39 0 -69.5 -22t-36.5 -52q-11 -49 50 -123zM509 149l-168 209q-69 -44 -103 -83t-43 -81q-14 -67 27.5 -97t98.5 -30q91 0 188 82z" />
    <glyph glyph-name="quotesingle" unicode="'" horiz-adv-x="278" 
d="M245 692h83l-67 -246h-54z" />
    <glyph glyph-name="parenleft" unicode="(" horiz-adv-x="333" 
d="M231 -123h-65q-17 87 -26 145.5t-11 145t12 154.5q21 98 91 233q42 82 113 197h66q-63 -115 -104 -212q-54 -123 -74 -216q-15 -68 -17.5 -142.5t1 -130.5t14.5 -174z" />
    <glyph glyph-name="parenright" unicode=")" horiz-adv-x="333" 
d="M236 752h65q17 -88 26 -145.5t11 -144t-13 -154.5q-20 -98 -90 -233q-45 -86 -113 -198h-66q64 120 104 213q54 121 74 216q14 67 17 141.5t-0.5 130.5t-14.5 174z" />
    <glyph glyph-name="asterisk" unicode="*" 
d="M600 563l-16 -75l-168 19l72 -138l-73 -40l-33 158l-106 -156l-60 37l136 139l-169 -14l15 73l165 -22l-73 140l74 36l34 -155l102 156l59 -37l-134 -140z" />
    <glyph glyph-name="plus" unicode="+" horiz-adv-x="584" 
d="M250 0l45 213h-213l17 77h213l45 213h84l-45 -213h213l-17 -77h-213l-45 -213h-84z" />
    <glyph glyph-name="comma" unicode="," horiz-adv-x="278" 
d="M139 120h116l-165 -246h-68z" />
    <glyph glyph-name="hyphen" unicode="-" horiz-adv-x="333" 
d="M90 225l16 76h251l-16 -76h-251z" />
    <glyph glyph-name="period" unicode="." horiz-adv-x="278" 
d="M81 0l26 120h111l-26 -120h-111z" />
    <glyph glyph-name="slash" unicode="/" horiz-adv-x="278" 
d="M-12 -16l389 729h65l-388 -729h-66z" />
    <glyph glyph-name="zero" unicode="0" 
d="M116 338q6 28 12 53t20 64.5t30 71t40.5 66.5t53 58.5t69 39t85.5 15.5q59 0 97.5 -25t55 -61t20 -87t-1 -92t-14.5 -87q-48 -225 -163 -315q-67 -53 -149 -53q-65 0 -105.5 32.5t-55.5 82.5q-25 90 6 237zM213 343q-58 -274 77 -274q136 0 194 276q29 136 14.5 208.5
t-88.5 72.5q-137 0 -197 -283z" />
    <glyph glyph-name="one" unicode="1" 
d="M271 0l124 583q-78 -56 -182 -100l21 100q114 54 191 109h89l-147 -692h-96z" />
    <glyph glyph-name="two" unicode="2" 
d="M53 0l19 91l219 178q82 66 132 119q66 70 78 123q3 16 2.5 32.5t-6.5 36t-27 32t-56 12.5q-31 0 -56.5 -10.5t-39.5 -24t-24 -33t-13.5 -30.5t-5.5 -23h-105q24 99 96 152q70 50 161 50q90 0 141.5 -49.5t29.5 -152.5q-6 -27 -13 -44.5t-31.5 -50.5t-70.5 -78
q-40 -40 -157 -136l-145 -115h329l-17 -79h-440z" />
    <glyph glyph-name="three" unicode="3" 
d="M76 178h106q-12 -51 14.5 -82t88.5 -31q68 0 110.5 36t53.5 87t-11 82t-63 40q-34 7 -95 5l17 81q30 -3 59.5 0.5t62 15t56.5 38t33 66.5q12 56 -16 82.5t-83 26.5q-47 0 -89 -25t-60 -84h-101q12 49 39 85.5t56 55.5t64.5 30.5t59 14.5t45.5 3q107 0 154.5 -55
t31.5 -132q-7 -32 -25 -62.5t-56.5 -60t-91.5 -40.5q41 -6 67 -25t36 -38.5t12.5 -45.5t1 -37.5t-3.5 -21.5q-17 -80 -94 -142t-190 -62q-128 0 -174 72q-29 43 -15 123z" />
    <glyph glyph-name="four" unicode="4" 
d="M340 0l32 150h-312l25 119l392 432h108l-100 -470h101l-17 -81h-101l-32 -150h-96zM153 231h239l78 365z" />
    <glyph glyph-name="five" unicode="5" 
d="M91 164h104q-10 -49 20 -73.5t74 -24.5q34 0 63 12.5t47 30t31.5 41t19.5 41t10 34.5q15 70 -12.5 109.5t-87.5 39.5q-57 0 -100 -36q-24 -20 -44 -58h-91l105 412h389l-17 -81h-303l-61 -224q78 64 160 64q99 0 139 -66t19 -162q-22 -104 -104 -171.5t-193 -67.5
q-87 0 -134.5 47t-33.5 133z" />
    <glyph glyph-name="six" unicode="6" 
d="M622 528h-103q11 55 -15.5 79t-67.5 24q-74 0 -124 -65t-86 -205q16 18 27 28.5t34 26.5t52.5 24.5t65.5 8.5q89 0 137 -58t25 -164q-24 -114 -106.5 -178t-178.5 -64q-51 0 -93.5 20t-61.5 55q-45 84 -9 255q11 51 26.5 99t44 103t64 95t88.5 67t116 27q105 0 152 -66
q26 -40 13 -112zM302 61q53 0 102 39.5t65 117.5q5 23 5.5 45.5t-6 49t-31 43t-64.5 16.5q-66 0 -111.5 -45.5t-59.5 -109.5q-14 -68 14 -112t86 -44z" />
    <glyph glyph-name="seven" unicode="7" 
d="M164 609l18 83h457l-18 -84l-383 -608h-113l395 609h-356z" />
    <glyph glyph-name="eight" unicode="8" 
d="M268 365q-63 14 -90.5 57t-16.5 97q5 21 15 43.5t31.5 49.5t50 47.5t72 34.5t95.5 14q107 0 158 -51.5t33 -133.5q-12 -55 -57 -99.5t-117 -57.5q18 -5 30 -9.5t34 -18.5t34 -31t18 -47.5t-2 -68.5q-18 -81 -90.5 -142t-191.5 -61q-116 0 -166 58q-49 56 -32 139
q17 77 80 127q38 31 112 53zM520 521q10 49 -18 81t-88 32q-57 0 -100.5 -31t-54.5 -82q-11 -50 19 -81t85 -31q58 0 102 31t55 81zM179 194q-10 -48 16 -87.5t96 -39.5q39 0 71 12.5t50 33.5t29 41.5t16 42.5q12 57 -18.5 92t-90.5 35q-63 0 -110 -37t-59 -93z" />
    <glyph glyph-name="nine" unicode="9" 
d="M81 165h105q-10 -47 11.5 -74.5t77.5 -27.5q43 0 78.5 19.5t56 50.5t37 69.5t23.5 76.5t14 71q-64 -87 -173 -87q-88 0 -137.5 57.5t-27.5 161.5q24 111 101.5 167t168.5 56q31 0 59.5 -7.5t57 -24.5t47.5 -52.5t23 -85.5q5 -70 -20 -186q-5 -24 -9 -39.5t-12.5 -47
t-17.5 -54t-25 -53.5t-32.5 -53t-41.5 -45.5t-52.5 -38.5t-64 -24.5t-77.5 -9.5q-30 0 -56.5 5t-51.5 17.5t-40.5 32.5t-22.5 52t1 74zM501 480q15 71 -15.5 110.5t-85.5 39.5q-59 0 -100.5 -42.5t-55.5 -106.5q-14 -66 14.5 -104t86.5 -38t100.5 39t55.5 102z" />
    <glyph glyph-name="colon" unicode=":" horiz-adv-x="278" 
d="M166 389l25 118h111l-25 -118h-111zM83 0l25 118h111l-25 -118h-111z" />
    <glyph glyph-name="semicolon" unicode=";" horiz-adv-x="278" 
d="M177 387l26 120h116l-26 -120h-116zM139 120h116l-165 -246h-68z" />
    <glyph glyph-name="less" unicode="&#x3c;" horiz-adv-x="584" 
d="M82 210l17 82l553 200l-19 -86l-439 -155l374 -154l-19 -87z" />
    <glyph glyph-name="equal" unicode="=" horiz-adv-x="584" 
d="M104 314l16 77h510l-16 -77h-510zM61 111l16 78h510l-16 -78h-510z" />
    <glyph glyph-name="greater" unicode="&#x3e;" horiz-adv-x="584" 
d="M592 210l-553 -200l19 87l438 154l-373 155l19 86l467 -200z" />
    <glyph glyph-name="question" unicode="?" horiz-adv-x="500" 
d="M207 625l19 90q67 21 146 21q129 0 174 -62q35 -48 21 -116q-8 -38 -30.5 -71t-47 -55t-86.5 -74q-68 -56 -68 -57q-10 -11 -15 -31l-22 -106h-84l22 106q7 32 17.5 46.5t56.5 54.5q81 69 111.5 103.5t39.5 74.5q7 35 -4 58.5t-36 32t-40.5 11t-32.5 2.5q-67 0 -141 -28z
M171 0l22 102h104l-22 -102h-104z" />
    <glyph glyph-name="at" unicode="@" horiz-adv-x="1015" 
d="M770 549h69l-105 -206q-28 -57 -32 -76q-9 -41 35 -41q51 0 108.5 63t77.5 156q26 122 -43.5 187t-190.5 65q-148 0 -271 -94t-157 -254q-31 -146 46 -234t227 -88q141 0 295 95l18 -33q-83 -52 -160 -79t-166 -27q-169 0 -254.5 102t-50.5 267q19 92 69 167.5t117.5 123
t144 73t152.5 25.5q138 0 219 -78.5t51 -222.5q-25 -115 -104.5 -189.5t-156.5 -74.5q-33 0 -52.5 18.5t-12.5 51.5q3 14 10 28q-70 -98 -161 -98q-59 0 -87.5 41t-13.5 110q18 87 90.5 162t157.5 75q58 0 83 -33q13 -16 16 -46zM700 436q9 42 -10 60.5t-46 18.5
q-56 0 -108 -64.5t-66 -128.5q-8 -42 4.5 -69t48.5 -27q33 0 65.5 26.5t55.5 63.5t37.5 69t18.5 51z" />
    <glyph glyph-name="A" unicode="A" horiz-adv-x="722" 
d="M9 0l457 722h107l139 -722h-109l-38 188h-335l-118 -188h-103zM494 623l-215 -354h273z" />
    <glyph glyph-name="B" unicode="B" horiz-adv-x="667" 
d="M95 0l153 722h258q70 0 108 -10.5t63 -42.5q41 -49 24 -129q-7 -34 -23 -61.5t-31.5 -43.5t-39 -29.5t-34.5 -18t-29 -10.5q18 -5 30 -10t32.5 -19t31.5 -31.5t15.5 -49t-3.5 -70.5q-23 -106 -122 -164q-26 -15 -58.5 -23t-53 -9t-58.5 -1h-263zM328 640l-47 -223h140
q150 0 174 114q6 31 0.5 53t-17 32.5t-33.5 16.5t-36 6.5t-37 0.5h-144zM262 331l-53 -250h171q62 0 109 32.5t60 92.5q11 55 -18 90t-94 35h-175z" />
    <glyph glyph-name="C" unicode="C" horiz-adv-x="667" 
d="M742 527h-107q1 14 1 23t-6 31t-18 35t-39.5 24.5t-66.5 11.5q-50 0 -92.5 -20t-70.5 -50t-50 -71.5t-34.5 -79t-21.5 -77.5q-12 -56 -12.5 -102.5t12 -89t49 -67t95.5 -24.5q75 0 126 43q33 29 51 76h110q-32 -100 -120.5 -150.5t-191.5 -50.5q-73 0 -124 25t-75 62.5
t-33 88.5t-6.5 96t12.5 92q9 41 23.5 81t37 84.5t54 81.5t71.5 67.5t94.5 47.5t116.5 17q42 0 80 -9.5t73 -31t52 -64t10 -100.5z" />
    <glyph glyph-name="D" unicode="D" horiz-adv-x="722" 
d="M88 0l153 722h209q50 0 78 -2t69.5 -9.5t72 -28.5t51.5 -54q67 -104 31 -273q-22 -107 -73.5 -182t-108.5 -114q-39 -28 -89 -41.5t-85.5 -15.5t-104.5 -2h-203zM324 639l-119 -557h98q136 0 198 40q110 71 144 229q31 148 -23 225q-25 36 -66.5 49.5t-111.5 13.5h-120z
" />
    <glyph glyph-name="E" unicode="E" horiz-adv-x="611" 
d="M76 0l153 722h453l-18 -85h-353l-47 -225h336l-18 -84h-336l-51 -240h361l-19 -88h-461z" />
    <glyph glyph-name="F" unicode="F" 
d="M95 0l153 722h430l-18 -85h-328l-47 -225h309l-18 -84h-309l-70 -328h-102z" />
    <glyph glyph-name="G" unicode="G" horiz-adv-x="778" 
d="M801 542h-109q2 52 -33 82.5t-106 30.5q-109 0 -176 -61q-95 -86 -126 -232q-12 -58 -10.5 -121.5t28.5 -105.5q47 -71 177 -71q81 0 161 23l46 214h-165l18 83h265l-76 -356q-141 -44 -266 -44q-174 0 -243 90q-80 102 -43 275q7 34 20.5 71t38.5 87t68.5 97t98.5 79
q86 51 212 51q137 0 197 -77q33 -45 23 -115z" />
    <glyph glyph-name="H" unicode="H" horiz-adv-x="722" 
d="M241 722h100l-65 -310h343l65 310h100l-153 -722h-100l69 326h-343l-69 -326h-100z" />
    <glyph glyph-name="I" unicode="I" horiz-adv-x="278" 
d="M88 0l153 722h100l-153 -722h-100z" />
    <glyph glyph-name="J" unicode="J" 
d="M63 196h106q-11 -58 -1 -79q19 -44 84 -44q68 0 110 51q24 29 38 97l106 501h100l-112 -528q-20 -96 -96.5 -150.5t-170.5 -54.5q-115 0 -156 75q-26 49 -8 132z" />
    <glyph glyph-name="K" unicode="K" horiz-adv-x="667" 
d="M93 0l153 722h99l-67 -316l368 316h137l-391 -323l273 -399h-140l-252 383l-81 -383h-99z" />
    <glyph glyph-name="L" unicode="L" 
d="M93 0l153 722h99l-134 -633h336l-19 -89h-435z" />
    <glyph glyph-name="M" unicode="M" horiz-adv-x="944" 
d="M90 0l153 722h177l78 -595l335 595h165l-153 -722h-98l138 650l-375 -650h-95l-91 646l-137 -646h-97z" />
    <glyph glyph-name="N" unicode="N" horiz-adv-x="778" 
d="M95 0l153 722h139l229 -597l126 597h92l-153 -722h-128l-237 613l-130 -613h-91z" />
    <glyph glyph-name="O" unicode="O" horiz-adv-x="778" 
d="M135 356q40 188 154 288q111 97 262 97q153 0 219 -96t27 -277q-16 -77 -46.5 -142t-79.5 -121.5t-123.5 -89t-166.5 -32.5q-89 0 -147.5 30t-83.5 83t-28.5 117.5t13.5 142.5zM241 362q-32 -149 15 -228q39 -66 146 -66q105 0 174 66q82 79 115 235q62 288 -157 288
q-53 0 -98 -17t-75.5 -44t-55.5 -66.5t-39.5 -80t-24.5 -87.5z" />
    <glyph glyph-name="P" unicode="P" horiz-adv-x="611" 
d="M88 0l153 722h242q76 0 117.5 -10.5t67.5 -47.5q42 -54 23 -140q-17 -84 -87 -141q-37 -31 -88.5 -46.5t-142.5 -15.5h-117l-68 -321h-100zM324 641l-50 -236h119q25 0 43.5 1.5t45 8t45.5 19t35.5 36.5t23.5 58q7 32 1 55t-17.5 34t-34 16.5t-36 6.5t-35.5 1h-140z" />
    <glyph glyph-name="Q" unicode="Q" horiz-adv-x="778" 
d="M771 79l-17 -79h-120q-74 0 -135 -5q-100 -10 -133 -10q-137 0 -204 94t-28 277q39 185 150 285q110 98 263 98q86 0 142.5 -32t79.5 -86t25.5 -115.5t-11.5 -130.5q-44 -207 -197 -310q70 14 132 14h53zM239 354q-10 -50 -10 -96.5t12.5 -92.5t51 -74t99.5 -28
q49 0 91 16t71 44t51.5 58.5t37 67t22 61t12.5 48.5q30 140 -11 219t-146 79q-57 0 -104 -24.5t-76 -58t-52 -79.5t-32.5 -77.5t-16.5 -62.5z" />
    <glyph glyph-name="R" unicode="R" horiz-adv-x="667" 
d="M86 0l153 722h258q113 0 159 -34q70 -50 49 -147q-16 -77 -78 -128q-40 -33 -95 -47q50 -14 68.5 -43.5t11.5 -95.5q-14 -148 -3 -227h-107q-5 42 8 191q8 81 -16.5 108t-113.5 27h-126l-69 -326h-99zM319 638l-49 -227h158q68 0 99 16q55 28 69 94q7 33 0 57t-19 35
t-34.5 17t-34.5 7t-31 1h-158z" />
    <glyph glyph-name="S" unicode="S" horiz-adv-x="667" 
d="M101 211h104q-3 -17 -4 -28.5t0 -30.5t10 -31.5t24 -26t44 -20t69 -6.5q52 0 92.5 14.5t60.5 37.5t30 41t14 36q5 24 0.5 42t-13.5 28.5t-32.5 21t-40.5 15.5t-54 15q-90 23 -125 35t-58 29q-64 51 -44 142q14 70 66.5 119.5t116.5 70.5t136 21q138 0 188 -71
q30 -42 18 -123h-104q18 110 -128 110q-75 0 -124.5 -31.5t-60.5 -85.5q-10 -46 15 -68t92 -39q130 -35 160.5 -45.5t56.5 -30.5q62 -47 41 -144q-21 -99 -109.5 -162t-223.5 -63q-160 0 -206 82q-31 54 -11 146z" />
    <glyph glyph-name="T" unicode="T" horiz-adv-x="611" 
d="M362 0h-99l135 637h-242l18 85h583l-18 -85h-242z" />
    <glyph glyph-name="U" unicode="U" horiz-adv-x="778" 
d="M246 722h100l-95 -447q-18 -85 5 -130q38 -71 150 -71q195 0 238 205l94 443h97l-94 -445q-25 -119 -100 -192q-101 -100 -254 -100q-68 0 -133.5 25.5t-97.5 89.5q-29 61 -3 182z" />
    <glyph glyph-name="V" unicode="V" horiz-adv-x="667" 
d="M800 722l-419 -722h-110l-104 722h111l74 -617l347 617h101z" />
    <glyph glyph-name="W" unicode="W" horiz-adv-x="1000" 
d="M161 722h107l30 -594l298 594h124l36 -599l291 599h98l-367 -722h-111l-36 617l-310 -617h-108z" />
    <glyph glyph-name="X" unicode="X" horiz-adv-x="722" 
d="M202 722h128l136 -278l254 278h121l-330 -346l190 -376h-126l-149 310l-286 -310h-121l360 378z" />
    <glyph glyph-name="Y" unicode="Y" horiz-adv-x="667" 
d="M289 0l60 284l-189 438h124l138 -354l291 354h112l-376 -443l-59 -279h-101z" />
    <glyph glyph-name="Z" unicode="Z" horiz-adv-x="611" 
d="M35 0l21 100l531 534h-406l18 88h525l-21 -99l-534 -535h428l-19 -88h-543z" />
    <glyph glyph-name="bracketleft" unicode="[" horiz-adv-x="333" 
d="M75 -125l186 875h173l-11 -53h-94l-163 -769h94l-12 -53h-173z" />
    <glyph glyph-name="backslash" unicode="\" horiz-adv-x="278" 
d="M287 -16h-65l-79 729h66z" />
    <glyph glyph-name="bracketright" unicode="]" horiz-adv-x="333" 
d="M33 -125l12 53h95l163 769h-95l11 53h174l-186 -875h-174z" />
    <glyph glyph-name="asciicircum" unicode="^" horiz-adv-x="584" 
d="M140 271l261 421h76l83 -421h-86l-59 318l-189 -318h-86z" />
    <glyph glyph-name="underscore" unicode="_" horiz-adv-x="500" 
d="M-27 -125l11 50h500l-11 -50h-500z" />
    <glyph glyph-name="grave" unicode="`" horiz-adv-x="278" 
d="M159 740h113l54 -144h-62z" />
    <glyph glyph-name="a" unicode="a" 
d="M479 0h-85q-2 32 7 75q-68 -91 -174 -91q-84 0 -122 41.5t-24 106.5q20 96 119 147q66 33 181 33q25 0 68 -3q11 53 12.5 74.5t-7.5 36.5q-18 33 -80 33q-97 0 -119 -85h-94q20 62 55 95q61 54 174 54q59 0 105 -19t57 -55q10 -32 1 -77l-55 -240q-15 -68 -19 -126z
M435 244q-24 3 -53 3q-181 0 -203 -102q-7 -32 11 -59.5t74 -27.5q72 0 119 54q20 24 28.5 48.5t23.5 83.5z" />
    <glyph glyph-name="b" unicode="b" horiz-adv-x="611" 
d="M335 722l-62 -293q67 86 182 86q102 0 146 -64q44 -68 19 -189q-26 -120 -87 -183q-38 -42 -89.5 -64t-104.5 -22q-65 0 -106 32q-23 19 -38 51l-18 -76h-91l21 90l134 632h94zM519 256q5 20 7 40t0.5 50t-11.5 51.5t-34 37.5t-61 16q-34 0 -63 -12t-48 -33.5t-33 -42
t-23 -47t-13 -39t-7 -26.5l-5.5 -33t-1.5 -47t9 -53.5t33.5 -39t64.5 -17.5q54 0 95.5 33t61 74t29.5 88z" />
    <glyph glyph-name="c" unicode="c" horiz-adv-x="500" 
d="M541 341h-95q14 105 -77 105q-130 0 -170 -189q-43 -199 82 -199q55 0 88 32.5t44 76.5h95q-21 -77 -86 -128.5t-155 -51.5q-106 0 -151 65q-45 70 -19 192q16 75 48.5 130t74 84.5t81.5 43t81 13.5q102 0 141 -62q28 -43 18 -112z" />
    <glyph glyph-name="d" unicode="d" horiz-adv-x="611" 
d="M528 434l61 287h94l-136 -641q-6 -28 -13 -80h-94l15 80q-29 -36 -56 -53q-62 -37 -132 -37q-24 0 -47.5 5t-51.5 21.5t-46 43t-24 74.5t7 111q29 135 109 204.5t176 69.5q107 0 138 -85zM494 258q19 91 -8 140q-29 51 -100 51q-28 0 -53 -9.5t-42 -24t-31.5 -35.5
t-23 -38t-15.5 -39.5t-10 -32.5t-5 -22q-41 -192 97 -192q42 0 76 18t52.5 40.5t34 56.5t19.5 50t9 37z" />
    <glyph glyph-name="e" unicode="e" 
d="M556 234h-361q-20 -82 5.5 -131.5t99.5 -49.5q48 0 85.5 26t54.5 78h94q-22 -67 -65 -105q-73 -67 -187 -67q-116 0 -160 67.5t-19 189.5q18 81 51.5 139t98.5 97q59 37 144 37q54 0 91.5 -15t54.5 -39.5t25.5 -55t4.5 -62t-7 -60.5t-10 -49zM213 300h261q5 23 6 44
t-4.5 47t-29.5 41.5t-65 15.5q-54 0 -102.5 -36t-65.5 -112z" />
    <glyph glyph-name="f" unicode="f" horiz-adv-x="333" 
d="M494 727l-16 -75q-32 2 -55 2q-27 0 -44.5 -5.5t-27 -18.5t-13 -22t-7.5 -27l-16 -79h117l-15 -68h-117l-92 -434h-93l92 434h-99l15 68h99l12 57q11 52 20 76.5t26 43.5q48 55 138 55q30 0 76 -7z" />
    <glyph glyph-name="g" unicode="g" horiz-adv-x="611" 
d="M70 -39h100q-7 -47 13.5 -72.5t82.5 -25.5q32 0 56.5 7t42.5 23.5t30 33t22 48t16 54t15 65.5q-59 -85 -183 -85q-104 0 -141 62q-42 68 -18 185q26 122 103 187.5t174 65.5q46 0 79 -15.5t42.5 -27.5t20.5 -33l16 69h91l-22 -91l-67 -314q-20 -94 -34 -137t-35 -71
q-66 -90 -228 -90q-42 0 -73.5 6t-51.5 14t-32 23t-18 26.5t-6 31t0.5 30.5t4.5 31zM304 79q72 0 120 50q23 23 37.5 52t27.5 92q18 84 -12 125q-32 44 -99 44q-42 0 -75 -19t-52 -50t-30 -58.5t-17 -56.5q-7 -33 -7 -61.5t7.5 -56.5t33 -44.5t66.5 -16.5z" />
    <glyph glyph-name="h" unicode="h" horiz-adv-x="611" 
d="M88 0l153 721h95l-62 -293q31 39 79.5 61t101.5 22q48 0 89 -19t52 -61q9 -34 -8 -117l-67 -314h-96l63 297q4 20 6.5 33t1.5 36t-8.5 37t-27 25t-50.5 11q-82 0 -132 -67q-22 -28 -38 -106l-57 -266h-95z" />
    <glyph glyph-name="i" unicode="i" horiz-adv-x="278" 
d="M210 617l22 103h113l-22 -103h-113zM89 0l107 502h94l-107 -502h-94z" />
    <glyph glyph-name="j" unicode="j" horiz-adv-x="278" 
d="M213 616l22 104h114l-22 -104h-114zM-42 -193l14 67q56 -2 77.5 14.5t33.5 75.5l115 538h94l-117 -549q-4 -20 -8 -34.5t-16.5 -38.5t-28 -39t-43.5 -26.5t-64 -11.5q-23 0 -57 4z" />
    <glyph glyph-name="k" unicode="k" horiz-adv-x="500" 
d="M81 0l155 727h93l-92 -430l232 205h123l-258 -213l164 -289h-123l-143 271l-58 -271h-93z" />
    <glyph glyph-name="l" unicode="l" horiz-adv-x="278" 
d="M90 0l153 721h94l-153 -721h-94z" />
    <glyph glyph-name="m" unicode="m" horiz-adv-x="944" 
d="M87 0l92 435l13 67h95l-16 -73q70 86 177 86q39 0 67.5 -9t43.5 -25t21.5 -29t11.5 -31q77 94 189 94q31 0 58.5 -7.5t53.5 -25.5t36 -55.5t-1 -89.5l-72 -337h-95l68 322q11 51 0 76q-22 44 -87 44q-69 0 -118 -53q-29 -31 -45 -108l-60 -281h-95l71 332q10 49 -12 79.5
t-75 30.5q-70 0 -122 -55q-28 -30 -43 -102l-61 -285h-95z" />
    <glyph glyph-name="n" unicode="n" horiz-adv-x="611" 
d="M91 0l94 444l12 58h94l-17 -81q68 91 181 91q17 0 36 -2.5t44 -13.5t42 -28t25 -50t-2 -77l-72 -341h-96l68 319q12 59 -9 86q-28 34 -82 34q-55 0 -101 -39t-62 -111l-61 -289h-94z" />
    <glyph glyph-name="o" unicode="o" horiz-adv-x="611" 
d="M103 245q11 50 33 95t58.5 86t93.5 65t127 24q58 0 99 -17.5t62 -44.5t30 -63.5t8 -69.5t-8 -68q-25 -117 -107 -193t-205 -76q-120 0 -168 73t-23 189zM202 251q-18 -84 8 -141t101 -57q62 0 117.5 49t77.5 153q20 92 -9 141.5t-96 49.5q-25 0 -52 -9t-57 -29t-54 -60.5
t-36 -96.5z" />
    <glyph glyph-name="p" unicode="p" horiz-adv-x="611" 
d="M44 -193l130 613q2 10 15 82h95l-16 -83q42 52 94 71.5t96 19.5q89 0 136.5 -64.5t19.5 -195.5q-28 -132 -108 -200.5t-178 -68.5q-108 0 -138 75l-53 -249h-93zM225 236q-39 -186 102 -186q70 0 116 49q53 56 74 157q40 184 -98 184q-150 0 -194 -204z" />
    <glyph glyph-name="q" unicode="q" horiz-adv-x="611" 
d="M541 502h95q-11 -40 -20 -82l-130 -613h-95l53 249q-25 -29 -50 -43q-53 -32 -120 -32q-98 0 -148.5 70t-22.5 202q27 129 102 193t163 64q114 0 152 -91zM486 241q43 199 -108 199q-38 0 -69.5 -16t-49 -36t-31 -49.5t-18 -45t-8.5 -34.5q-22 -102 7 -160q24 -49 98 -49
q42 0 73.5 15t52 43.5t33 60t20.5 72.5z" />
    <glyph glyph-name="r" unicode="r" horiz-adv-x="389" 
d="M93 0l85 400q10 47 17 102h95l-19 -97q40 85 141 99q31 4 66 2l-20 -92q-6 2 -17 4q-7 1 -27 1q-77 0 -115.5 -40t-53.5 -112l-57 -267h-95z" />
    <glyph glyph-name="s" unicode="s" horiz-adv-x="500" 
d="M75 149h99q-9 -36 10 -63.5t80 -27.5q62 0 95 32q21 21 26 47q7 34 -13 47t-81 28q-39 9 -58 15t-46.5 18t-39 26t-17.5 37.5t0 53.5q15 69 78 110.5t150 41.5q57 0 105 -18.5t60 -59.5q7 -28 -3 -73h-96q7 27 1 44.5t-21.5 25t-28.5 10t-30 2.5q-12 0 -23.5 -1.5
t-33.5 -7t-38.5 -22t-22.5 -41.5q-4 -21 7 -35.5t21.5 -19t29.5 -9.5q104 -26 135 -37.5t49 -31.5q31 -35 18 -93q-8 -40 -35 -74.5t-60 -52.5q-62 -34 -156 -34q-85 0 -132.5 39t-28.5 124z" />
    <glyph glyph-name="t" unicode="t" horiz-adv-x="333" 
d="M103 435l15 69h89l22 105l100 30l-29 -135h112l-15 -69h-112l-64 -301q-2 -14 -2.5 -22t2.5 -20t16 -18.5t37 -6.5q25 0 46 5l-15 -73q-35 -6 -79 -6q-67 0 -92 23.5t-13 83.5l71 335h-89z" />
    <glyph glyph-name="u" unicode="u" horiz-adv-x="611" 
d="M185 502h96l-69 -323q-5 -22 -5 -38.5t6.5 -34.5t27 -28t54.5 -10q80 0 130 56q28 30 41 94l61 284h97l-87 -408q-2 -10 -17 -94h-98l16 86q-17 -24 -34 -40.5t-56 -33.5t-89 -17q-90 0 -126 46.5t-20 123.5z" />
    <glyph glyph-name="v" unicode="v" 
d="M222 0l-103 502h105l75 -398l241 398h104l-327 -502h-95z" />
    <glyph glyph-name="w" unicode="w" horiz-adv-x="833" 
d="M119 502h103l36 -400l212 400h123l30 -396l210 396h97l-284 -502h-108l-30 413l-219 -413h-111z" />
    <glyph glyph-name="x" unicode="x" 
d="M390 257l141 -257h-124l-100 201l-185 -201h-110l255 263l-137 239h123l94 -189l180 189h111z" />
    <glyph glyph-name="y" unicode="y" 
d="M644 502l-331 -505l-111 -187h-97l116 192l-102 500h106l73 -396l244 396h102z" />
    <glyph glyph-name="z" unicode="z" horiz-adv-x="444" 
d="M30 0l21 97l339 334h-254l15 71h361l-17 -80l-351 -349h277l-16 -73h-375z" />
    <glyph glyph-name="braceleft" unicode="{" horiz-adv-x="334" 
d="M60 287l11 51q56 4 99 32q31 20 43 45t22 72l5 27q7 31 11 47t14 44t20 44t29.5 36.5t43.5 32t58.5 21t77.5 11.5l-10 -51q-36 -3 -63 -15.5t-42.5 -26.5t-27 -39.5t-16 -41t-10.5 -44.5l-5 -26q-7 -31 -11.5 -48t-18 -46t-30 -46t-46 -32.5t-68.5 -20.5q36 -5 59.5 -20
t33 -32t10.5 -45.5t-2 -46.5t-10 -50l-6 -31q-8 -34 -9.5 -53.5t3 -47t28.5 -42.5t66 -19l-11 -51q-40 3 -70 11t-49 19t-30 29t-15.5 34.5t-4 41.5t4 45t9.5 49l7 34q5 21 7 32.5t2.5 30.5t-5.5 30.5t-17.5 24t-33.5 20t-53 11.5z" />
    <glyph glyph-name="bar" unicode="|" horiz-adv-x="260" 
d="M248 750h83l-212 -1000h-83z" />
    <glyph glyph-name="braceright" unicode="}" horiz-adv-x="334" 
d="M407 338l-11 -51q-56 -4 -99 -32q-31 -20 -43 -45.5t-22 -71.5l-5 -27q-7 -31 -11 -47t-14 -44t-20.5 -44t-29.5 -36.5t-43 -32t-58.5 -21t-78.5 -11.5l11 51q36 3 63 15.5t42.5 26.5t27 39.5t16 41t10.5 44.5l5 26q6 25 9.5 39.5t12 39t20.5 40t29.5 33t44 28t59.5 14.5
q-27 3 -46.5 12t-31.5 19t-18 27t-8 30.5t0 35t4.5 34.5t7.5 35l6 31q7 34 9 53.5t-3 47t-28.5 42.5t-65.5 19l10 51q41 -3 70.5 -11t49 -19t30.5 -29t15.5 -34.5t3.5 -41.5t-4 -45t-9 -49l-7 -34q-5 -21 -7 -32.5t-2.5 -30.5t5.5 -30.5t17.5 -24t33.5 -20t53 -11.5z" />
    <glyph glyph-name="asciitilde" unicode="~" horiz-adv-x="584" 
d="M119 174h-55q25 70 63 107q46 44 101 44q25 0 45 -5.5t92 -30.5q94 -34 119 -34q59 0 89 73h54q-15 -46 -37.5 -78t-47 -46.5t-43.5 -20t-37 -5.5q-43 0 -152 41q-82 30 -102 30q-24 0 -49.5 -18.5t-39.5 -56.5z" />
    <glyph glyph-name="uni00A0" unicode="&#xa0;" horiz-adv-x="278" 
 />
    <glyph glyph-name="exclamdown" unicode="&#xa1;" horiz-adv-x="389" 
d="M219 402l22 100h106l-22 -100h-106zM220 337h73l-102 -557h-111z" />
    <glyph glyph-name="cent" unicode="&#xa2;" 
d="M569 341h-95q4 47 -12 72l-175 -353q13 -3 21 -3q48 0 84.5 28.5t48.5 81.5h95q-21 -77 -86 -128.5t-157 -51.5q-24 0 -40 3l-68 -136h-49l73 148q-37 15 -60 44t-29 65.5t-4.5 68t8.5 64.5q28 132 111 204q78 67 176 67q18 0 50 -5l60 120h48l-67 -135q34 -16 56 -53
t11 -101zM247 78l180 362q-17 6 -34 6q-55 0 -100 -44q-45 -45 -66 -142q-29 -139 20 -182z" />
    <glyph glyph-name="sterling" unicode="&#xa3;" 
d="M180 347h-74l14 67h76q18 104 41 155q5 12 13 26t29 37.5t46.5 41t67.5 31t90 13.5q117 0 164 -66q24 -34 11 -96h-98q8 43 -15.5 70.5t-73.5 27.5q-64 0 -107 -42q-26 -26 -36.5 -53t-26.5 -103l-9 -42h141l-14 -67h-141l-60 -280h319l-14 -67h-484l14 68h67z" />
    <glyph glyph-name="currency" unicode="&#xa4;" 
d="M73 157l79 65q-27 60 -13 124q14 68 66 125l-51 65l59 49l52 -65q65 39 133 39q60 0 115 -40l78 65l39 -49l-79 -65q29 -53 14 -124q-14 -65 -67 -123l51 -66l-59 -49l-51 65q-68 -40 -132 -40q-69 0 -115 40l-80 -65zM381 485q-57 0 -106.5 -40.5t-61.5 -98.5
q-13 -57 19 -98t90 -41t107 40.5t61.5 98.5t-20 98.5t-89.5 40.5z" />
    <glyph glyph-name="yen" unicode="&#xa5;" 
d="M79 164l13 61h183l12 55h-183l13 62h154l-118 380h124l83 -354l236 354h113l-276 -380h151l-13 -62h-183l-12 -55h183l-13 -61h-183l-35 -164h-101l35 164h-183z" />
    <glyph glyph-name="brokenbar" unicode="&#xa6;" horiz-adv-x="260" 
d="M232 675h83l-74 -350h-83zM126 175h83l-74 -350h-83z" />
    <glyph glyph-name="section" unicode="&#xa7;" 
d="M111 0l18 86q57 -32 126 -32q32 0 57 9.5t36.5 24t16.5 24.5t7 18q4 21 -5.5 36.5t-23 23t-35.5 14.5l-63 21q-19 7 -29 12t-27 18t-22.5 35t0.5 51q20 90 137 130q-88 28 -69 115q14 66 70 102.5t139 36.5q61 0 115 -17l-16 -78q-66 28 -105 28q-91 0 -105 -66
q-5 -21 2.5 -34.5t17 -18.5t28.5 -12l59 -21q17 -6 28.5 -12t27.5 -19t21.5 -35.5t-1.5 -52.5q-21 -98 -129 -128q19 -6 31 -12t29.5 -20.5t24 -38.5t-0.5 -57q-14 -67 -77.5 -109.5t-161.5 -42.5q-62 0 -121 21zM326 282q92 31 104 88q3 18 -0.5 31t-17 22t-23.5 13.5
t-31 11.5q-18 -7 -28.5 -12t-28 -15.5t-28 -26t-14.5 -34.5q-12 -55 67 -78z" />
    <glyph glyph-name="dieresis" unicode="&#xa8;" horiz-adv-x="278" 
d="M128 617l22 102h92l-22 -102h-92zM317 617l22 102h93l-22 -102h-93z" />
    <glyph glyph-name="copyright" unicode="&#xa9;" horiz-adv-x="800" 
d="M110 362q33 156 168 267.5t293 111.5q157 0 244 -111t54 -268t-168 -268t-292 -111q-158 0 -245 111.5t-54 267.5zM155 362q-29 -138 47.5 -236t216.5 -98q138 0 257 98t148 236q29 137 -48 235.5t-215 98.5q-140 0 -258.5 -98t-147.5 -236zM654 463h-59q1 9 0.5 18.5
t-4.5 24t-21 23.5t-44 9q-34 0 -61 -17.5t-44 -46.5t-27 -56.5t-17 -58.5q-36 -169 75 -169q25 0 44.5 8.5t30.5 22.5t16 22.5t7 17.5h60q-18 -59 -67 -89.5t-106 -30.5q-49 0 -79 21.5t-39 57.5t-8.5 69.5t7.5 69.5q8 37 23 73t40.5 72.5t66.5 59t92 22.5q52 0 87.5 -28.5
t26.5 -94.5z" />
    <glyph glyph-name="ordfeminine" unicode="&#xaa;" horiz-adv-x="334" 
d="M391 431h-55q-2 21 3 45q-44 -55 -114 -55q-48 0 -75.5 23.5t-17.5 66.5q8 40 40.5 65t68.5 33.5t79 8.5q32 0 48 -2q4 19 5.5 29t1 23t-6.5 19t-18 10.5t-31 4.5q-63 0 -77 -50h-61q13 51 58 71q35 18 89 18q95 0 107 -48q6 -22 -1 -43l-32 -143q-8 -36 -11 -76z
M360 577q-18 0 -52 2t-70.5 -13.5t-43.5 -47.5q-4 -19 8 -35.5t49 -16.5q54 0 84 41q12 19 25 70z" />
    <glyph glyph-name="guillemotleft" unicode="&#xab;" 
d="M285 53h-80l-69 196l152 194h79l-138 -194zM481 53h-80l-69 196l152 194h79l-138 -194z" />
    <glyph glyph-name="logicalnot" unicode="&#xac;" horiz-adv-x="584" 
d="M104 314l16 77h510l-59 -280h-80l43 203h-430z" />
    <glyph glyph-name="uni00AD" unicode="&#xad;" horiz-adv-x="333" 
d="M90 225l16 76h251l-16 -76h-251z" />
    <glyph glyph-name="registered" unicode="&#xae;" horiz-adv-x="800" 
d="M308 163l86 406h144q138 0 116 -102q-16 -76 -97 -98q30 -7 39.5 -23.5t6.5 -54.5q-8 -90 -3 -128h-58q-3 37 2 106q5 47 -8.5 62.5t-62.5 15.5h-70l-39 -184h-56zM440 521l-27 -126h88q15 0 25 1t26.5 6.5t26.5 19t15 35.5q5 23 0.5 37t-18 19.5t-23 6.5t-25.5 1h-88z
M569 741q156 0 243.5 -110.5t53.5 -267.5q-33 -158 -168.5 -269t-290.5 -111q-154 0 -242 111t-55 269q34 157 170 267.5t289 110.5zM559 696q-137 0 -256 -98t-148 -235q-30 -140 47.5 -238t214.5 -98q138 0 256.5 98.5t147.5 237.5q29 136 -47 234.5t-215 98.5z" />
    <glyph glyph-name="macron" unicode="&#xaf;" horiz-adv-x="278" 
d="M136 642l12 53h275l-12 -53h-275z" />
    <glyph glyph-name="degree" unicode="&#xb0;" horiz-adv-x="400" 
d="M350 706q65 0 101 -45.5t22 -110.5q-14 -64 -69 -110t-120 -46q-64 0 -100.5 46t-22.5 110q14 65 69 110.5t120 45.5zM335 637q-36 0 -66.5 -25.5t-38.5 -61.5t12 -61.5t56 -25.5t67 25.5t39 61.5t-12.5 61.5t-56.5 25.5z" />
    <glyph glyph-name="plusminus" unicode="&#xb1;" horiz-adv-x="584" 
d="M272 104l35 166h-213l17 77h213l35 168h84l-35 -168h213l-17 -77h-213l-35 -166h-84zM34 -13l17 77h510l-17 -77h-510z" />
    <glyph glyph-name="uni00B2" unicode="&#xb2;" horiz-adv-x="333" 
d="M84 284l12 54l140 107q73 55 100 86t34 60q6 32 -10 49.5t-49 17.5q-25 0 -43 -8.5t-27 -24t-12 -22t-6 -17.5h-68q9 37 29.5 63t46.5 37t47 15.5t41 4.5q62 0 94.5 -31t20.5 -89q-10 -45 -72 -103q-43 -39 -103 -83l-93 -69h214l-10 -47h-286z" />
    <glyph glyph-name="uni00B3" unicode="&#xb3;" horiz-adv-x="333" 
d="M95 390h68q-7 -33 11.5 -50.5t58.5 -17.5q43 0 70.5 22t33.5 53q18 83 -111 75l11 49q6 -3 26 -0.5t42 7t41.5 21.5t25.5 44q8 36 -13 51t-52 15q-35 0 -62 -18t-34 -48h-66q10 42 41.5 69t63.5 35.5t65 8.5q70 0 101.5 -33t21.5 -79q-6 -31 -33.5 -59t-76.5 -38
q26 -4 43 -15.5t24 -23.5t8.5 -27.5t0.5 -22t-2 -12.5q-11 -52 -62 -87.5t-123 -35.5q-81 0 -112 44q-17 25 -10 73z" />
    <glyph glyph-name="acute" unicode="&#xb4;" horiz-adv-x="278" 
d="M319 740h104l-151 -144h-65z" />
    <glyph glyph-name="uni00B5" unicode="&#xb5;" horiz-adv-x="611" 
d="M45 -209l151 711h80l-52 -242q-22 -106 -8 -146q21 -56 89 -56q72 0 123 63q34 43 55 141l51 240h81l-107 -502h-74l15 70q-73 -81 -160 -81q-35 0 -60 13t-32 22.5t-17 27.5l-55 -261h-80z" />
    <glyph glyph-name="paragraph" unicode="&#xb6;" horiz-adv-x="537" 
d="M666 658h-54l-176 -826h-78l176 826h-117l-176 -826h-79l92 432q-55 4 -91.5 25.5t-52 54.5t-18 68t5.5 74q7 31 20.5 62t39 63t58.5 56t82.5 39.5t108.5 15.5h272z" />
    <glyph glyph-name="periodcentered" unicode="&#xb7;" horiz-adv-x="278" 
d="M130 231l26 121h111l-26 -121h-111z" />
    <glyph glyph-name="cedilla" unicode="&#xb8;" horiz-adv-x="278" 
d="M-19 -194l28 37q23 -14 64 -14q53 0 61 40q8 39 -43 39q-15 0 -37 -8l-12 17l82 88h42l-58 -63q29 5 41 5q40 0 54 -22t9 -49q-2 -6 -4.5 -13t-12 -22t-23.5 -26t-40.5 -20t-60.5 -9q-48 0 -90 20z" />
    <glyph glyph-name="uni00B9" unicode="&#xb9;" horiz-adv-x="333" 
d="M285 284h-62l75 350q-55 -35 -118 -61l13 61q72 31 123 65h58z" />
    <glyph glyph-name="ordmasculine" unicode="&#xba;" horiz-adv-x="367" 
d="M365 740q48 0 78.5 -16t41.5 -42t12.5 -50.5t-4.5 -50.5q-15 -71 -68 -116t-129 -45q-82 0 -112.5 45.5t-16.5 112.5q15 69 65.5 115.5t132.5 46.5zM304 463q40 0 76 29.5t49 90.5q10 47 -4.5 81t-67.5 34q-50 0 -82.5 -34.5t-42.5 -81.5t5 -83t67 -36z" />
    <glyph glyph-name="guillemotright" unicode="&#xbb;" 
d="M175 443h80l70 -195l-153 -195h-79l139 195zM371 443h79l71 -195l-154 -195h-78l139 195z" />
    <glyph glyph-name="onequarter" unicode="&#xbc;" horiz-adv-x="834" 
d="M736 0h-62l19 90h-203l15 71l250 260h70l-59 -282h66l-11 -49h-66zM550 139h155l46 218zM140 -28l588 743h64l-587 -743h-65zM251 284h-62l75 350q-59 -38 -118 -61l13 61q69 29 124 65h57z" />
    <glyph glyph-name="onehalf" unicode="&#xbd;" horiz-adv-x="834" 
d="M140 -28l588 743h64l-587 -743h-65zM251 284h-62l75 350q-59 -38 -118 -61l13 61q69 29 124 65h57zM525 0l12 55l139 106q74 56 101 87t33 59q7 32 -9.5 49.5t-49.5 17.5q-20 0 -35.5 -6.5t-24 -14t-15.5 -20.5t-8.5 -17.5l-4.5 -13.5h-68q8 30 24.5 53.5t33.5 35.5
t38.5 20t37.5 10t31 2q62 0 94.5 -31t19.5 -89q-4 -23 -18.5 -45t-53.5 -59q-37 -34 -102 -82l-93 -70h214l-10 -47h-286z" />
    <glyph glyph-name="threequarters" unicode="&#xbe;" horiz-adv-x="834" 
d="M747 0h-62l19 90h-203l15 71l250 260h70l-59 -282h66l-11 -49h-66zM562 139h154l46 218zM170 -28l587 743h65l-587 -743h-65zM95 390h69q-8 -33 10.5 -50.5t58.5 -17.5q43 0 70.5 22t33.5 53q18 83 -111 75l11 49q6 -3 26 -0.5t42 7t41.5 21.5t25.5 44q14 66 -65 66
q-35 0 -62 -18t-34 -48h-66q10 42 41.5 69t63.5 35.5t65 8.5q70 0 101.5 -33t21.5 -79q-6 -31 -33.5 -59t-76.5 -38q26 -4 43 -15.5t24 -23.5t8.5 -27.5t0.5 -22t-2 -12.5q-11 -52 -62 -87.5t-123 -35.5q-79 0 -112 44q-17 26 -10 73z" />
    <glyph glyph-name="questiondown" unicode="&#xbf;" horiz-adv-x="500" 
d="M412 -123l-19 -90q-80 -21 -147 -21q-128 0 -174 62q-34 48 -20 117q12 54 44.5 91t119.5 108q1 1 18.5 16t33.5 28l16 13q10 11 14 31l23 106h83l-22 -105q-7 -31 -17 -46t-57 -55q-58 -51 -81 -72.5t-43.5 -50t-26.5 -56.5q-7 -35 4.5 -58.5t36 -32t40 -11t32.5 -2.5
q67 0 142 28zM447 502l-22 -102h-104l22 102h104z" />
    <glyph glyph-name="Agrave" unicode="&#xc0;" horiz-adv-x="722" 
d="M9 0l457 722h107l139 -722h-109l-38 188h-335l-118 -188h-103zM494 623l-215 -354h273zM422 930h113l53 -144h-62z" />
    <glyph glyph-name="Aacute" unicode="&#xc1;" horiz-adv-x="722" 
d="M9 0l457 722h107l139 -722h-109l-38 188h-335l-118 -188h-103zM494 623l-215 -354h273zM582 930h104l-152 -144h-65z" />
    <glyph glyph-name="Acircumflex" unicode="&#xc2;" horiz-adv-x="722" 
d="M9 0l457 722h107l139 -722h-109l-38 188h-335l-118 -188h-103zM494 623l-215 -354h273zM453 786h-77l137 145h90l73 -145h-86l-46 96z" />
    <glyph glyph-name="Atilde" unicode="&#xc3;" horiz-adv-x="722" 
d="M9 0l457 722h107l139 -722h-109l-38 188h-335l-118 -188h-103zM494 623l-215 -354h273zM432 802h-42q12 43 39 70q29 28 67 28q15 0 74 -17q24 -7 35 -7q37 0 45 37h41q-10 -52 -41 -76.5t-64 -24.5q-21 0 -61 13q-7 2 -18.5 5.5t-18.5 5.5t-10 2q-27 0 -46 -36z" />
    <glyph glyph-name="Adieresis" unicode="&#xc4;" horiz-adv-x="722" 
d="M9 0l457 722h107l139 -722h-109l-38 188h-335l-118 -188h-103zM494 623l-215 -354h273zM388 797l22 102h92l-22 -102h-92zM577 797l22 102h93l-22 -102h-93z" />
    <glyph glyph-name="Aring" unicode="&#xc5;" horiz-adv-x="722" 
d="M9 0l457 722h107l139 -722h-109l-38 188h-335l-118 -188h-103zM494 623l-215 -354h273zM443.5 849q8.5 41 43 69.5t75.5 28.5t63.5 -28.5t14 -69.5t-43 -69.5t-75.5 -28.5t-63.5 28.5t-14 69.5zM483.5 849q-5.5 -24 8 -41t37.5 -17t44.5 17t26 41t-8 41t-37.5 17
t-44.5 -17t-26 -41z" />
    <glyph glyph-name="AE" unicode="&#xc6;" horiz-adv-x="1000" 
d="M590 201h-320l-158 -201h-110l574 722h520l-18 -85h-371l-9 -223h319l-18 -85h-304l-10 -243h287l-18 -86h-373zM333 282h259l21 366z" />
    <glyph glyph-name="Ccedilla" unicode="&#xc7;" horiz-adv-x="667" 
d="M558 190h110q-30 -95 -111 -145t-178 -56l-44 -47q26 5 40 5q40 0 54.5 -22t9.5 -49q-2 -6 -4.5 -13t-12 -22t-24 -26t-41 -20t-60.5 -9q-48 0 -90 20l28 37q23 -14 64 -14q54 0 62 40q8 39 -43 39q-16 0 -38 -8l-12 17l68 72q-63 3 -108 26.5t-69 59t-34 83.5t-8 95.5
t13 99.5q11 50 28.5 98t50.5 100.5t75.5 91t105.5 64t137 25.5q42 0 80 -9.5t73 -31t52 -64t10 -100.5h-107q1 14 1 23t-6 31t-18 35t-39.5 24.5t-66.5 11.5q-50 0 -92.5 -20t-70.5 -50t-50 -71.5t-34.5 -79t-21.5 -77.5q-12 -56 -12.5 -102.5t12 -89t49 -67t95.5 -24.5
q75 0 126 43q33 29 51 76z" />
    <glyph glyph-name="Egrave" unicode="&#xc8;" horiz-adv-x="611" 
d="M76 0l153 722h453l-18 -85h-353l-47 -225h336l-18 -84h-336l-51 -240h361l-19 -88h-461zM367 930h113l53 -144h-62z" />
    <glyph glyph-name="Eacute" unicode="&#xc9;" horiz-adv-x="611" 
d="M76 0l153 722h453l-18 -85h-353l-47 -225h336l-18 -84h-336l-51 -240h361l-19 -88h-461zM527 930h104l-152 -144h-65z" />
    <glyph glyph-name="Ecircumflex" unicode="&#xca;" horiz-adv-x="611" 
d="M76 0l153 722h453l-18 -85h-353l-47 -225h336l-18 -84h-336l-51 -240h361l-19 -88h-461zM398 786h-77l137 145h90l73 -145h-86l-46 96z" />
    <glyph glyph-name="Edieresis" unicode="&#xcb;" horiz-adv-x="611" 
d="M76 0l153 722h453l-18 -85h-353l-47 -225h336l-18 -84h-336l-51 -240h361l-19 -88h-461zM333 797l22 102h92l-22 -102h-92zM522 797l22 102h93l-22 -102h-93z" />
    <glyph glyph-name="Igrave" unicode="&#xcc;" horiz-adv-x="278" 
d="M88 0l153 722h100l-153 -722h-100zM200 930h113l53 -144h-62z" />
    <glyph glyph-name="Iacute" unicode="&#xcd;" horiz-adv-x="278" 
d="M88 0l153 722h100l-153 -722h-100zM360 930h104l-152 -144h-65z" />
    <glyph glyph-name="Icircumflex" unicode="&#xce;" horiz-adv-x="278" 
d="M88 0l153 722h100l-153 -722h-100zM231 786h-77l137 145h90l73 -145h-86l-46 96z" />
    <glyph glyph-name="Idieresis" unicode="&#xcf;" horiz-adv-x="278" 
d="M88 0l153 722h100l-153 -722h-100zM166 797l22 102h92l-22 -102h-92zM355 797l22 102h93l-22 -102h-93z" />
    <glyph glyph-name="Eth" unicode="&#xd0;" horiz-adv-x="722" 
d="M88 0l78 369h-70l13 61h70l62 292h209q50 0 78 -2t69.5 -9.5t72 -28.5t51.5 -54q67 -104 31 -273q-22 -107 -73.5 -182t-108.5 -114q-39 -28 -89 -41.5t-85.5 -15.5t-104.5 -2h-203zM266 369l-61 -287h98q136 0 198 40q110 71 144 229q31 148 -23 225q-25 36 -66.5 49.5
t-111.5 13.5h-120l-45 -209h192l-13 -61h-192z" />
    <glyph glyph-name="Ntilde" unicode="&#xd1;" horiz-adv-x="778" 
d="M95 0l153 722h139l229 -597l126 597h92l-153 -722h-128l-237 613l-130 -613h-91zM460 802h-42q12 43 39 70q29 28 67 28q15 0 74 -17q24 -7 35 -7q37 0 45 37h41q-10 -52 -41 -76.5t-64 -24.5q-21 0 -61 13q-7 2 -18.5 5.5t-18.5 5.5t-10 2q-27 0 -46 -36z" />
    <glyph glyph-name="Ograve" unicode="&#xd2;" horiz-adv-x="778" 
d="M135 356q40 188 154 288q111 97 262 97q153 0 219 -96t27 -277q-16 -77 -46.5 -142t-79.5 -121.5t-123.5 -89t-166.5 -32.5q-89 0 -147.5 30t-83.5 83t-28.5 117.5t13.5 142.5zM241 362q-32 -149 15 -228q39 -66 146 -66q105 0 174 66q82 79 115 235q62 288 -157 288
q-53 0 -98 -17t-75.5 -44t-55.5 -66.5t-39.5 -80t-24.5 -87.5zM450 930h113l53 -144h-62z" />
    <glyph glyph-name="Oacute" unicode="&#xd3;" horiz-adv-x="778" 
d="M135 356q40 188 154 288q111 97 262 97q153 0 219 -96t27 -277q-16 -77 -46.5 -142t-79.5 -121.5t-123.5 -89t-166.5 -32.5q-89 0 -147.5 30t-83.5 83t-28.5 117.5t13.5 142.5zM241 362q-32 -149 15 -228q39 -66 146 -66q105 0 174 66q82 79 115 235q62 288 -157 288
q-53 0 -98 -17t-75.5 -44t-55.5 -66.5t-39.5 -80t-24.5 -87.5zM610 930h104l-152 -144h-65z" />
    <glyph glyph-name="Ocircumflex" unicode="&#xd4;" horiz-adv-x="778" 
d="M135 356q40 188 154 288q111 97 262 97q153 0 219 -96t27 -277q-16 -77 -46.5 -142t-79.5 -121.5t-123.5 -89t-166.5 -32.5q-89 0 -147.5 30t-83.5 83t-28.5 117.5t13.5 142.5zM241 362q-32 -149 15 -228q39 -66 146 -66q105 0 174 66q82 79 115 235q62 288 -157 288
q-53 0 -98 -17t-75.5 -44t-55.5 -66.5t-39.5 -80t-24.5 -87.5zM481 786h-77l137 145h90l73 -145h-86l-46 96z" />
    <glyph glyph-name="Otilde" unicode="&#xd5;" horiz-adv-x="778" 
d="M135 356q40 188 154 288q111 97 262 97q153 0 219 -96t27 -277q-16 -77 -46.5 -142t-79.5 -121.5t-123.5 -89t-166.5 -32.5q-89 0 -147.5 30t-83.5 83t-28.5 117.5t13.5 142.5zM241 362q-32 -149 15 -228q39 -66 146 -66q105 0 174 66q82 79 115 235q62 288 -157 288
q-53 0 -98 -17t-75.5 -44t-55.5 -66.5t-39.5 -80t-24.5 -87.5zM460 802h-42q12 43 39 70q29 28 67 28q15 0 74 -17q24 -7 35 -7q37 0 45 37h41q-10 -52 -41 -76.5t-64 -24.5q-21 0 -61 13q-7 2 -18.5 5.5t-18.5 5.5t-10 2q-27 0 -46 -36z" />
    <glyph glyph-name="Odieresis" unicode="&#xd6;" horiz-adv-x="778" 
d="M135 356q40 188 154 288q111 97 262 97q153 0 219 -96t27 -277q-16 -77 -46.5 -142t-79.5 -121.5t-123.5 -89t-166.5 -32.5q-89 0 -147.5 30t-83.5 83t-28.5 117.5t13.5 142.5zM241 362q-32 -149 15 -228q39 -66 146 -66q105 0 174 66q82 79 115 235q62 288 -157 288
q-53 0 -98 -17t-75.5 -44t-55.5 -66.5t-39.5 -80t-24.5 -87.5zM416 797l22 102h92l-22 -102h-92zM605 797l22 102h93l-22 -102h-93z" />
    <glyph glyph-name="multiply" unicode="&#xd7;" horiz-adv-x="584" 
d="M61 65l225 186l-146 186l69 57l147 -185l225 185l46 -57l-226 -186l146 -186l-69 -57l-147 186l-225 -186z" />
    <glyph glyph-name="Oslash" unicode="&#xd8;" horiz-adv-x="778" 
d="M808 799h62l-115 -136q85 -96 41 -300q-11 -53 -30 -102t-52.5 -101t-77.5 -90t-109.5 -62.5t-142.5 -24.5q-97 0 -173 44l-99 -115h-63l127 147q-15 19 -24 35.5t-21 52t-11 89.5t15 122q41 193 160 293q109 90 254 90q102 0 170 -46zM250 147l405 472q-38 38 -124 38
q-52 0 -96.5 -17t-75 -45t-55 -67.5t-39 -80t-24.5 -86.5q-29 -137 9 -214zM682 579l-403 -472q39 -39 124 -39q65 0 117.5 26t85 71.5t52.5 94t33 107.5q29 135 -9 212z" />
    <glyph glyph-name="Ugrave" unicode="&#xd9;" horiz-adv-x="778" 
d="M246 722h100l-95 -447q-18 -85 5 -130q38 -71 150 -71q195 0 238 205l94 443h97l-94 -445q-25 -119 -100 -192q-101 -100 -254 -100q-68 0 -133.5 25.5t-97.5 89.5q-29 61 -3 182zM450 930h113l53 -144h-62z" />
    <glyph glyph-name="Uacute" unicode="&#xda;" horiz-adv-x="778" 
d="M246 722h100l-95 -447q-18 -85 5 -130q38 -71 150 -71q195 0 238 205l94 443h97l-94 -445q-25 -119 -100 -192q-101 -100 -254 -100q-68 0 -133.5 25.5t-97.5 89.5q-29 61 -3 182zM610 930h104l-152 -144h-65z" />
    <glyph glyph-name="Ucircumflex" unicode="&#xdb;" horiz-adv-x="778" 
d="M246 722h100l-95 -447q-18 -85 5 -130q38 -71 150 -71q195 0 238 205l94 443h97l-94 -445q-25 -119 -100 -192q-101 -100 -254 -100q-68 0 -133.5 25.5t-97.5 89.5q-29 61 -3 182zM481 786h-77l137 145h90l73 -145h-86l-46 96z" />
    <glyph glyph-name="Udieresis" unicode="&#xdc;" horiz-adv-x="778" 
d="M246 722h100l-95 -447q-18 -85 5 -130q38 -71 150 -71q195 0 238 205l94 443h97l-94 -445q-25 -119 -100 -192q-101 -100 -254 -100q-68 0 -133.5 25.5t-97.5 89.5q-29 61 -3 182zM416 797l22 102h92l-22 -102h-92zM605 797l22 102h93l-22 -102h-93z" />
    <glyph glyph-name="Yacute" unicode="&#xdd;" horiz-adv-x="667" 
d="M289 0l60 284l-189 438h124l138 -354l291 354h112l-376 -443l-59 -279h-101zM555 930h104l-152 -144h-65z" />
    <glyph glyph-name="Thorn" unicode="&#xde;" horiz-adv-x="611" 
d="M241 719h100l-25 -118h142q81 0 120.5 -12.5t63.5 -45.5q42 -54 24 -140q-18 -84 -87 -141q-38 -31 -88.5 -46.5t-142.5 -15.5h-117l-43 -200h-100zM299 520l-51 -236h119q25 0 43.5 1.5t45.5 8t45.5 19t35 36.5t24.5 58q6 32 0 55t-17 34t-34 16.5t-36 6.5t-35 1h-140z
" />
    <glyph glyph-name="germandbls" unicode="&#xdf;" horiz-adv-x="667" 
d="M90 0l112 528q7 30 15 53.5t28 54t47 50.5t74.5 34.5t108.5 14.5q53 0 95.5 -12t69.5 -47t16 -90q-8 -35 -25.5 -57.5t-50.5 -43.5q-52 -34 -67 -47.5t-19 -33.5q-6 -26 17 -43l75 -57q43 -32 56.5 -63t3.5 -75q-17 -81 -84 -128t-149 -47q-119 0 -135 80q-6 30 4 73h92
q-10 -40 8 -61.5t55 -21.5q49 0 76.5 28.5t34.5 61.5q5 25 -2 44.5t-16.5 29t-28.5 23.5l-52 37q-67 46 -54 106q6 27 24 50t34 35t50 34q20 12 29 19t17.5 20t12.5 30q9 40 -16.5 66t-87.5 26q-71 0 -108.5 -33.5t-53.5 -112.5l-112 -525h-94z" />
    <glyph glyph-name="agrave" unicode="&#xe0;" 
d="M479 0h-85q-2 32 7 75q-68 -91 -174 -91q-84 0 -122 41.5t-24 106.5q20 96 119 147q66 33 181 33q25 0 68 -3q11 53 12.5 74.5t-7.5 36.5q-18 33 -80 33q-97 0 -119 -85h-94q20 62 55 95q61 54 174 54q59 0 105 -19t57 -55q10 -32 1 -77l-55 -240q-15 -68 -19 -126z
M435 244q-24 3 -53 3q-181 0 -203 -102q-7 -32 11 -59.5t74 -27.5q72 0 119 54q20 24 28.5 48.5t23.5 83.5zM298 740h113l54 -144h-62z" />
    <glyph glyph-name="aacute" unicode="&#xe1;" 
d="M479 0h-85q-2 32 7 75q-68 -91 -174 -91q-84 0 -122 41.5t-24 106.5q20 96 119 147q66 33 181 33q25 0 68 -3q11 53 12.5 74.5t-7.5 36.5q-18 33 -80 33q-97 0 -119 -85h-94q20 62 55 95q61 54 174 54q59 0 105 -19t57 -55q10 -32 1 -77l-55 -240q-15 -68 -19 -126z
M435 244q-24 3 -53 3q-181 0 -203 -102q-7 -32 11 -59.5t74 -27.5q72 0 119 54q20 24 28.5 48.5t23.5 83.5zM458 740h104l-151 -144h-65z" />
    <glyph glyph-name="acircumflex" unicode="&#xe2;" 
d="M479 0h-85q-2 32 7 75q-68 -91 -174 -91q-84 0 -122 41.5t-24 106.5q20 96 119 147q66 33 181 33q25 0 68 -3q11 53 12.5 74.5t-7.5 36.5q-18 33 -80 33q-97 0 -119 -85h-94q20 62 55 95q61 54 174 54q59 0 105 -19t57 -55q10 -32 1 -77l-55 -240q-15 -68 -19 -126z
M435 244q-24 3 -53 3q-181 0 -203 -102q-7 -32 11 -59.5t74 -27.5q72 0 119 54q20 24 28.5 48.5t23.5 83.5zM330 596h-77l137 145h90l73 -145h-86l-46 96z" />
    <glyph glyph-name="atilde" unicode="&#xe3;" 
d="M479 0h-85q-2 32 7 75q-68 -91 -174 -91q-84 0 -122 41.5t-24 106.5q20 96 119 147q66 33 181 33q25 0 68 -3q11 53 12.5 74.5t-7.5 36.5q-18 33 -80 33q-97 0 -119 -85h-94q20 62 55 95q61 54 174 54q59 0 105 -19t57 -55q10 -32 1 -77l-55 -240q-15 -68 -19 -126z
M435 244q-24 3 -53 3q-181 0 -203 -102q-7 -32 11 -59.5t74 -27.5q72 0 119 54q20 24 28.5 48.5t23.5 83.5zM309 612h-42q11 43 39 70q29 28 67 28q15 0 73 -17q25 -7 36 -7q37 0 45 37h41q-10 -52 -41.5 -76.5t-64.5 -24.5q-21 0 -60 13q-8 2 -19 5.5t-18 5.5t-10 2
q-27 0 -46 -36z" />
    <glyph glyph-name="adieresis" unicode="&#xe4;" 
d="M479 0h-85q-2 32 7 75q-68 -91 -174 -91q-84 0 -122 41.5t-24 106.5q20 96 119 147q66 33 181 33q25 0 68 -3q11 53 12.5 74.5t-7.5 36.5q-18 33 -80 33q-97 0 -119 -85h-94q20 62 55 95q61 54 174 54q59 0 105 -19t57 -55q10 -32 1 -77l-55 -240q-15 -68 -19 -126z
M435 244q-24 3 -53 3q-181 0 -203 -102q-7 -32 11 -59.5t74 -27.5q72 0 119 54q20 24 28.5 48.5t23.5 83.5zM267 617l22 102h92l-22 -102h-92zM456 617l22 102h93l-22 -102h-93z" />
    <glyph glyph-name="aring" unicode="&#xe5;" 
d="M479 0h-85q-2 32 7 75q-68 -91 -174 -91q-84 0 -122 41.5t-24 106.5q20 96 119 147q66 33 181 33q25 0 68 -3q11 53 12.5 74.5t-7.5 36.5q-18 33 -80 33q-97 0 -119 -85h-94q20 62 55 95q61 54 174 54q59 0 105 -19t57 -55q10 -32 1 -77l-55 -240q-15 -68 -19 -126z
M435 244q-24 3 -53 3q-181 0 -203 -102q-7 -32 11 -59.5t74 -27.5q72 0 119 54q20 24 28.5 48.5t23.5 83.5zM322 669q9 41 44 69.5t75 28.5t63 -28.5t14 -69.5t-44 -69.5t-75 -28.5t-63 28.5t-14 69.5zM362 669q-5 -24 8.5 -41t37.5 -17t44.5 17t25.5 41t-8 41t-37 17
t-45 -17t-26 -41z" />
    <glyph glyph-name="ae" unicode="&#xe6;" horiz-adv-x="889" 
d="M767 155h96q-18 -52 -48.5 -88t-66 -52.5t-63.5 -22.5t-55 -6q-17 0 -33 2.5t-47 12t-54 36t-30 67.5q-74 -117 -220 -117q-103 0 -141 47t-24 110q12 56 59.5 100t125.5 56q54 8 133 8q11 0 34 -0.5t32 -0.5q5 21 6.5 36t-0.5 36.5t-11 34.5t-31 23t-55 10
q-103 0 -125 -78h-93q24 76 83 110q60 35 144 35q146 0 157 -104q24 36 56 60t63.5 32.5t46.5 10.5t29 2q50 0 97 -24t63 -82q14 -51 -12 -172h-347q-14 -80 0 -116q11 -33 37.5 -50t60.5 -17q56 0 90 31.5t43 69.5zM553 304h248q10 49 3 77q-13 64 -88 64q-68 0 -119 -54
q-27 -29 -44 -87zM451 241q-97 0 -119 -1q-141 -10 -160 -98q-9 -45 20.5 -66.5t74.5 -21.5q79 0 133 64q33 39 51 123z" />
    <glyph glyph-name="ccedilla" unicode="&#xe7;" horiz-adv-x="500" 
d="M413 167h95q-19 -73 -79 -123.5t-146 -55.5l-42 -46q26 5 40 5q40 0 54.5 -22t9.5 -49q-2 -6 -4.5 -13t-12 -22t-23.5 -26t-41 -20t-61 -9q-49 0 -89 20l27 37q25 -14 64 -14q54 0 62 40q8 39 -43 39q-15 0 -37 -8l-12 17l66 71q-54 6 -89.5 29.5t-49.5 59.5t-15 76t9 87
q17 79 51 136t76 85.5t81 41t78 12.5q102 0 141 -62q28 -43 18 -112h-95q14 105 -77 105q-130 0 -170 -189q-43 -199 82 -199q55 0 88 32.5t44 76.5z" />
    <glyph glyph-name="egrave" unicode="&#xe8;" 
d="M556 234h-361q-20 -82 5.5 -131.5t99.5 -49.5q48 0 85.5 26t54.5 78h94q-22 -67 -65 -105q-73 -67 -187 -67q-116 0 -160 67.5t-19 189.5q18 81 51.5 139t98.5 97q59 37 144 37q54 0 91.5 -15t54.5 -39.5t25.5 -55t4.5 -62t-7 -60.5t-10 -49zM213 300h261q5 23 6 44
t-4.5 47t-29.5 41.5t-65 15.5q-54 0 -102.5 -36t-65.5 -112zM298 740h113l54 -144h-62z" />
    <glyph glyph-name="eacute" unicode="&#xe9;" 
d="M556 234h-361q-20 -82 5.5 -131.5t99.5 -49.5q48 0 85.5 26t54.5 78h94q-22 -67 -65 -105q-73 -67 -187 -67q-116 0 -160 67.5t-19 189.5q18 81 51.5 139t98.5 97q59 37 144 37q54 0 91.5 -15t54.5 -39.5t25.5 -55t4.5 -62t-7 -60.5t-10 -49zM213 300h261q5 23 6 44
t-4.5 47t-29.5 41.5t-65 15.5q-54 0 -102.5 -36t-65.5 -112zM458 740h104l-151 -144h-65z" />
    <glyph glyph-name="ecircumflex" unicode="&#xea;" 
d="M556 234h-361q-20 -82 5.5 -131.5t99.5 -49.5q48 0 85.5 26t54.5 78h94q-22 -67 -65 -105q-73 -67 -187 -67q-116 0 -160 67.5t-19 189.5q18 81 51.5 139t98.5 97q59 37 144 37q54 0 91.5 -15t54.5 -39.5t25.5 -55t4.5 -62t-7 -60.5t-10 -49zM213 300h261q5 23 6 44
t-4.5 47t-29.5 41.5t-65 15.5q-54 0 -102.5 -36t-65.5 -112zM330 596h-77l137 145h90l73 -145h-86l-46 96z" />
    <glyph glyph-name="edieresis" unicode="&#xeb;" 
d="M556 234h-361q-20 -82 5.5 -131.5t99.5 -49.5q48 0 85.5 26t54.5 78h94q-22 -67 -65 -105q-73 -67 -187 -67q-116 0 -160 67.5t-19 189.5q18 81 51.5 139t98.5 97q59 37 144 37q54 0 91.5 -15t54.5 -39.5t25.5 -55t4.5 -62t-7 -60.5t-10 -49zM213 300h261q5 23 6 44
t-4.5 47t-29.5 41.5t-65 15.5q-54 0 -102.5 -36t-65.5 -112zM267 617l22 102h92l-22 -102h-92zM456 617l22 102h93l-22 -102h-93z" />
    <glyph glyph-name="igrave" unicode="&#xec;" horiz-adv-x="278" 
d="M93 0l107 502h90l-107 -502h-90zM159 740h113l54 -144h-62z" />
    <glyph glyph-name="iacute" unicode="&#xed;" horiz-adv-x="278" 
d="M93 0l107 502h90l-107 -502h-90zM319 740h104l-151 -144h-65z" />
    <glyph glyph-name="icircumflex" unicode="&#xee;" horiz-adv-x="278" 
d="M93 0l107 502h90l-107 -502h-90zM191 596h-77l137 145h90l73 -145h-86l-46 96z" />
    <glyph glyph-name="idieresis" unicode="&#xef;" horiz-adv-x="278" 
d="M93 0l107 502h90l-107 -502h-90zM128 617l22 102h92l-22 -102h-92zM317 617l22 102h93l-22 -102h-93z" />
    <glyph glyph-name="eth" unicode="&#xf0;" horiz-adv-x="611" 
d="M251 598l97 52q-47 34 -73 49l74 59q30 -17 88 -61l111 58l29 -36l-101 -52q28 -26 45.5 -43.5t45 -57t40.5 -77.5t17.5 -96t-8.5 -122q-28 -132 -112 -210t-206 -78q-110 0 -164.5 67t-27.5 194q15 69 47.5 121.5t73.5 82t84 44t85 14.5t73 -14t41 -26t21 -31
q-32 93 -143 185l-108 -57zM318 54q26 0 53 9.5t54.5 30.5t51 61.5t34.5 95.5q20 91 -9 141.5t-98 50.5q-70 0 -123 -50t-73 -144q-18 -84 9 -139.5t101 -55.5z" />
    <glyph glyph-name="ntilde" unicode="&#xf1;" horiz-adv-x="611" 
d="M91 0l94 444l12 58h94l-17 -81q68 91 181 91q17 0 36 -2.5t44 -13.5t42 -28t25 -50t-2 -77l-72 -341h-96l68 319q12 59 -9 86q-28 34 -82 34q-55 0 -101 -39t-62 -111l-61 -289h-94zM337 612h-42q11 43 39 70q29 28 67 28q15 0 73 -17q25 -7 36 -7q37 0 45 37h41
q-10 -52 -41.5 -76.5t-64.5 -24.5q-21 0 -60 13q-8 2 -19 5.5t-18 5.5t-10 2q-27 0 -46 -36z" />
    <glyph glyph-name="ograve" unicode="&#xf2;" horiz-adv-x="611" 
d="M103 245q11 50 33 95t58.5 86t93.5 65t127 24q58 0 99 -17.5t62 -44.5t30 -63.5t8 -69.5t-8 -68q-25 -117 -107 -193t-205 -76q-120 0 -168 73t-23 189zM202 251q-18 -84 8 -141t101 -57q62 0 117.5 49t77.5 153q20 92 -9 141.5t-96 49.5q-25 0 -52 -9t-57 -29t-54 -60.5
t-36 -96.5zM326 740h113l54 -144h-62z" />
    <glyph glyph-name="oacute" unicode="&#xf3;" horiz-adv-x="611" 
d="M103 245q11 50 33 95t58.5 86t93.5 65t127 24q58 0 99 -17.5t62 -44.5t30 -63.5t8 -69.5t-8 -68q-25 -117 -107 -193t-205 -76q-120 0 -168 73t-23 189zM202 251q-18 -84 8 -141t101 -57q62 0 117.5 49t77.5 153q20 92 -9 141.5t-96 49.5q-25 0 -52 -9t-57 -29t-54 -60.5
t-36 -96.5zM486 740h104l-151 -144h-65z" />
    <glyph glyph-name="ocircumflex" unicode="&#xf4;" horiz-adv-x="611" 
d="M103 245q11 50 33 95t58.5 86t93.5 65t127 24q58 0 99 -17.5t62 -44.5t30 -63.5t8 -69.5t-8 -68q-25 -117 -107 -193t-205 -76q-120 0 -168 73t-23 189zM202 251q-18 -84 8 -141t101 -57q62 0 117.5 49t77.5 153q20 92 -9 141.5t-96 49.5q-25 0 -52 -9t-57 -29t-54 -60.5
t-36 -96.5zM358 596h-77l137 145h90l73 -145h-86l-46 96z" />
    <glyph glyph-name="otilde" unicode="&#xf5;" horiz-adv-x="611" 
d="M103 245q11 50 33 95t58.5 86t93.5 65t127 24q58 0 99 -17.5t62 -44.5t30 -63.5t8 -69.5t-8 -68q-25 -117 -107 -193t-205 -76q-120 0 -168 73t-23 189zM202 251q-18 -84 8 -141t101 -57q62 0 117.5 49t77.5 153q20 92 -9 141.5t-96 49.5q-25 0 -52 -9t-57 -29t-54 -60.5
t-36 -96.5zM337 612h-42q11 43 39 70q29 28 67 28q15 0 73 -17q25 -7 36 -7q37 0 45 37h41q-10 -52 -41.5 -76.5t-64.5 -24.5q-21 0 -60 13q-8 2 -19 5.5t-18 5.5t-10 2q-27 0 -46 -36z" />
    <glyph glyph-name="odieresis" unicode="&#xf6;" horiz-adv-x="611" 
d="M103 245q11 50 33 95t58.5 86t93.5 65t127 24q58 0 99 -17.5t62 -44.5t30 -63.5t8 -69.5t-8 -68q-25 -117 -107 -193t-205 -76q-120 0 -168 73t-23 189zM202 251q-18 -84 8 -141t101 -57q62 0 117.5 49t77.5 153q20 92 -9 141.5t-96 49.5q-25 0 -52 -9t-57 -29t-54 -60.5
t-36 -96.5zM295 617l22 102h92l-22 -102h-92zM484 617l22 102h93l-22 -102h-93z" />
    <glyph glyph-name="divide" unicode="&#xf7;" horiz-adv-x="584" 
d="M82 212l17 78h510l-17 -78h-510zM244 10l25 119h100l-25 -119h-100zM321 373l26 119h100l-26 -119h-100z" />
    <glyph glyph-name="oslash" unicode="&#xf8;" horiz-adv-x="611" 
d="M604 597h60l-105 -129q77 -72 46 -217q-24 -116 -106.5 -192t-204.5 -76q-67 0 -108 22l-88 -109h-59l109 135q-74 76 -44 217q24 116 104.5 191.5t199.5 75.5q61 0 113 -21zM210 109l258 319q-32 18 -70 18q-76 0 -127.5 -57.5t-67.5 -136.5q-19 -89 7 -143zM499 393
l-258 -320q32 -20 70 -20q64 0 119 50.5t75 146.5q20 92 -6 143z" />
    <glyph glyph-name="ugrave" unicode="&#xf9;" horiz-adv-x="611" 
d="M185 502h96l-69 -323q-5 -22 -5 -38.5t6.5 -34.5t27 -28t54.5 -10q80 0 130 56q28 30 41 94l61 284h97l-87 -408q-2 -10 -17 -94h-98l16 86q-17 -24 -34 -40.5t-56 -33.5t-89 -17q-90 0 -126 46.5t-20 123.5zM326 740h113l54 -144h-62z" />
    <glyph glyph-name="uacute" unicode="&#xfa;" horiz-adv-x="611" 
d="M185 502h96l-69 -323q-5 -22 -5 -38.5t6.5 -34.5t27 -28t54.5 -10q80 0 130 56q28 30 41 94l61 284h97l-87 -408q-2 -10 -17 -94h-98l16 86q-17 -24 -34 -40.5t-56 -33.5t-89 -17q-90 0 -126 46.5t-20 123.5zM486 740h104l-151 -144h-65z" />
    <glyph glyph-name="ucircumflex" unicode="&#xfb;" horiz-adv-x="611" 
d="M185 502h96l-69 -323q-5 -22 -5 -38.5t6.5 -34.5t27 -28t54.5 -10q80 0 130 56q28 30 41 94l61 284h97l-87 -408q-2 -10 -17 -94h-98l16 86q-17 -24 -34 -40.5t-56 -33.5t-89 -17q-90 0 -126 46.5t-20 123.5zM358 596h-77l137 145h90l73 -145h-86l-46 96z" />
    <glyph glyph-name="udieresis" unicode="&#xfc;" horiz-adv-x="611" 
d="M185 502h96l-69 -323q-5 -22 -5 -38.5t6.5 -34.5t27 -28t54.5 -10q80 0 130 56q28 30 41 94l61 284h97l-87 -408q-2 -10 -17 -94h-98l16 86q-17 -24 -34 -40.5t-56 -33.5t-89 -17q-90 0 -126 46.5t-20 123.5zM295 617l22 102h92l-22 -102h-92zM484 617l22 102h93
l-22 -102h-93z" />
    <glyph glyph-name="yacute" unicode="&#xfd;" 
d="M644 502l-331 -505l-111 -187h-97l116 192l-102 500h106l73 -396l244 396h102zM458 740h104l-151 -144h-65z" />
    <glyph glyph-name="thorn" unicode="&#xfe;" horiz-adv-x="611" 
d="M44 -193l194 914h94l-64 -302q42 52 94 71.5t96 19.5q89 0 136.5 -64.5t19.5 -195.5q-28 -132 -108 -200.5t-178 -68.5q-108 0 -138 75l-53 -249h-93zM225 236q-39 -186 102 -186q70 0 116 49q53 56 74 157q40 184 -98 184q-150 0 -194 -204z" />
    <glyph glyph-name="ydieresis" unicode="&#xff;" 
d="M644 502l-331 -505l-111 -187h-97l116 192l-102 500h106l73 -396l244 396h102zM267 617l22 102h92l-22 -102h-92zM456 617l22 102h93l-22 -102h-93z" />
    <glyph glyph-name="dotlessi" unicode="&#x131;" horiz-adv-x="278" 
d="M93 0l107 502h90l-107 -502h-90z" />
    <glyph glyph-name="OE" unicode="&#x152;" horiz-adv-x="1000" 
d="M965 86l-18 -86h-579q-137 0 -210.5 94t-36.5 270q47 218 218 314q83 47 208 47q2 0 18.5 -0.5t27.5 -0.5q37 -2 44 -2h460l-17 -83h-340l-48 -227h324l-18 -83h-324l-52 -243h343zM521 85l118 556q-84 5 -109 5q-114 0 -190 -68q-85 -74 -114 -213q-28 -131 16 -208
q43 -74 185 -74q45 0 94 2z" />
    <glyph glyph-name="oe" unicode="&#x153;" horiz-adv-x="944" 
d="M828 155h92q-17 -51 -47.5 -87t-66.5 -53t-65.5 -24t-57.5 -7q-80 0 -128 47q-26 26 -38 73q-31 -44 -60 -66q-69 -53 -161 -53q-65 0 -110 24t-64 63.5t-23 83.5t5 90q24 111 108 188t201 77q47 0 80 -13t50 -36.5t23.5 -38t11.5 -35.5q23 42 56 70t67.5 39t54.5 14
t39 3q84 0 126 -45t41 -110q1 -50 -17 -125h-350q-17 -77 -2 -116q11 -30 38.5 -47t61.5 -17q46 0 83 28t52 73zM612 303h249q13 57 3 88q-16 56 -87 56t-120 -54q-29 -33 -45 -90zM208 254q-20 -96 10 -152q27 -49 98 -49q41 0 75 18t56.5 48.5t36.5 62.5t22 67
q17 81 -6.5 137t-99.5 56q-42 0 -77 -17.5t-57.5 -46.5t-36.5 -59.5t-21 -64.5z" />
    <glyph glyph-name="Scaron" unicode="&#x160;" horiz-adv-x="667" 
d="M101 211h104q-3 -17 -4 -28.5t0 -30.5t10 -31.5t24 -26t44 -20t69 -6.5q52 0 92.5 14.5t60.5 37.5t30 41t14 36q5 24 0.5 42t-13.5 28.5t-32.5 21t-40.5 15.5t-54 15q-90 23 -125 35t-58 29q-64 51 -44 142q14 70 66.5 119.5t116.5 70.5t136 21q138 0 188 -71
q30 -42 18 -123h-104q18 110 -128 110q-75 0 -124.5 -31.5t-60.5 -85.5q-10 -46 15 -68t92 -39q130 -35 160.5 -45.5t56.5 -30.5q62 -47 41 -144q-21 -99 -109.5 -162t-223.5 -63q-160 0 -206 82q-31 54 -11 146zM452 786l-74 143h86l47 -96l89 96h79l-134 -143h-93z" />
    <glyph glyph-name="scaron" unicode="&#x161;" horiz-adv-x="500" 
d="M75 149h99q-9 -36 10 -63.5t80 -27.5q62 0 95 32q21 21 26 47q7 34 -13 47t-81 28q-39 9 -58 15t-46.5 18t-39 26t-17.5 37.5t0 53.5q15 69 78 110.5t150 41.5q57 0 105 -18.5t60 -59.5q7 -28 -3 -73h-96q7 27 1 44.5t-21.5 25t-28.5 10t-30 2.5q-12 0 -23.5 -1.5
t-33.5 -7t-38.5 -22t-22.5 -41.5q-4 -21 7 -35.5t21.5 -19t29.5 -9.5q104 -26 135 -37.5t49 -31.5q31 -35 18 -93q-8 -40 -35 -74.5t-60 -52.5q-62 -34 -156 -34q-85 0 -132.5 39t-28.5 124zM328 596l-74 143h86l47 -96l89 96h79l-134 -143h-93z" />
    <glyph glyph-name="Ydieresis" unicode="&#x178;" horiz-adv-x="667" 
d="M289 0l60 284l-189 438h124l138 -354l291 354h112l-376 -443l-59 -279h-101zM361 797l22 102h92l-22 -102h-92zM550 797l22 102h93l-22 -102h-93z" />
    <glyph glyph-name="Zcaron" unicode="&#x17d;" horiz-adv-x="611" 
d="M35 0l21 100l531 534h-406l18 88h525l-21 -99l-534 -535h428l-19 -88h-543zM424 786l-74 143h86l47 -96l89 96h79l-134 -143h-93z" />
    <glyph glyph-name="zcaron" unicode="&#x17e;" horiz-adv-x="444" 
d="M30 0l21 97l339 334h-254l15 71h361l-17 -80l-351 -349h277l-16 -73h-375zM300 596l-74 143h86l47 -96l89 96h79l-134 -143h-93z" />
    <glyph glyph-name="florin" unicode="&#x192;" 
d="M226 417h91l46 110q37 89 77 119q51 38 122 38q21 0 53 -6l-26 -70q-26 3 -34 3q-71 0 -105 -86l-46 -108h105l-29 -67h-103l-130 -325q-16 -40 -24.5 -60.5t-23 -49.5t-26.5 -43t-31 -31.5t-39.5 -24t-48 -11t-62.5 -2.5l27 72q10 -2 16 -2q40 0 63 29q15 18 69 147
l122 301h-90z" />
    <glyph glyph-name="circumflex" unicode="&#x2c6;" horiz-adv-x="278" 
d="M191 596h-77l137 145h90l73 -145h-86l-46 96z" />
    <glyph glyph-name="caron" unicode="&#x2c7;" horiz-adv-x="278" 
d="M217 596l-74 143h86l47 -96l89 96h79l-134 -143h-93z" />
    <glyph glyph-name="ring" unicode="&#x2da;" horiz-adv-x="278" 
d="M183 669q9 41 43.5 69.5t75.5 28.5t63.5 -28.5t13.5 -69.5t-43.5 -69.5t-75.5 -28.5t-63.5 28.5t-13.5 69.5zM223 669q-5 -24 8.5 -41t37.5 -17t44.5 17t25.5 41t-8 41t-37 17t-45 -17t-26 -41z" />
    <glyph glyph-name="tilde" unicode="&#x2dc;" horiz-adv-x="278" 
d="M170 612h-42q11 43 39 70q29 28 67 28q15 0 73 -17q25 -7 36 -7q37 0 45 37h41q-10 -52 -41.5 -76.5t-64.5 -24.5q-21 0 -60 13q-8 2 -19 5.5t-18 5.5t-10 2q-27 0 -46 -36z" />
    <glyph glyph-name="endash" unicode="&#x2013;" horiz-adv-x="500" 
d="M49 231l15 72h500l-15 -72h-500z" />
    <glyph glyph-name="emdash" unicode="&#x2014;" horiz-adv-x="1000" 
d="M179 231l15 72h740l-15 -72h-740z" />
    <glyph glyph-name="quoteleft" unicode="&#x2018;" horiz-adv-x="278" 
d="M262 476h-115l167 246h67z" />
    <glyph glyph-name="quoteright" unicode="&#x2019;" horiz-adv-x="278" 
d="M265 722h115l-164 -246h-68z" />
    <glyph glyph-name="quotesinglbase" unicode="&#x201a;" horiz-adv-x="278" 
d="M132 100h115l-160 -235h-67z" />
    <glyph glyph-name="quotedblleft" unicode="&#x201c;" 
d="M303 476h-115l167 246h67zM490 476h-115l167 246h67z" />
    <glyph glyph-name="quotedblright" unicode="&#x201d;" 
d="M317 722h115l-167 -246h-67zM505 722h114l-166 -246h-67z" />
    <glyph glyph-name="quotedblbase" unicode="&#x201e;" 
d="M185 100h115l-160 -235h-67zM372 100h114l-160 -235h-67z" />
    <glyph glyph-name="dagger" unicode="&#x2020;" 
d="M598 553l-16 -74h-167l-102 -479h-79l102 479h-170l16 74h170l35 169h79l-35 -169h167z" />
    <glyph glyph-name="daggerdbl" unicode="&#x2021;" 
d="M353 556l35 166h80l-35 -166h170l-16 -75h-170l-50 -238h170l-16 -74h-170l-36 -169h-80l36 169h-170l16 74h170l50 238h-170l16 75h170z" />
    <glyph glyph-name="bullet" unicode="&#x2022;" horiz-adv-x="350" 
d="M293 542q74 0 116 -53t26 -128q-16 -74 -80 -127t-139 -53t-116.5 53t-25.5 127q16 75 80 128t139 53z" />
    <glyph glyph-name="ellipsis" unicode="&#x2026;" horiz-adv-x="1000" 
d="M126 0l26 120h111l-26 -120h-111zM445 0l26 120h111l-26 -120h-111zM764 0l26 120h111l-26 -120h-111z" />
    <glyph glyph-name="perthousand" unicode="&#x2030;" horiz-adv-x="1000" 
d="M417 545q-16 -76 -61.5 -125.5t-124.5 -49.5q-72 0 -98.5 43.5t-9.5 120.5q2 14 5.5 25t12 34.5t22 41.5t32.5 37t48 29.5t64 10.5q73 0 99.5 -44.5t10.5 -122.5zM246 427q72 0 97 117q23 112 -48 112q-74 0 -99 -118q-23 -111 50 -111zM673 163q-17 -76 -62.5 -125.5
t-124.5 -49.5q-72 0 -98 43.5t-10 120.5q3 13 6.5 24t12 35t22 42t32.5 37t48 29.5t64 10.5q73 0 99.5 -45t10.5 -122zM502 45q72 0 96 117q24 112 -48 112q-74 0 -99 -118q-23 -111 51 -111zM1020 163q-17 -76 -62.5 -125.5t-124.5 -49.5q-72 0 -98 43.5t-10 120.5
q3 13 6.5 24t12 35t22 42t32.5 37t48 29.5t64 10.5q73 0 99.5 -44.5t10.5 -122.5zM849 45q72 0 96 117q24 112 -47 112q-74 0 -99 -118q-23 -111 50 -111zM674 731h63l-635 -768h-62z" />
    <glyph glyph-name="guilsinglleft" unicode="&#x2039;" horiz-adv-x="278" 
d="M251 53h-80l-69 196l152 194h78l-138 -194z" />
    <glyph glyph-name="guilsinglright" unicode="&#x203a;" horiz-adv-x="278" 
d="M123 443h80l70 -195l-153 -195h-79l139 195z" />
    <glyph glyph-name="Euro" unicode="&#x20ac;" 
d="M55 234l34 67h50q4 30 7 44q1 4 4 12.5t4 12.5h-70l34 67h57q43 119 126.5 191.5t186.5 72.5q88 0 136.5 -52.5t29.5 -150.5h-90q8 42 -1.5 70t-30 39t-34 14.5t-26.5 3.5q-60 0 -115 -52.5t-88 -135.5h231l-34 -67h-218q-1 -4 -3 -11t-3 -10q-3 -16 -8 -48h205l-34 -67
h-178q-2 -78 26 -124.5t93 -46.5q55 0 96.5 32t54.5 88h91l-1 -3q-5 -26 -21 -55.5t-44.5 -62t-78 -54t-111.5 -21.5q-108 0 -157 65t-42 182h-78z" />
    <glyph glyph-name="trademark" unicode="&#x2122;" horiz-adv-x="1000" 
d="M486 361l76 361h83l34 -297l162 297h78l-76 -361h-46l69 324l-181 -324h-45l-39 324l-69 -324h-46zM316 361h-44l67 318h-102l9 43h251l-9 -43h-105z" />
    </font>
</defs>
</svg>
