<?xml version="1.0" standalone="no"?>
<!DOCTYPE svg PUBLIC "-//W3C//DTD SVG 1.1//EN" "http://www.w3.org/Graphics/SVG/1.1/DTD/svg11.dtd" >
<svg xmlns="http://www.w3.org/2000/svg" xmlns:xlink="http://www.w3.org/1999/xlink" version="1.1">
<metadata>
Created by FontForge 20170731 at Tue Oct 22 06:45:23 2019
 By Aleksey,,,
Copyright (c) 2002, Adobe
</metadata>
<defs>
<font id="UniversLT-75BlkObl" horiz-adv-x="667" >
  <font-face 
    font-family="Univers LT Black"
    font-weight="900"
    font-stretch="normal"
    units-per-em="1000"
    panose-1="2 0 10 3 0 0 0 0 0 0"
    ascent="800"
    descent="-200"
    x-height="501"
    cap-height="722"
    bbox="-44 -250 1145 986"
    underline-thickness="50"
    underline-position="-150"
    unicode-range="U+000D-2122"
  />
<missing-glyph horiz-adv-x="500" 
d="M0 0v700h500v-700h-500zM250 395l170 255h-340zM280 350l170 -255v510zM80 50h340l-170 255zM50 605v-510l170 255z" />
    <glyph glyph-name=".notdef" horiz-adv-x="500" 
d="M0 0v700h500v-700h-500zM250 395l170 255h-340zM280 350l170 -255v510zM80 50h340l-170 255zM50 605v-510l170 255z" />
    <glyph glyph-name="glyph1" horiz-adv-x="0" 
 />
    <glyph glyph-name="glyph1" horiz-adv-x="0" 
 />
    <glyph glyph-name="uni000D" unicode="&#xd;" horiz-adv-x="1000" 
 />
    <glyph glyph-name="space" unicode=" " horiz-adv-x="333" 
 />
    <glyph glyph-name="exclam" unicode="!" horiz-adv-x="444" 
d="M264 722h216l-142 -507h-144zM133 0l32 149h176l-32 -149h-176z" />
    <glyph glyph-name="quotedbl" unicode="&#x22;" horiz-adv-x="500" 
d="M299 427h-99l27 266h157zM496 427h-98l27 266h156z" />
    <glyph glyph-name="numbersign" unicode="#" 
d="M362 693h139l-69 -174h89l69 174h139l-69 -174h81l-25 -119h-103l-45 -115h80l-26 -119h-102l-66 -166h-139l65 166h-89l-65 -166h-140l66 166h-81l26 119h103l46 115h-81l25 119h103zM339 285h89l46 115h-89z" />
    <glyph glyph-name="dollar" unicode="$" 
d="M86 207h180q-2 -15 -2.5 -26t3 -26.5t16.5 -27t35 -17.5l33 153l-59 17q-28 8 -43.5 13.5t-41 20t-38.5 32t-19.5 48.5t2.5 70q7 37 28 70.5t54.5 63t86 47.5t115.5 20l19 90h59l-19 -90q72 -3 116.5 -20t63 -46.5t21 -62t-6.5 -76.5h-182q5 24 3 42t-10.5 26.5t-15 12
t-14.5 4.5l-31 -143q86 -20 123.5 -33.5t64.5 -40.5q47 -49 30 -132q-4 -19 -12.5 -39t-25 -46t-46.5 -50.5t-70 -42.5q-56 -25 -152 -31l-19 -89h-59l19 89q-35 1 -64 6.5t-62 20.5t-53 37.5t-29 63t2 92.5zM384 418l27 128q-60 -15 -71 -64q-4 -23 8 -40.5t36 -23.5z
M407 250l-30 -142q38 6 61 26t28 47q11 51 -44 64z" />
    <glyph glyph-name="percent" unicode="%" horiz-adv-x="1000" 
d="M181 536q43 202 216 202q83 0 117 -49q34 -51 13 -150t-69 -148q-61 -63 -149 -63q-79 0 -115 50q-36 51 -13 158zM304 523q-7 -35 -8 -58t5 -32t12 -12t15 -3q26 0 41 25t29 90q16 74 10 96.5t-29 22.5q-15 0 -25.5 -7t-24 -36.5t-25.5 -85.5zM661 208q43 203 216 203
q83 0 117 -50t13 -150q-21 -97 -69 -148q-61 -63 -149 -63q-78 0 -114 50q-36 52 -14 158zM785 196q-10 -46 -7.5 -71t9.5 -30t20 -5q26 0 42 25.5t30 90.5q15 73 9 95.5t-29 22.5q-15 0 -25.5 -6.5t-23.5 -36t-25 -85.5zM808 750h107l-537 -762h-111z" />
    <glyph glyph-name="ampersand" unicode="&#x26;" horiz-adv-x="889" 
d="M752 398h173q-19 -72 -53.5 -127.5t-105.5 -115.5l113 -155h-243l-33 47q-36 -18 -60.5 -28.5t-79.5 -21.5t-119 -11q-189 0 -241 91q-31 56 -17 121q9 43 32.5 77t60 57.5t59 34.5t59.5 25q-16 17 -24 28t-22.5 34.5t-18.5 51.5t2 58q19 88 105 132t203 44q28 0 54 -2.5
t64.5 -13t63.5 -28t39 -52.5t4 -82q-7 -36 -24.5 -65.5t-46.5 -54.5t-49 -38t-57 -35l82 -102q62 61 80 131zM484 476q15 7 32.5 18t39.5 33t26 44q6 27 -12 43t-50 16t-57 -16.5t-31 -42.5q-2 -11 -1 -19.5t13.5 -28.5t39.5 -47zM511 153l-106 132q-99 -41 -110 -92
q-7 -32 17 -58t80 -26q72 0 119 44z" />
    <glyph glyph-name="quotesingle" unicode="'" horiz-adv-x="333" 
d="M307 427h-99l27 266h157z" />
    <glyph glyph-name="parenleft" unicode="(" horiz-adv-x="333" 
d="M326 753h130q-93 -184 -127.5 -266.5t-53.5 -169.5q-19 -92 -21.5 -187t17.5 -252h-132q-17 73 -27 123.5t-13 140.5t14 170q16 73 56.5 162t72 142.5t84.5 136.5z" />
    <glyph glyph-name="parenright" unicode=")" horiz-adv-x="333" 
d="M141 -122h-130q93 183 127.5 266.5t53.5 170.5q20 92 22 186.5t-18 251.5h132q18 -71 27.5 -122t12.5 -141t-14 -170q-15 -73 -56 -162.5t-72 -142t-85 -137.5z" />
    <glyph glyph-name="asterisk" unicode="*" horiz-adv-x="556" 
d="M402 597l71 138l95 -68l-115 -102l143 30l-27 -129l-127 31l71 -110l-127 -61l-14 135l-73 -136l-94 63l117 109l-144 -29l27 127l133 -30l-72 105l121 64z" />
    <glyph glyph-name="plus" unicode="+" horiz-adv-x="660" 
d="M259 0l42 199h-198l30 140h198l42 199h143l-42 -199h197l-30 -140h-197l-42 -199h-143z" />
    <glyph glyph-name="comma" unicode="," horiz-adv-x="333" 
d="M121 149h188l-175 -268h-136z" />
    <glyph glyph-name="hyphen" unicode="-" horiz-adv-x="333" 
d="M91 323h284l-26 -119h-284z" />
    <glyph glyph-name="period" unicode="." horiz-adv-x="333" 
d="M72 0l32 149h176l-32 -149h-176z" />
    <glyph glyph-name="slash" unicode="/" horiz-adv-x="278" 
d="M92 -16h-126l378 743h125z" />
    <glyph glyph-name="zero" unicode="0" 
d="M104 350q38 175 142 274q92 89 232 89q150 0 201 -90q62 -98 25 -272q-35 -163 -128.5 -264t-249.5 -101q-139 0 -194 84q-66 100 -28 280zM300 347q-26 -119 -16 -174t69 -55q53 0 86 41q41 54 69 184q22 105 18 167q-5 71 -72 71q-24 0 -42 -7.5t-38.5 -30t-39 -71.5
t-34.5 -125z" />
    <glyph glyph-name="one" unicode="1" 
d="M277 0l109 515q-41 -29 -96.5 -53t-90.5 -33l33 154q67 20 114 42.5t110 68.5h162l-148 -694h-193z" />
    <glyph glyph-name="two" unicode="2" 
d="M35 0l31 144q169 108 263 174t139 115q34 40 42 79q9 41 -11.5 55.5t-48.5 14.5q-26 0 -45.5 -9t-30.5 -25.5t-15.5 -25t-8.5 -21.5h-195q16 74 79 134q83 80 254 80q161 0 209 -85q27 -47 13 -112q-9 -42 -35 -83t-55.5 -72t-90 -74.5t-101.5 -70.5t-127 -80h330
l-29 -138h-567z" />
    <glyph glyph-name="three" unicode="3" 
d="M68 200h194q-14 -84 83 -84q58 0 88.5 27t38.5 65q19 89 -127 89q-29 0 -55 -2l26 124q66 -3 106 3q31 4 53 17t32 29.5t14 25t5 16.5q8 36 -13.5 57t-63.5 21q-85 0 -106 -80h-193q26 104 116.5 156t216.5 52q131 0 193 -51.5t45 -132.5q-14 -64 -69 -111t-127 -54
l-1 -5q171 -19 139 -169q-20 -94 -104 -147q-93 -59 -240 -59q-168 0 -227 80q-37 50 -24 133z" />
    <glyph glyph-name="four" unicode="4" 
d="M352 0l29 138h-335l35 163l377 396h222l-92 -432h112l-27 -127h-112l-29 -138h-180zM202 265h209l61 285z" />
    <glyph glyph-name="five" unicode="5" 
d="M91 198h191q-7 -38 12.5 -58.5t56.5 -20.5q55 0 90 45q21 30 30 73q10 47 -5 77.5t-62 30.5q-34 0 -58 -18t-34 -43l-191 2l100 407h500l-29 -136h-326l-48 -170q37 44 86 65q46 21 98 21q86 0 138.5 -56.5t27.5 -172.5q-26 -123 -117 -193q-85 -66 -218 -66
q-165 0 -220 79q-37 51 -22 134z" />
    <glyph glyph-name="six" unicode="6" 
d="M707 522h-183q5 42 -21 61q-17 12 -43 12q-68 0 -115 -79q-25 -40 -45 -135q77 87 196 87q104 0 154 -62t28 -165q-14 -69 -51.5 -120.5t-87 -79.5t-100 -41.5t-100.5 -13.5q-165 0 -215 112q-45 98 -13 250q15 72 44 134t74 115.5t114.5 84.5t154.5 31q32 0 60.5 -4
t60.5 -16.5t53.5 -32.5t32 -55.5t2.5 -82.5zM500 232q4 15 4 30t-4.5 37t-25 36t-55.5 14q-52 0 -88.5 -32.5t-47.5 -87.5q-13 -60 12 -87t70 -27q52 0 88 32t47 85z" />
    <glyph glyph-name="seven" unicode="7" 
d="M163 550l30 141h551l-30 -140l-378 -551h-223l404 550h-354z" />
    <glyph glyph-name="eight" unicode="8" 
d="M292 365v3q-66 7 -101.5 48t-20.5 110q18 87 98 135q84 51 216 51q171 0 218 -89q23 -40 11 -94q-11 -53 -56.5 -100t-128.5 -62l-1 -5q82 -9 118.5 -54t21.5 -115q-20 -93 -103 -150t-229 -57q-161 0 -221.5 58t-42.5 144q14 67 69.5 114.5t151.5 62.5zM421 426
q31 0 53.5 10.5t34.5 26.5t16.5 27t7.5 21q6 32 -10.5 58.5t-66.5 26.5q-40 0 -71.5 -21.5t-40.5 -62.5q-8 -38 10 -62t67 -24zM353 111q62 0 95 29t41 67q9 42 -14.5 70.5t-82.5 28.5q-58 0 -91.5 -29.5t-42.5 -68.5q-7 -36 12 -66.5t83 -30.5z" />
    <glyph glyph-name="nine" unicode="9" 
d="M74 178h184q-6 -30 15 -49.5t62 -19.5q31 0 55.5 10.5t41 27.5t29.5 46t21.5 57.5t18.5 70.5q-77 -71 -177 -71q-114 0 -163 63q-50 65 -29 160q22 107 116 174t224 67q198 0 231 -159q19 -90 -7 -210q-35 -167 -130 -262q-99 -99 -262 -99q-153 0 -212 78
q-29 40 -18 116zM395 369q54 0 88.5 29.5t44.5 78.5q10 43 -8.5 76.5t-75.5 33.5q-53 0 -87 -30t-44 -78q-10 -45 8.5 -77.5t73.5 -32.5z" />
    <glyph glyph-name="colon" unicode=":" horiz-adv-x="333" 
d="M79 0l32 149h176l-32 -149h-176zM154 352l31 149h176l-31 -149h-176z" />
    <glyph glyph-name="semicolon" unicode=";" horiz-adv-x="333" 
d="M154 352l31 149h174l-31 -149h-174zM121 149h188l-175 -268h-136z" />
    <glyph glyph-name="less" unicode="&#x3c;" horiz-adv-x="660" 
d="M103 196l31 146l582 209l-32 -150l-399 -132l343 -131l-32 -152z" />
    <glyph glyph-name="equal" unicode="=" horiz-adv-x="660" 
d="M128 317l30 141h538l-30 -141h-538zM78 80l30 141h538l-30 -141h-538z" />
    <glyph glyph-name="greater" unicode="&#x3e;" horiz-adv-x="660" 
d="M641 196l-582 -210l32 152l398 131l-342 132l32 150l493 -209z" />
    <glyph glyph-name="question" unicode="?" horiz-adv-x="556" 
d="M200 595l28 130q85 15 163 15q51 0 94 -7.5t84.5 -27t59.5 -60t5 -98.5q-4 -19 -7 -29.5t-14.5 -30.5t-29.5 -37t-51.5 -42.5t-80.5 -54.5q-33 -21 -50.5 -39t-22 -30t-9.5 -37l-12 -54h-157l20 96q4 20 12.5 32.5t40.5 39.5l94 80q19 16 28 25t18.5 23.5t13.5 31.5
q8 41 -19.5 66t-93.5 25q-55 0 -114 -17zM148 0l32 149h176l-32 -149h-176z" />
    <glyph glyph-name="at" unicode="@" horiz-adv-x="740" 
d="M707 144l26 -49q-93 -59 -173 -85.5t-165 -26.5q-120 0 -200.5 53.5t-108.5 137t-8 181.5q35 163 177 275.5t316 112.5q147 0 229.5 -83.5t53.5 -221.5q-22 -106 -101 -184.5t-172 -78.5q-30 0 -54.5 18t-18.5 62q-65 -86 -153 -86q-62 0 -92.5 42.5t-14.5 116.5
q20 94 97 169.5t162 75.5q35 0 61 -16t33 -46l21 45h109l-102 -203q-29 -61 -30 -68q-5 -22 5.5 -30t23.5 -8q38 0 88.5 57.5t67.5 138.5q24 114 -43 176t-182 62q-150 0 -265 -95.5t-144 -233.5q-28 -129 42 -218t222 -89q145 0 293 99zM554 449q5 22 -6 33.5t-28 11.5
q-45 0 -89.5 -62t-56.5 -116q-7 -36 3.5 -52t30.5 -16q35 0 69 47q15 22 43.5 75t33.5 79z" />
    <glyph glyph-name="A" unicode="A" horiz-adv-x="833" 
d="M8 0l438 722h244l132 -722h-226l-19 145h-289l-80 -145h-200zM363 278h196l-29 303h-3z" />
    <glyph glyph-name="B" unicode="B" horiz-adv-x="722" 
d="M61 0l153 722h289q61 0 94 -2t76 -15.5t68 -41.5q44 -50 29 -124q-8 -36 -28 -65.5t-39 -45t-48.5 -28.5t-41.5 -16.5t-32 -8.5l-1 -2q20 -4 34.5 -7.5t40 -16.5t40.5 -30.5t22.5 -50t-1.5 -74.5q-23 -111 -135 -164q-63 -30 -201 -30h-319zM381 591l-34 -160h94
q53 0 72 9q42 21 52 70q9 42 -14 64q-18 17 -61 17h-109zM320 303l-36 -171h111q103 0 121 84q18 87 -91 87h-105z" />
    <glyph glyph-name="C" unicode="C" horiz-adv-x="778" 
d="M837 495h-206q5 52 -22 76t-74 24q-158 0 -209 -243q-4 -18 -6 -32.5t-4.5 -44.5t2.5 -53t16 -46.5t37 -36.5t63 -13t65 11.5t43.5 31.5t22 32.5t12.5 29.5h208q-10 -47 -31.5 -85t-47.5 -62.5t-60.5 -43.5t-65 -29t-65.5 -16t-59 -7.5t-48 -1.5q-183 0 -254 96
q-72 99 -34 274q36 172 149 275q116 106 297 106q179 0 244 -88q44 -60 27 -154z" />
    <glyph glyph-name="D" unicode="D" horiz-adv-x="833" 
d="M73 0l153 722h305q187 0 263 -60q116 -93 72 -299q-27 -126 -90.5 -210t-177.5 -125q-80 -28 -218 -28h-307zM402 585l-94 -446h86q106 1 173 53.5t93 172.5q13 62 4 106.5t-28 65.5t-54 32.5t-53.5 13t-47.5 1.5z" />
    <glyph glyph-name="E" unicode="E" 
d="M69 0l153 720h542l-29 -138h-344l-32 -150h324l-30 -138h-324l-32 -154h352l-30 -140h-550z" />
    <glyph glyph-name="F" unicode="F" horiz-adv-x="611" 
d="M71 0l153 720h511l-30 -139h-312l-35 -168h290l-30 -139h-290l-58 -274h-199z" />
    <glyph glyph-name="G" unicode="G" horiz-adv-x="833" 
d="M872 506h-203q6 96 -105 96q-65 0 -116 -36t-79.5 -88t-42.5 -117q-26 -121 20.5 -180.5t142.5 -59.5q48 0 113 12l30 140h-153l29 137h341l-82 -386q-176 -40 -327 -40q-170 0 -254 75q-57 50 -73.5 129t2.5 169q16 76 58.5 154.5t110.5 132.5q122 96 319 96
q183 0 246 -84q19 -25 25 -57t4 -49t-6 -44z" />
    <glyph glyph-name="H" unicode="H" horiz-adv-x="778" 
d="M65 0l153 722h202l-59 -282h241l59 282h203l-153 -722h-203l62 292h-242l-62 -292h-201z" />
    <glyph glyph-name="I" unicode="I" horiz-adv-x="333" 
d="M60 0l153 722h206l-153 -722h-206z" />
    <glyph glyph-name="J" unicode="J" horiz-adv-x="611" 
d="M54 231h199q-3 -14 -4 -22.5t-1.5 -25.5t3.5 -27t16 -18.5t31 -8.5q26 0 44.5 10.5t28.5 30.5t14.5 33t8.5 34l103 485h203l-101 -478q-25 -116 -86 -174q-93 -86 -245 -86q-164 0 -213 98q-23 47 -1 149z" />
    <glyph glyph-name="K" unicode="K" horiz-adv-x="778" 
d="M76 0l153 722h203l-67 -317l298 317h237l-316 -318l183 -404h-248l-158 384l-82 -384h-203z" />
    <glyph glyph-name="L" unicode="L" horiz-adv-x="611" 
d="M67 0l153 722h203l-123 -580h324l-30 -142h-527z" />
    <glyph glyph-name="M" unicode="M" horiz-adv-x="1000" 
d="M63 0l153 722h315l17 -489l217 489l315 1l-153 -723h-189l138 606l-300 -606h-180l-35 611l-125 -611h-173z" />
    <glyph glyph-name="N" unicode="N" horiz-adv-x="833" 
d="M67 0l153 722h276l130 -538l112 538h175l-153 -722h-270l-130 561l-117 -561h-176z" />
    <glyph glyph-name="O" unicode="O" horiz-adv-x="833" 
d="M116 358q5 25 14 53t27 70.5t49 85.5t69 75q121 100 304 100q83 0 143 -23.5t92.5 -60.5t47.5 -88.5t14 -103t-13 -107.5q-17 -83 -54.5 -149.5t-82.5 -108t-101.5 -69t-109.5 -38.5t-108 -11q-75 0 -134.5 21.5t-103.5 64.5t-59 117.5t6 171.5zM322 359
q-48 -229 119 -229t216 232q25 116 -7 183q-27 52 -109 52q-168 0 -219 -238z" />
    <glyph glyph-name="P" unicode="P" horiz-adv-x="722" 
d="M73 0l153 722h332q129 0 181 -37q88 -62 60 -196q-8 -36 -23.5 -67.5t-32 -52t-36.5 -38t-33.5 -25.5t-25.5 -14q-63 -31 -189 -31l-130 -1l-55 -260h-201zM399 588l-40 -190h89q26 0 42 2t41 10t41.5 29.5t23.5 55.5q7 31 0 51t-26.5 28.5t-37.5 11t-45 2.5h-88z" />
    <glyph glyph-name="Q" unicode="Q" horiz-adv-x="833" 
d="M848 130l-28 -129q-212 1 -288 -3q-8 0 -43.5 -2t-68 -3.5t-41.5 -1.5q-153 0 -225 98.5t-39 254.5q30 139 106 237q39 49 87.5 83t98.5 49.5t90.5 21.5t80.5 6q172 0 248 -97q77 -99 43 -256q-13 -63 -38.5 -113.5t-60.5 -84t-53.5 -47.5t-45.5 -30q75 21 177 17z
M322 359q-48 -229 119 -229t216 231q25 117 -7 184q-25 52 -109 52q-168 0 -219 -238z" />
    <glyph glyph-name="R" unicode="R" horiz-adv-x="722" 
d="M65 0l153 722h334q101 0 144 -10t67 -42q40 -50 21 -140q-20 -93 -95 -134q-49 -27 -118 -37l-1 -4q30 -1 51.5 -6t36.5 -11t23.5 -20t12.5 -24t5 -33.5t0 -37.5t-2 -45q-9 -133 -4 -178h-217q-2 38 11 163q4 33 4 46.5t-2 32t-10.5 24.5t-25 11t-43.5 5h-84l-60 -282
h-201zM391 589l-37 -177h75q66 0 84 6q31 9 48 33.5t22 48.5q6 26 0 43.5t-15.5 26.5t-30.5 13.5t-34 5t-37 0.5h-75z" />
    <glyph glyph-name="S" unicode="S" horiz-adv-x="722" 
d="M91 230h201q-3 -14 -4 -23.5t2 -28t12 -30t31.5 -21t56.5 -9.5q10 0 18.5 0.5t27 5t32.5 12t28 24.5t19 40q5 27 -5.5 44t-42.5 26l-167 46q-22 6 -36 11t-40.5 20.5t-41 35t-21.5 54t2 77.5q21 96 110.5 161t241.5 65q58 0 103 -9t72.5 -22.5t45 -35t25 -40.5t8.5 -44.5
t-1 -41.5t-7 -37h-203q22 100 -73 100q-43 0 -73.5 -21.5t-37.5 -54.5q-6 -24 4 -41t21.5 -22t31.5 -11l127 -35q27 -7 40.5 -11.5t37.5 -14t36.5 -19t28 -25.5t21.5 -34.5t7.5 -45t-5.5 -58.5q-25 -116 -125 -174.5t-243 -58.5q-185 0 -244 86q-40 57 -21 160z" />
    <glyph glyph-name="T" unicode="T" 
d="M230 0l123 579h-220l30 143h647l-30 -143h-225l-123 -579h-202z" />
    <glyph glyph-name="U" unicode="U" horiz-adv-x="833" 
d="M225 722h202l-91 -429q-16 -75 0 -109q28 -59 111 -59q144 0 181 175l89 422h195l-88 -418q-33 -154 -103 -220q-106 -103 -312 -103q-71 0 -124 13t-84 31t-49.5 49.5t-25.5 56.5t-5 64t5.5 60t10.5 56z" />
    <glyph glyph-name="V" unicode="V" horiz-adv-x="778" 
d="M264 0l-102 722h221l53 -523l284 523h199l-416 -722h-239z" />
    <glyph glyph-name="W" unicode="W" horiz-adv-x="1000" 
d="M131 0l30 722h199l-44 -526l229 526h245l-3 -522l177 522h181l-277 -722h-240l-11 535l-247 -535h-239z" />
    <glyph glyph-name="X" unicode="X" horiz-adv-x="833" 
d="M457 257l-215 -257h-234l354 376l-181 346h258l94 -224l193 224h230l-329 -342l189 -380h-256z" />
    <glyph glyph-name="Y" unicode="Y" horiz-adv-x="778" 
d="M159 722h232l94 -303l227 303h206l-381 -467l-54 -255h-202l56 264z" />
    <glyph glyph-name="Z" unicode="Z" 
d="M17 0l34 159l449 422h-340l30 139h588l-33 -154l-462 -426h380l-30 -140h-616z" />
    <glyph glyph-name="bracketleft" unicode="[" horiz-adv-x="333" 
d="M33 -123l186 878h278l-21 -102h-137l-143 -672h137l-22 -104h-278z" />
    <glyph glyph-name="backslash" unicode="\" horiz-adv-x="278" 
d="M185 -16l-61 743h125l62 -743h-126z" />
    <glyph glyph-name="bracketright" unicode="]" horiz-adv-x="333" 
d="M-40 -123l22 104h136l143 672h-136l21 102h278l-186 -878h-278z" />
    <glyph glyph-name="asciicircum" unicode="^" horiz-adv-x="660" 
d="M145 286l274 436h128l90 -436h-150l-41 265l-151 -265h-150z" />
    <glyph glyph-name="underscore" unicode="_" horiz-adv-x="500" 
d="M-27 -125l11 50h500l-11 -50h-500z" />
    <glyph glyph-name="grave" unicode="`" horiz-adv-x="333" 
d="M259 581l-155 145h208l76 -145h-129z" />
    <glyph glyph-name="a" unicode="a" horiz-adv-x="611" 
d="M560 0h-180q0 27 9 72q-72 -82 -182 -82q-88 0 -123.5 43t-20.5 113q41 192 381 178q11 49 4.5 76.5t-45.5 27.5q-30 0 -53 -18t-30 -58h-180q17 68 61 105q75 63 222 63q135 0 181 -58q35 -43 16 -132l-50 -234q-8 -40 -10 -96zM424 237q-32 0 -48 -1t-42 -5t-39.5 -11
t-26 -21.5t-16.5 -35.5q-7 -29 7.5 -48.5t46.5 -19.5q51 0 84 48q25 36 34 94z" />
    <glyph glyph-name="b" unicode="b" 
d="M214 722h189l-58 -273q67 66 173 66q124 0 164 -105q20 -56 -1 -156q-27 -128 -107 -198q-76 -67 -172 -67q-103 0 -149 85l-22 -74h-176q20 68 33 125zM298 254q-4 -19 -6 -39t0.5 -48.5t20 -46.5t48.5 -18q94 0 126 153q32 151 -58 151q-32 0 -57.5 -17.5t-40 -46
t-22 -48.5t-11.5 -40z" />
    <glyph glyph-name="c" unicode="c" horiz-adv-x="611" 
d="M643 326h-186q19 86 -48 86q-48 0 -75.5 -42t-43.5 -116q-19 -91 -5 -125.5t54 -34.5q68 0 90 102h190q-20 -95 -101.5 -151.5t-196.5 -56.5q-126 0 -189.5 67.5t-35.5 198.5q15 71 50 124.5t81.5 83t97.5 43.5t107 14q137 0 188 -72q34 -47 23 -121z" />
    <glyph glyph-name="d" unicode="d" 
d="M568 722h188l-126 -597q-12 -55 -22 -125h-178l12 74q-15 -16 -26.5 -26.5t-35 -26.5t-56 -24.5t-71.5 -8.5q-62 0 -102 23t-55.5 63t-17 83.5t8.5 93.5q27 125 105 194q78 68 179 68q39 0 67.5 -11.5t41.5 -24t29 -34.5zM343 99q48 0 80.5 42.5t47.5 111.5
q14 67 0 108.5t-61 41.5q-29 0 -53 -16.5t-39 -43t-23 -49t-13 -44.5q-5 -23 -6.5 -44.5t2 -48t20 -42.5t45.5 -16z" />
    <glyph glyph-name="e" unicode="e" horiz-adv-x="611" 
d="M616 213h-360q-26 -122 70 -122q78 0 102 73h175q-29 -89 -111 -132t-188 -43q-131 0 -186.5 65t-28.5 189q27 131 109 204t217 73q178 0 211 -128q17 -55 -10 -179zM280 315h181q15 105 -68 105q-82 0 -113 -105z" />
    <glyph glyph-name="f" unicode="f" horiz-adv-x="444" 
d="M580 719l-26 -121q-23 6 -51 6q-22 0 -39 -7t-26 -17.5t-16 -24.5t-9.5 -28t-5.5 -27h121l-26 -122h-121l-80 -378h-184l80 378h-97l26 122h100q9 45 15.5 70.5t23.5 59.5t41 51.5t65.5 30.5t98.5 13q48 0 110 -6z" />
    <glyph glyph-name="g" unicode="g" 
d="M535 505h177l-99 -468q-26 -123 -118 -179q-90 -56 -219 -56q-143 0 -197 59q-34 38 -22 112h177q-5 -29 12.5 -46.5t56.5 -17.5q27 0 48 8t33.5 19t21.5 29t13.5 32t9.5 34l14 66q-72 -81 -180 -81q-42 0 -77 13.5t-62 41.5t-36 78t5 116q23 108 95.5 178.5t182.5 70.5
q113 0 148 -85zM476 269q30 140 -61 140q-46 0 -79.5 -38.5t-47.5 -103.5q-30 -140 65 -140q93 0 123 142z" />
    <glyph glyph-name="h" unicode="h" 
d="M65 0l153 722h190l-58 -275q80 66 171 66q85 0 129 -51q20 -21 25 -50.5t2 -52t-13 -67.5l-62 -292h-187l57 270q5 24 7 38.5t0.5 38t-16.5 35.5t-42 12q-61 0 -94 -70q-10 -23 -26 -97l-48 -227h-188z" />
    <glyph glyph-name="i" unicode="i" horiz-adv-x="333" 
d="M192 586l28 134h192l-28 -134h-192zM69 0l107 502h188l-107 -502h-188z" />
    <glyph glyph-name="j" unicode="j" horiz-adv-x="333" 
d="M-36 -194l26 123q23 -3 38.5 2t25 19.5t12.5 25.5t8 34l105 492h190l-114 -536q-19 -89 -69 -125.5t-156 -36.5q-37 0 -66 2zM196 586l28 134h192l-28 -134h-192z" />
    <glyph glyph-name="k" unicode="k" 
d="M74 0l153 722h184l-93 -442l219 222h208l-216 -212l134 -290h-226l-120 279l-59 -279h-184z" />
    <glyph glyph-name="l" unicode="l" horiz-adv-x="333" 
d="M69 0l153 722h188l-153 -722h-188z" />
    <glyph glyph-name="m" unicode="m" horiz-adv-x="1000" 
d="M61 0l82 388q2 6 10.5 56t10.5 58h186l-16 -83q73 95 190 95q16 0 32.5 -2.5t41.5 -10.5t42 -28.5t22 -51.5q77 94 197 94q107 0 142 -78q18 -43 -8 -162l-58 -275h-188l60 284q5 21 7 32t1.5 28.5t-6 26.5t-18.5 16.5t-35 7.5q-48 0 -79 -42q-14 -20 -25 -71l-60 -282
h-188l61 286q4 19 5.5 29.5t1.5 28t-5 27t-19 17t-35 7.5q-80 0 -103 -109l-61 -286h-188z" />
    <glyph glyph-name="n" unicode="n" 
d="M64 0l84 395l18 107h188l-15 -77q72 88 186 88q52 0 86 -16t47.5 -36.5t16 -54.5t-0.5 -53t-9 -49l-65 -304h-188l61 288q4 20 5.5 32.5t-1 32.5t-17 30.5t-41.5 10.5q-84 0 -107 -106l-61 -288h-187z" />
    <glyph glyph-name="o" unicode="o" 
d="M92 253q25 120 115.5 193t234.5 73q129 0 195.5 -66t39.5 -194q-27 -126 -115 -199q-90 -72 -223 -72q-155 0 -216 74q-57 68 -31 191zM287 252q-17 -77 -2 -119q15 -40 65 -40q98 0 132 159q34 160 -62 160q-99 0 -133 -160z" />
    <glyph glyph-name="p" unicode="p" 
d="M163 502h184l-13 -71q77 84 182 84q36 0 68 -11.5t61 -37.5t39 -79t-6 -126q-29 -137 -107.5 -204t-173.5 -67q-41 0 -71.5 14t-41 25.5t-23.5 30.5l-53 -250h-188l129 610q4 24 7 39.5t4 25.5t3 17zM298 253q-32 -151 59 -151q95 0 129 161q5 23 6.5 44t-2 45.5
t-19.5 39.5t-44 15q-96 0 -129 -154z" />
    <glyph glyph-name="q" unicode="q" 
d="M509 429l18 73h182q-8 -29 -16 -55q-2 -6 -7 -27l-129 -610h-187l54 254q-15 -14 -26 -22.5t-33.5 -22.5t-51.5 -21.5t-63 -7.5q-91 0 -142 64t-24 192q24 113 97 190t178 77q36 0 64 -8.5t45.5 -24.5t24.5 -26t16 -25zM336 98q31 0 56 17t39.5 44.5t22 49t12.5 44.5
q32 151 -62 151q-91 0 -124 -154q-5 -23 -6.5 -45t1.5 -48.5t18.5 -42.5t42.5 -16z" />
    <glyph glyph-name="r" unicode="r" horiz-adv-x="444" 
d="M67 0l84 395l18 107h183l-19 -104q23 39 51 63.5t59 33t48 10.5t42 1l-35 -161q-32 3 -39 3q-131 0 -160 -135l-45 -213h-187z" />
    <glyph glyph-name="s" unicode="s" horiz-adv-x="556" 
d="M64 163h186q-6 -28 -2 -45q7 -31 48 -31q29 0 46.5 15.5t21.5 35.5q5 24 -9.5 35t-49.5 21l-96 29q-115 31 -93 136q8 36 31.5 66.5t53.5 47.5q70 43 187 43q219 0 193 -169h-178q7 34 3 49q-8 27 -46 27q-24 0 -42.5 -11t-22.5 -33q-5 -20 6 -30.5t34 -17.5l126 -37
q21 -6 36.5 -14t32 -23t22.5 -40.5t-1.5 -60.5t-25 -63t-38 -45.5t-48.5 -30t-49.5 -18.5t-49 -9t-39.5 -3.5t-28 -0.5q-37 0 -65.5 2.5t-62 13t-54 29t-29.5 52.5t2 80z" />
    <glyph glyph-name="t" unicode="t" horiz-adv-x="444" 
d="M398 500h119l-25 -120h-121l-37 -174q-6 -29 -7 -41t2.5 -26t17.5 -18.5t41 -4.5q24 0 47 3l-25 -118q-58 -9 -124 -9q-107 0 -136 34.5t-12 112.5l51 241h-95l25 120h98l17 78l196 72z" />
    <glyph glyph-name="u" unicode="u" 
d="M171 502h187l-63 -293q-20 -98 55 -98q79 0 100 100l62 291h188l-89 -415q-5 -37 -15 -87h-185l13 78q-46 -54 -89 -70.5t-88 -16.5q-50 0 -83 15t-46.5 36.5t-17 55.5t-0.5 60t11 61z" />
    <glyph glyph-name="v" unicode="v" horiz-adv-x="611" 
d="M200 0l-84 502h202l25 -352l182 352h177l-297 -502h-205z" />
    <glyph glyph-name="w" unicode="w" horiz-adv-x="944" 
d="M160 0l-46 502h192l6 -356l165 356h210l12 -354l165 354h168l-265 -502h-210l-18 350l-173 -350h-206z" />
    <glyph glyph-name="x" unicode="x" horiz-adv-x="611" 
d="M237 262l-98 240h219l31 -154l100 154h192l-205 -240l114 -262h-222l-39 186l-123 -186h-194z" />
    <glyph glyph-name="y" unicode="y" horiz-adv-x="611" 
d="M702 502l-420 -692h-175l108 174l-100 518h203l26 -349l183 349h175z" />
    <glyph glyph-name="z" unicode="z" horiz-adv-x="556" 
d="M40 0l27 127l295 253h-230l25 121h444l-26 -124l-299 -258h256l-25 -119h-467z" />
    <glyph glyph-name="braceleft" unicode="{" horiz-adv-x="333" 
d="M39 269l20 94q118 17 142 129l4 23q9 42 17 67t29 60t51 55.5t83.5 37t125.5 20.5l-19 -90q-32 -2 -56.5 -13t-37.5 -23.5t-23.5 -35t-14 -36t-9.5 -38.5l-4 -22q-11 -48 -27 -77.5t-46 -55.5q-46 -42 -130 -48q27 -4 41.5 -6.5t36 -13t34.5 -28.5q33 -41 14 -133l-5 -22
q-5 -25 -7.5 -38.5t-1.5 -36.5t9 -35.5t27.5 -23.5t51.5 -12l-19 -90q-138 7 -190 64q-21 25 -26 61t12 115l5 23q5 25 5.5 39.5t-4.5 35t-27 34t-61 20.5z" />
    <glyph glyph-name="bar" unicode="|" horiz-adv-x="278" 
d="M227 750h142l-212 -1000h-142z" />
    <glyph glyph-name="braceright" unicode="}" horiz-adv-x="333" 
d="M428 363l-20 -94q-117 -17 -141 -129l-5 -23q-9 -42 -17 -67t-29 -60t-50.5 -55.5t-83 -37t-126.5 -20.5l19 90q32 2 56.5 13t37.5 23.5t23.5 35t14.5 36t9 38.5l5 22q10 48 26 77.5t46 55.5q46 42 130 48q-27 4 -41.5 6.5t-35.5 13t-35 27.5q-33 42 -13 134l4 22
q6 25 8 38.5t1 36.5t-9 35.5t-27.5 23.5t-51.5 12l19 90q138 -7 190 -64q22 -25 26.5 -61t-12.5 -115l-4 -23q-6 -25 -6.5 -39.5t4.5 -35t27.5 -34t60.5 -20.5z" />
    <glyph glyph-name="asciitilde" unicode="~" horiz-adv-x="660" 
d="M180 172h-91q23 89 79.5 144t117.5 55q28 0 138 -36q75 -24 100 -24q22 0 38 11.5t21 20.5t11 25h92q-23 -81 -74.5 -141t-124.5 -60q-36 0 -169 46q-60 16 -70 16q-47 0 -68 -57z" />
    <glyph glyph-name="uni00A0" unicode="&#xa0;" horiz-adv-x="333" 
 />
    <glyph glyph-name="exclamdown" unicode="&#xa1;" horiz-adv-x="444" 
d="M219 324h144l-71 -507h-217zM393 389h-180l32 150h180z" />
    <glyph glyph-name="cent" unicode="&#xa2;" 
d="M439 517l65 127h139l-71 -146q52 -23 80.5 -70t16.5 -104h-195q8 27 -4 45t-50 18q-80 0 -109 -136t51 -136q21 0 37 6.5t26 19t14.5 24t10.5 29.5h195q-25 -99 -119 -159q-82 -53 -186 -50l-74 -141h-139l81 169q-70 36 -89.5 97t-0.5 151q51 236 321 256z" />
    <glyph glyph-name="sterling" unicode="&#xa3;" 
d="M34 0l25 117h74l47 220h-96l24 114h96q6 31 11 50t17.5 53t27 56t40.5 49.5t58 43.5t79.5 27.5t104.5 11.5q53 0 93 -9.5t64 -23t39 -35.5t20 -40t5 -43.5t-1.5 -38.5t-6.5 -33h-185q4 16 5.5 25.5t1 27.5t-6 28t-20 18.5t-37.5 8.5q-25 0 -44 -10.5t-30.5 -24.5
t-21.5 -41.5t-14.5 -46t-11.5 -53.5h145l-24 -114h-145l-47 -220h316l-25 -117h-577z" />
    <glyph glyph-name="currency" unicode="&#xa4;" horiz-adv-x="660" 
d="M106 172l81 67q-17 56 -6 110q11 53 53 111l-53 67l102 84l53 -67q62 29 116 29q53 0 105 -29l80 67l66 -84l-80 -67q16 -58 5 -111q-12 -58 -52 -110l53 -67l-102 -84l-53 67q-62 -29 -116 -29q-55 0 -105 29l-81 -67zM425 448q-41 0 -76 -29t-44 -69q-8 -41 14.5 -70
t63.5 -29t76.5 29t44 70t-14.5 69.5t-64 28.5z" />
    <glyph glyph-name="yen" unicode="&#xa5;" 
d="M425 0h-190l26 120h-181l27 130h179l-18 54h-149l27 130h89l-79 258h201l62 -273l185 273h201l-194 -258h94l-27 -130h-149l-42 -54h179l-27 -130h-188z" />
    <glyph glyph-name="brokenbar" unicode="&#xa6;" horiz-adv-x="278" 
d="M211 675h142l-74 -350h-142zM105 175h142l-74 -350h-142z" />
    <glyph glyph-name="section" unicode="&#xa7;" 
d="M122 2l24 113q66 -24 136 -24q103 0 113 45q3 16 -9.5 27t-44.5 23l-90 34q-60 22 -78 53t-9 75q10 47 42.5 81t98.5 64q-79 34 -62 116q8 37 32 63.5t49.5 39.5t61 20.5t55.5 8.5t43 1q48 0 172 -16l-24 -114q-60 22 -121 22q-72 0 -80 -35q-3 -16 8 -25.5t38 -19.5
l104 -39q96 -35 75 -136q-19 -87 -123 -135q23 -14 35.5 -25t20.5 -34.5t2 -54.5q-8 -36 -27.5 -63t-48 -42.5t-54.5 -25.5t-58.5 -13.5t-47 -4.5t-32.5 -1q-122 0 -201 22zM432 282q45 43 53 79q3 17 0 30t-17 24.5t-25 18.5t-36 20q-57 -41 -64 -75q-4 -19 1 -34
t20.5 -26.5t30 -19t37.5 -17.5z" />
    <glyph glyph-name="dieresis" unicode="&#xa8;" horiz-adv-x="333" 
d="M335 581l31 145h171l-31 -145h-171zM72 581l31 145h171l-31 -145h-171z" />
    <glyph glyph-name="copyright" unicode="&#xa9;" horiz-adv-x="800" 
d="M572 742q156 0 244 -110.5t54 -268.5q-33 -157 -168 -268.5t-292 -111.5t-244.5 111.5t-54.5 268.5q34 158 169.5 268.5t291.5 110.5zM558 677q-130 0 -241.5 -91.5t-139.5 -222.5q-27 -130 45 -222t202 -92t241.5 92.5t138.5 221.5q28 130 -44 222t-202 92zM683 442
h-111q5 59 -51 59q-85 0 -115 -145q-29 -136 58 -136q55 0 75 64h112q-16 -77 -72 -112t-133 -35q-100 0 -136 57q-37 60 -15 164t84 165q64 63 161 63t130 -52q22 -35 13 -92z" />
    <glyph glyph-name="ordfeminine" unicode="&#xaa;" horiz-adv-x="367" 
d="M249 524q-3 -17 5.5 -26.5t26.5 -9.5q14 0 24 5.5t15.5 10.5t10.5 19.5t6 18t4 20.5q-32 0 -55 -6q-31 -5 -37 -32zM317 427l1 25h-2q-10 -12 -35.5 -23t-52.5 -11q-58 0 -89.5 25.5t-20.5 74.5q12 51 73.5 82.5t126.5 31.5h39q8 35 -21 35q-19 0 -32.5 -8t-13.5 -15
h-117q11 51 73 75q45 18 116 18q58 0 97.5 -23.5t29.5 -69.5l-33 -155q-3 -12 -6 -62h-133z" />
    <glyph glyph-name="guillemotleft" unicode="&#xab;" 
d="M276 449h155l-161 -196l79 -194h-154l-84 196zM544 449h155l-160 -196l78 -194h-154l-84 196z" />
    <glyph glyph-name="logicalnot" unicode="&#xac;" horiz-adv-x="660" 
d="M128 317l30 141h538l-80 -378h-146l50 237h-392z" />
    <glyph glyph-name="uni00AD" unicode="&#xad;" horiz-adv-x="333" 
d="M91 323h284l-26 -119h-284z" />
    <glyph glyph-name="registered" unicode="&#xae;" horiz-adv-x="800" 
d="M557 742q156 0 244.5 -110.5t54.5 -269.5q-33 -156 -168 -267t-292 -111t-244 111t-54 267q34 159 168.5 269.5t290.5 110.5zM543 677q-128 0 -239.5 -91.5t-139.5 -223.5q-27 -129 45.5 -220.5t200.5 -91.5q131 0 242.5 92t138.5 220q28 131 -45 223t-203 92zM257 152
l90 420h196q29 0 44 -1t39 -6.5t35 -16t17 -32.5t-1 -54q-19 -88 -123 -100v-2q22 -1 37.5 -6.5t23 -11t10.5 -20.5t3 -20.5v-25.5q-7 -102 -5 -124h-126q0 36 7 98q2 22 2 31t-4 19t-14.5 13t-29.5 3h-48l-35 -164h-118zM448 496l-22 -104h44q26 0 39.5 1.5t29 14
t20.5 36.5t-6 36.5t-24 14t-37 1.5h-44z" />
    <glyph glyph-name="macron" unicode="&#xaf;" horiz-adv-x="333" 
d="M104 614l16 76h382l-16 -76h-382z" />
    <glyph glyph-name="degree" unicode="&#xb0;" horiz-adv-x="400" 
d="M468 557q-13 -62 -66 -106t-115 -44t-97 44t-22 106q12 61 66 105.5t116 44.5t96.5 -44.5t21.5 -105.5zM248 554q-6 -31 9 -49t46 -18t54.5 18t30.5 49q6 30 -10.5 51.5t-46.5 21.5t-54 -21.5t-29 -51.5z" />
    <glyph glyph-name="plusminus" unicode="&#xb1;" horiz-adv-x="660" 
d="M288 136l31 147h-198l30 140h198l33 155h143l-33 -155h197l-30 -140h-197l-31 -147h-143zM52 -40l30 141h538l-30 -141h-538z" />
    <glyph glyph-name="uni00B2" unicode="&#xb2;" horiz-adv-x="400" 
d="M255 366h214l-18 -83h-368l17 78q18 16 90.5 62t126.5 89.5t63 75.5q6 18 -4 27t-36 9q-20 0 -37 -13t-20 -28h-127q17 66 75 95t138 29q71 0 115.5 -27t31.5 -86q-4 -22 -25.5 -49t-49 -50.5t-60.5 -47.5t-59 -40t-46 -28l-21 -12v-1z" />
    <glyph glyph-name="uni00B3" unicode="&#xb3;" horiz-adv-x="400" 
d="M245 456l18 83h17h18t16.5 0.5t16.5 2t14 4t14.5 6.5t11.5 10t9.5 14t5.5 18q3 14 -10 22t-34 8q-20 0 -37.5 -11t-20.5 -25h-132q14 60 74.5 89.5t134.5 29.5q31 0 59.5 -4.5t56 -15.5t40 -33t6.5 -53q-8 -38 -44.5 -65.5t-80.5 -33.5l-1 -2q50 -5 75.5 -32.5
t15.5 -73.5q-13 -62 -78.5 -91t-139.5 -29q-181 0 -168 129h131q-4 -19 8 -35q10 -11 42 -11q62 0 72 46q2 13 0 22.5t-9 15.5t-13.5 9.5t-20.5 4.5t-22 1.5t-24 0t-21 -0.5z" />
    <glyph glyph-name="acute" unicode="&#xb4;" horiz-adv-x="333" 
d="M538 726l-214 -145h-132l142 145h204z" />
    <glyph glyph-name="uni00B5" unicode="&#xb5;" 
d="M49 -213l152 715h140l-53 -247q-8 -39 -10.5 -62t1.5 -45t19.5 -32t44.5 -10q31 0 53.5 12t35.5 36t19.5 44t13.5 52l54 252h139l-107 -502h-116l12 57q-17 -19 -28 -29t-38 -23t-57 -13q-61 0 -87 48l-54 -253h-134z" />
    <glyph glyph-name="paragraph" unicode="&#xb6;" horiz-adv-x="850" 
d="M856 610h-50l-168 -788h-136l168 788h-89l-168 -788h-136l90 422q-81 10 -119 52q-52 62 -29 172q10 45 32.5 87.5t60 81t96 62t130.5 23.5h341z" />
    <glyph glyph-name="periodcentered" unicode="&#xb7;" horiz-adv-x="333" 
d="M115 204l32 149h176l-32 -149h-176z" />
    <glyph glyph-name="cedilla" unicode="&#xb8;" horiz-adv-x="333" 
d="M141 9h49l-53 -71q21 3 34 3q48 0 68.5 -22t14.5 -52q-7 -34 -44 -59.5t-110 -25.5q-65 0 -109 20l22 45q44 -22 89 -22q53 0 61 39q4 18 -9 27.5t-33 9.5q-18 0 -40 -9l-19 20z" />
    <glyph glyph-name="uni00B9" unicode="&#xb9;" horiz-adv-x="400" 
d="M370 283h-130l63 297q-66 -36 -121 -52l21 97q79 22 144 67h110z" />
    <glyph glyph-name="ordmasculine" unicode="&#xba;" horiz-adv-x="400" 
d="M383 578q19 89 -40 89q-60 0 -79 -89q-19 -90 41 -90q59 0 78 90zM358 737q82 0 127 -40t28 -119t-79 -119.5t-144 -40.5q-83 0 -128 40.5t-28 119.5t79 119t145 40z" />
    <glyph glyph-name="guillemotright" unicode="&#xbb;" 
d="M225 59h-155l160 196l-78 194h154l84 -196zM493 59h-155l160 196l-78 194h154l84 -196z" />
    <glyph glyph-name="onequarter" unicode="&#xbc;" horiz-adv-x="1000" 
d="M644 163h103l30 144h-3zM712 0l17 80h-215l18 83l244 252h154l-53 -252h63l-18 -83h-63l-17 -80h-130zM345 0h-109l515 707h109zM395 283h-130l63 297q-66 -36 -121 -52l21 97q79 22 144 67h110z" />
    <glyph glyph-name="onehalf" unicode="&#xbd;" horiz-adv-x="1000" 
d="M330 0h-109l515 707h109zM390 283h-130l63 297q-66 -36 -121 -52l21 97q79 22 144 67h110zM714 83h214l-18 -83h-368l17 78q18 16 90.5 62t126.5 89.5t63 75.5q6 18 -4.5 27t-36.5 9q-20 0 -36.5 -13t-19.5 -28h-127q17 66 75 95t138 29q71 0 115.5 -27t31.5 -86
q-5 -22 -26 -49t-48.5 -50.5t-60.5 -47.5t-59 -40t-47 -28l-20 -12v-1z" />
    <glyph glyph-name="threequarters" unicode="&#xbe;" horiz-adv-x="1000" 
d="M406 0h-109l515 707h109zM701 163h113l32 154h-3zM599 163l244 252h154l-53 -252h63l-18 -83h-63l-17 -80h-130l17 80h-215zM257 456l18 83h17h18t16.5 0.5t16.5 2t14 4t14.5 6.5t11.5 10t9.5 14t5.5 18q3 14 -10 22t-34 8q-20 0 -37.5 -11t-20.5 -25h-132
q14 60 74.5 89.5t134.5 29.5q31 0 59.5 -4.5t56 -15.5t40 -33t6.5 -53q-8 -38 -44.5 -65.5t-80.5 -33.5l-1 -2q50 -5 75.5 -32.5t15.5 -73.5q-13 -62 -78.5 -91t-139.5 -29q-181 0 -168 129h131q-4 -19 8 -35q10 -11 42 -11q62 0 72 46q2 13 0 22.5t-9 15.5t-13.5 9.5
t-20.5 4.5t-22 1.5t-24 0t-21 -0.5z" />
    <glyph glyph-name="questiondown" unicode="&#xbf;" horiz-adv-x="556" 
d="M316 349h160q-5 -22 -10 -48.5t-7 -37.5t-10 -27.5t-23.5 -32t-43.5 -38.5q-1 -1 -11 -9t-14 -11.5t-14.5 -12.5t-16.5 -15t-16 -15.5t-16.5 -16.5t-14 -16.5t-13 -17.5t-9 -16.5t-5.5 -16.5q-7 -32 10.5 -52.5t43.5 -27t58 -6.5q61 0 110 15l-28 -130q-81 -15 -163 -15
q-50 0 -93.5 8t-85 27.5t-60.5 60t-7 97.5q4 17 11.5 33.5l12.5 27.5t21 26.5t21.5 22t27 22t25 18.5t31 20.5t28.5 18.5q47 30 64 50t27 66zM495 389h-180l32 150h180z" />
    <glyph glyph-name="Agrave" unicode="&#xc0;" horiz-adv-x="833" 
d="M8 0l438 722h244l132 -722h-226l-19 145h-289l-80 -145h-200zM363 278h196l-29 303h-3zM556 801l-155 145h208l76 -145h-129z" />
    <glyph glyph-name="Aacute" unicode="&#xc1;" horiz-adv-x="833" 
d="M8 0l438 722h244l132 -722h-226l-19 145h-289l-80 -145h-200zM363 278h196l-29 303h-3zM817 946l-214 -145h-132l142 145h204z" />
    <glyph glyph-name="Acircumflex" unicode="&#xc2;" horiz-adv-x="833" 
d="M8 0l438 722h244l132 -722h-226l-19 145h-289l-80 -145h-200zM363 278h196l-29 303h-3zM529 946h169l89 -145h-130l-57 77l-91 -77h-130z" />
    <glyph glyph-name="Atilde" unicode="&#xc3;" horiz-adv-x="833" 
d="M8 0l438 722h244l132 -722h-226l-19 145h-289l-80 -145h-200zM363 278h196l-29 303h-3zM430 801h-78q16 59 64 101q51 45 113 45q26 0 70 -14l73 -22q18 -6 29 -6q29 0 42 39h81q-18 -60 -67 -102t-104 -42q-19 0 -48 9l-77 24q-26 8 -41 8q-38 0 -57 -40z" />
    <glyph glyph-name="Adieresis" unicode="&#xc4;" horiz-adv-x="833" 
d="M8 0l438 722h244l132 -722h-226l-19 145h-289l-80 -145h-200zM363 278h196l-29 303h-3zM632 801l31 145h171l-31 -145h-171zM369 801l31 145h171l-31 -145h-171z" />
    <glyph glyph-name="Aring" unicode="&#xc5;" horiz-adv-x="833" 
d="M8 0l438 722h244l132 -722h-226l-19 145h-289l-80 -145h-200zM363 278h196l-29 303h-3zM715 873q-10 -47 -49.5 -79.5t-86.5 -32.5q-46 0 -72 33t-16 79q10 47 49.5 80t86.5 33q46 0 72 -33t16 -80zM655.5 873q4.5 22 -7.5 38t-34 16t-41 -15.5t-23 -38.5q-5 -22 7 -37.5
t34 -15.5t41 15.5t23.5 37.5z" />
    <glyph glyph-name="AE" unicode="&#xc6;" horiz-adv-x="1000" 
d="M502 0l14 143h-226l-85 -143h-198l470 722h628l-29 -140h-318l-16 -149h273l-30 -140h-258l-17 -153h272l-30 -140h-450zM562 597l-191 -314h162l34 314h-5z" />
    <glyph glyph-name="Ccedilla" unicode="&#xc7;" horiz-adv-x="778" 
d="M577 231h208q-12 -59 -42.5 -103.5t-67.5 -70.5t-85 -42t-89 -22t-86 -7l-36 -48q21 3 34 3q48 0 68.5 -21.5t14.5 -52.5q-7 -33 -44 -59t-109 -26q-66 0 -110 20l22 45q44 -22 89 -22q53 0 61 39q4 18 -9 27.5t-33 9.5q-18 0 -40 -9l-19 20l61 76q-106 8 -166 51
q-127 92 -79 317q36 172 149 275q116 106 297 106q179 0 244 -88q44 -60 27 -154h-206q5 52 -22 76t-74 24q-158 0 -209 -243q-4 -18 -6 -32.5t-4.5 -44.5t2.5 -53t16 -46.5t37 -36.5t63 -13t65 11.5t43.5 31.5t22 32.5t12.5 29.5z" />
    <glyph glyph-name="Egrave" unicode="&#xc8;" 
d="M69 0l153 720h542l-29 -138h-344l-32 -150h324l-30 -138h-324l-32 -154h352l-30 -140h-550zM473 801l-155 145h208l76 -145h-129z" />
    <glyph glyph-name="Eacute" unicode="&#xc9;" 
d="M69 0l153 720h542l-29 -138h-344l-32 -150h324l-30 -138h-324l-32 -154h352l-30 -140h-550zM752 946l-214 -145h-132l142 145h204z" />
    <glyph glyph-name="Ecircumflex" unicode="&#xca;" 
d="M69 0l153 720h542l-29 -138h-344l-32 -150h324l-30 -138h-324l-32 -154h352l-30 -140h-550zM446 946h169l89 -145h-130l-57 77l-91 -77h-130z" />
    <glyph glyph-name="Edieresis" unicode="&#xcb;" 
d="M69 0l153 720h542l-29 -138h-344l-32 -150h324l-30 -138h-324l-32 -154h352l-30 -140h-550zM549 801l31 145h171l-31 -145h-171zM286 801l31 145h171l-31 -145h-171z" />
    <glyph glyph-name="Igrave" unicode="&#xcc;" horiz-adv-x="333" 
d="M60 0l153 722h206l-153 -722h-206zM306 801l-155 145h208l76 -145h-129z" />
    <glyph glyph-name="Iacute" unicode="&#xcd;" horiz-adv-x="333" 
d="M60 0l153 722h206l-153 -722h-206zM573 946l-214 -145h-132l142 145h204z" />
    <glyph glyph-name="Icircumflex" unicode="&#xce;" horiz-adv-x="333" 
d="M60 0l153 722h206l-153 -722h-206zM279 946h169l89 -145h-130l-57 77l-91 -77h-130z" />
    <glyph glyph-name="Idieresis" unicode="&#xcf;" horiz-adv-x="333" 
d="M60 0l153 722h206l-153 -722h-206zM382 801l31 145h171l-31 -145h-171zM119 801l31 145h171l-31 -145h-171z" />
    <glyph glyph-name="Eth" unicode="&#xd0;" horiz-adv-x="833" 
d="M67 0l74 350h-62l19 86h62l60 286h305q197 0 286 -85t48.5 -276t-165.5 -276t-322 -85h-305zM341 350l-44 -210h94q88 0 162 57.5t96.5 163.5t-27 163.5t-137.5 57.5h-94l-31 -146h157l-19 -86h-157z" />
    <glyph glyph-name="Ntilde" unicode="&#xd1;" horiz-adv-x="833" 
d="M67 0l153 722h276l130 -538l112 538h175l-153 -722h-270l-130 561l-117 -561h-176zM442 801h-78q16 59 64 101q51 45 113 45q26 0 70 -14l73 -22q18 -6 29 -6q29 0 42 39h81q-18 -60 -67 -102t-104 -42q-19 0 -48 9l-77 24q-26 8 -41 8q-38 0 -57 -40z" />
    <glyph glyph-name="Ograve" unicode="&#xd2;" horiz-adv-x="833" 
d="M116 358q5 25 14 53t27 70.5t49 85.5t69 75q121 100 304 100q83 0 143 -23.5t92.5 -60.5t47.5 -88.5t14 -103t-13 -107.5q-17 -83 -54.5 -149.5t-82.5 -108t-101.5 -69t-109.5 -38.5t-108 -11q-75 0 -134.5 21.5t-103.5 64.5t-59 117.5t6 171.5zM322 359
q-48 -229 119 -229t216 232q25 116 -7 183q-27 52 -109 52q-168 0 -219 -238zM556 801l-155 145h208l76 -145h-129z" />
    <glyph glyph-name="Oacute" unicode="&#xd3;" horiz-adv-x="833" 
d="M116 358q5 25 14 53t27 70.5t49 85.5t69 75q121 100 304 100q83 0 143 -23.5t92.5 -60.5t47.5 -88.5t14 -103t-13 -107.5q-17 -83 -54.5 -149.5t-82.5 -108t-101.5 -69t-109.5 -38.5t-108 -11q-75 0 -134.5 21.5t-103.5 64.5t-59 117.5t6 171.5zM322 359
q-48 -229 119 -229t216 232q25 116 -7 183q-27 52 -109 52q-168 0 -219 -238zM835 946l-214 -145h-132l142 145h204z" />
    <glyph glyph-name="Ocircumflex" unicode="&#xd4;" horiz-adv-x="833" 
d="M116 358q5 25 14 53t27 70.5t49 85.5t69 75q121 100 304 100q83 0 143 -23.5t92.5 -60.5t47.5 -88.5t14 -103t-13 -107.5q-17 -83 -54.5 -149.5t-82.5 -108t-101.5 -69t-109.5 -38.5t-108 -11q-75 0 -134.5 21.5t-103.5 64.5t-59 117.5t6 171.5zM322 359
q-48 -229 119 -229t216 232q25 116 -7 183q-27 52 -109 52q-168 0 -219 -238zM529 946h169l89 -145h-130l-57 77l-91 -77h-130z" />
    <glyph glyph-name="Otilde" unicode="&#xd5;" horiz-adv-x="833" 
d="M116 358q5 25 14 53t27 70.5t49 85.5t69 75q121 100 304 100q83 0 143 -23.5t92.5 -60.5t47.5 -88.5t14 -103t-13 -107.5q-17 -83 -54.5 -149.5t-82.5 -108t-101.5 -69t-109.5 -38.5t-108 -11q-75 0 -134.5 21.5t-103.5 64.5t-59 117.5t6 171.5zM322 359
q-48 -229 119 -229t216 232q25 116 -7 183q-27 52 -109 52q-168 0 -219 -238zM430 801h-78q16 59 64 101q51 45 113 45q26 0 70 -14l73 -22q18 -6 29 -6q29 0 42 39h81q-18 -60 -67 -102t-104 -42q-19 0 -48 9l-77 24q-26 8 -41 8q-38 0 -57 -40z" />
    <glyph glyph-name="Odieresis" unicode="&#xd6;" horiz-adv-x="833" 
d="M116 358q5 25 14 53t27 70.5t49 85.5t69 75q121 100 304 100q83 0 143 -23.5t92.5 -60.5t47.5 -88.5t14 -103t-13 -107.5q-17 -83 -54.5 -149.5t-82.5 -108t-101.5 -69t-109.5 -38.5t-108 -11q-75 0 -134.5 21.5t-103.5 64.5t-59 117.5t6 171.5zM322 359
q-48 -229 119 -229t216 232q25 116 -7 183q-27 52 -109 52q-168 0 -219 -238zM632 801l31 145h171l-31 -145h-171zM369 801l31 145h171l-31 -145h-171z" />
    <glyph glyph-name="multiply" unicode="&#xd7;" horiz-adv-x="660" 
d="M90 105l199 164l-129 164l119 98l129 -164l199 164l77 -98l-198 -164l128 -164l-119 -98l-129 163l-199 -163z" />
    <glyph glyph-name="Oslash" unicode="&#xd8;" horiz-adv-x="833" 
d="M808 661l117 98l50 -71l-118 -98q40 -92 11 -229q-38 -179 -156.5 -277.5t-297.5 -98.5q-137 0 -214 58l-119 -99l-51 69l113 94q-57 95 -23 254q38 179 156.5 277.5t297.5 98.5q158 0 234 -76zM667 432l-321 -267q30 -40 98 -40q164 0 213 233q10 45 10 74zM319 253
l335 280q-25 64 -110 64q-164 0 -215 -239q-13 -60 -10 -105z" />
    <glyph glyph-name="Ugrave" unicode="&#xd9;" horiz-adv-x="833" 
d="M225 722h202l-91 -429q-16 -75 0 -109q28 -59 111 -59q144 0 181 175l89 422h195l-88 -418q-33 -154 -103 -220q-106 -103 -312 -103q-71 0 -124 13t-84 31t-49.5 49.5t-25.5 56.5t-5 64t5.5 60t10.5 56zM556 801l-155 145h208l76 -145h-129z" />
    <glyph glyph-name="Uacute" unicode="&#xda;" horiz-adv-x="833" 
d="M225 722h202l-91 -429q-16 -75 0 -109q28 -59 111 -59q144 0 181 175l89 422h195l-88 -418q-33 -154 -103 -220q-106 -103 -312 -103q-71 0 -124 13t-84 31t-49.5 49.5t-25.5 56.5t-5 64t5.5 60t10.5 56zM835 946l-214 -145h-132l142 145h204z" />
    <glyph glyph-name="Ucircumflex" unicode="&#xdb;" horiz-adv-x="833" 
d="M225 722h202l-91 -429q-16 -75 0 -109q28 -59 111 -59q144 0 181 175l89 422h195l-88 -418q-33 -154 -103 -220q-106 -103 -312 -103q-71 0 -124 13t-84 31t-49.5 49.5t-25.5 56.5t-5 64t5.5 60t10.5 56zM529 946h169l89 -145h-130l-57 77l-91 -77h-130z" />
    <glyph glyph-name="Udieresis" unicode="&#xdc;" horiz-adv-x="833" 
d="M225 722h202l-91 -429q-16 -75 0 -109q28 -59 111 -59q144 0 181 175l89 422h195l-88 -418q-33 -154 -103 -220q-106 -103 -312 -103q-71 0 -124 13t-84 31t-49.5 49.5t-25.5 56.5t-5 64t5.5 60t10.5 56zM632 801l31 145h171l-31 -145h-171zM369 801l31 145h171l-31 -145
h-171z" />
    <glyph glyph-name="Yacute" unicode="&#xdd;" horiz-adv-x="778" 
d="M159 722h232l94 -303l227 303h206l-381 -467l-54 -255h-202l56 264zM808 946l-214 -145h-132l142 145h204z" />
    <glyph glyph-name="Thorn" unicode="&#xde;" horiz-adv-x="722" 
d="M73 0l153 722h200l-21 -102h132q142 0 206 -53.5t37.5 -178.5t-113.5 -178.5t-229 -53.5h-132l-33 -156h-200zM375 480l-39 -184h103q57 0 90 25t41.5 67t-13.5 67t-79 25h-103z" />
    <glyph glyph-name="germandbls" unicode="&#xdf;" horiz-adv-x="778" 
d="M65 0l109 514q10 46 32 83t47 59.5t60.5 39.5t62.5 24.5t61.5 12t50 5t36.5 0.5q16 0 29 -0.5t41.5 -3.5t50 -9t47 -18.5t40 -29.5t22 -44.5t-0.5 -61.5q-6 -28 -20.5 -48.5t-26 -28.5t-32.5 -20q-40 -21 -52.5 -31.5t-16.5 -30.5q-5 -23 7 -38t72 -51q29 -18 43 -28
t30 -29t18.5 -43t-4.5 -57q-16 -77 -85.5 -128t-181.5 -51q-131 0 -171 58q-26 37 -15 103h166q-5 -27 6 -44q13 -16 34 -16q18 0 32 8.5t21.5 22.5t10.5 22t4 16q8 35 -6 51.5t-71 50.5q-35 20 -49 30t-31.5 26.5t-21 34.5t2.5 43q12 59 92 101q20 10 29.5 16.5t18.5 19
t13 30.5q7 33 -10.5 54t-62.5 21q-112 0 -139 -129l-108 -506h-184z" />
    <glyph glyph-name="agrave" unicode="&#xe0;" horiz-adv-x="611" 
d="M560 0h-180q0 27 9 72q-72 -82 -182 -82q-88 0 -123.5 43t-20.5 113q41 192 381 178q11 49 4.5 76.5t-45.5 27.5q-30 0 -53 -18t-30 -58h-180q17 68 61 105q75 63 222 63q135 0 181 -58q35 -43 16 -132l-50 -234q-8 -40 -10 -96zM424 237q-32 0 -48 -1t-42 -5t-39.5 -11
t-26 -21.5t-16.5 -35.5q-7 -29 7.5 -48.5t46.5 -19.5q51 0 84 48q25 36 34 94zM416 581l-155 145h208l76 -145h-129z" />
    <glyph glyph-name="aacute" unicode="&#xe1;" horiz-adv-x="611" 
d="M560 0h-180q0 27 9 72q-72 -82 -182 -82q-88 0 -123.5 43t-20.5 113q41 192 381 178q11 49 4.5 76.5t-45.5 27.5q-30 0 -53 -18t-30 -58h-180q17 68 61 105q75 63 222 63q135 0 181 -58q35 -43 16 -132l-50 -234q-8 -40 -10 -96zM424 237q-32 0 -48 -1t-42 -5t-39.5 -11
t-26 -21.5t-16.5 -35.5q-7 -29 7.5 -48.5t46.5 -19.5q51 0 84 48q25 36 34 94zM653 726l-214 -145h-132l142 145h204z" />
    <glyph glyph-name="acircumflex" unicode="&#xe2;" horiz-adv-x="611" 
d="M560 0h-180q0 27 9 72q-72 -82 -182 -82q-88 0 -123.5 43t-20.5 113q41 192 381 178q11 49 4.5 76.5t-45.5 27.5q-30 0 -53 -18t-30 -58h-180q17 68 61 105q75 63 222 63q135 0 181 -58q35 -43 16 -132l-50 -234q-8 -40 -10 -96zM424 237q-32 0 -48 -1t-42 -5t-39.5 -11
t-26 -21.5t-16.5 -35.5q-7 -29 7.5 -48.5t46.5 -19.5q51 0 84 48q25 36 34 94zM371 726h169l89 -145h-130l-57 77l-91 -77h-130z" />
    <glyph glyph-name="atilde" unicode="&#xe3;" horiz-adv-x="611" 
d="M560 0h-180q0 27 9 72q-72 -82 -182 -82q-88 0 -123.5 43t-20.5 113q41 192 381 178q11 49 4.5 76.5t-45.5 27.5q-30 0 -53 -18t-30 -58h-180q17 68 61 105q75 63 222 63q135 0 181 -58q35 -43 16 -132l-50 -234q-8 -40 -10 -96zM424 237q-32 0 -48 -1t-42 -5t-39.5 -11
t-26 -21.5t-16.5 -35.5q-7 -29 7.5 -48.5t46.5 -19.5q51 0 84 48q25 36 34 94zM264 581h-78q16 59 64 101q52 45 114 45q26 0 70 -14l72 -22q18 -6 30 -6q29 0 41 39h81q-18 -60 -67 -102t-104 -42q-18 0 -48 9l-77 24q-26 8 -41 8q-38 0 -57 -40z" />
    <glyph glyph-name="adieresis" unicode="&#xe4;" horiz-adv-x="611" 
d="M560 0h-180q0 27 9 72q-72 -82 -182 -82q-88 0 -123.5 43t-20.5 113q41 192 381 178q11 49 4.5 76.5t-45.5 27.5q-30 0 -53 -18t-30 -58h-180q17 68 61 105q75 63 222 63q135 0 181 -58q35 -43 16 -132l-50 -234q-8 -40 -10 -96zM424 237q-32 0 -48 -1t-42 -5t-39.5 -11
t-26 -21.5t-16.5 -35.5q-7 -29 7.5 -48.5t46.5 -19.5q51 0 84 48q25 36 34 94zM474 581l31 145h171l-31 -145h-171zM211 581l31 145h171l-31 -145h-171z" />
    <glyph glyph-name="aring" unicode="&#xe5;" horiz-adv-x="611" 
d="M560 0h-180q0 27 9 72q-72 -82 -182 -82q-88 0 -123.5 43t-20.5 113q41 192 381 178q11 49 4.5 76.5t-45.5 27.5q-30 0 -53 -18t-30 -58h-180q17 68 61 105q75 63 222 63q135 0 181 -58q35 -43 16 -132l-50 -234q-8 -40 -10 -96zM424 237q-32 0 -48 -1t-42 -5t-39.5 -11
t-26 -21.5t-16.5 -35.5q-7 -29 7.5 -48.5t46.5 -19.5q51 0 84 48q25 36 34 94zM557 653q-10 -47 -50 -79.5t-86 -32.5t-72 33t-16 79q10 47 49.5 80t86.5 33q46 0 72 -33t16 -80zM497.5 653q4.5 22 -7.5 38t-34 16t-40.5 -15.5t-23.5 -38.5q-5 -22 7.5 -37.5t34.5 -15.5
t40.5 15.5t23 37.5z" />
    <glyph glyph-name="ae" unicode="&#xe6;" horiz-adv-x="944" 
d="M250 161q-6 -27 9 -46.5t42 -19.5q29 0 50.5 12t35 35.5t20.5 45t14 51.5q-82 0 -107 -11q-55 -25 -64 -67zM614 315h176q9 43 -7 75q-18 35 -59 32q-47 -2 -71.5 -30t-38.5 -77zM363 324h76q1 5 5.5 23t6 25.5t1 21.5t-5.5 20t-16.5 11.5t-30.5 4.5q-31 -1 -53 -24.5
t-25 -43.5h-179q17 85 114 125q71 30 179 30q40 0 80.5 -17t62.5 -52q72 69 166 69q146 0 191 -77.5t13 -226.5h-360q-27 -118 64 -118q81 0 106 69h180q-23 -86 -120 -138q-76 -41 -176 -41q-142 0 -172 108q-78 -108 -250 -108q-90 0 -137.5 42t-29.5 124q10 44 43 78.5
t78.5 54.5t94 30t94.5 10z" />
    <glyph glyph-name="ccedilla" unicode="&#xe7;" horiz-adv-x="611" 
d="M429 196h190q-17 -85 -90.5 -144t-197.5 -64l-37 -50q21 3 34 3q49 0 69.5 -21.5t14.5 -52.5q-7 -33 -44.5 -59t-109.5 -26q-66 0 -109 20l21 45q44 -22 89 -22q53 0 61 39q4 18 -9 27.5t-33 9.5q-16 0 -40 -9l-19 20l63 78q-109 10 -160 77.5t-26 186.5q15 71 50 124.5
t82 83t98 43.5t106 14q137 0 188 -72q34 -47 23 -121h-186q19 86 -48 86q-48 0 -75.5 -42t-43.5 -116q-19 -91 -5 -125.5t54 -34.5q68 0 90 102z" />
    <glyph glyph-name="egrave" unicode="&#xe8;" horiz-adv-x="611" 
d="M616 213h-360q-26 -122 70 -122q78 0 102 73h175q-29 -89 -111 -132t-188 -43q-131 0 -186.5 65t-28.5 189q27 131 109 204t217 73q178 0 211 -128q17 -55 -10 -179zM280 315h181q15 105 -68 105q-82 0 -113 -105zM416 581l-155 145h208l76 -145h-129z" />
    <glyph glyph-name="eacute" unicode="&#xe9;" horiz-adv-x="611" 
d="M616 213h-360q-26 -122 70 -122q78 0 102 73h175q-29 -89 -111 -132t-188 -43q-131 0 -186.5 65t-28.5 189q27 131 109 204t217 73q178 0 211 -128q17 -55 -10 -179zM280 315h181q15 105 -68 105q-82 0 -113 -105zM653 726l-214 -145h-132l142 145h204z" />
    <glyph glyph-name="ecircumflex" unicode="&#xea;" horiz-adv-x="611" 
d="M616 213h-360q-26 -122 70 -122q78 0 102 73h175q-29 -89 -111 -132t-188 -43q-131 0 -186.5 65t-28.5 189q27 131 109 204t217 73q178 0 211 -128q17 -55 -10 -179zM280 315h181q15 105 -68 105q-82 0 -113 -105zM371 726h169l89 -145h-130l-57 77l-91 -77h-130z" />
    <glyph glyph-name="edieresis" unicode="&#xeb;" horiz-adv-x="611" 
d="M616 213h-360q-26 -122 70 -122q78 0 102 73h175q-29 -89 -111 -132t-188 -43q-131 0 -186.5 65t-28.5 189q27 131 109 204t217 73q178 0 211 -128q17 -55 -10 -179zM280 315h181q15 105 -68 105q-82 0 -113 -105zM474 581l31 145h171l-31 -145h-171zM211 581l31 145h171
l-31 -145h-171z" />
    <glyph glyph-name="igrave" unicode="&#xec;" horiz-adv-x="333" 
d="M262 0h-190l107 502h190zM259 581l-155 145h208l76 -145h-129z" />
    <glyph glyph-name="iacute" unicode="&#xed;" horiz-adv-x="333" 
d="M262 0h-190l107 502h190zM538 726l-214 -145h-132l142 145h204z" />
    <glyph glyph-name="icircumflex" unicode="&#xee;" horiz-adv-x="333" 
d="M262 0h-190l107 502h190zM232 726h169l89 -145h-130l-57 77l-91 -77h-130z" />
    <glyph glyph-name="idieresis" unicode="&#xef;" horiz-adv-x="333" 
d="M262 0h-190l107 502h190zM335 581l31 145h171l-31 -145h-171zM72 581l31 145h171l-31 -145h-171z" />
    <glyph glyph-name="eth" unicode="&#xf0;" 
d="M236 616l102 130q84 -19 134 -41l63 45l39 -36l-46 -32q216 -125 157 -406q-33 -152 -128.5 -221.5t-225.5 -69.5q-127 0 -196.5 62.5t-43.5 184.5q26 121 112 184.5t189 63.5q70 0 112 -27l1 4q-24 41 -51.5 63.5t-79.5 51.5l-76 -55l-52 28l67 48q-40 14 -77 23z
M286 232q-31 -145 66 -145t128 145q31 146 -66 146t-128 -146z" />
    <glyph glyph-name="ntilde" unicode="&#xf1;" 
d="M64 0l84 395l18 107h188l-15 -77q72 88 186 88q52 0 86 -16t47.5 -36.5t16 -54.5t-0.5 -53t-9 -49l-65 -304h-188l61 288q4 20 5.5 32.5t-1 32.5t-17 30.5t-41.5 10.5q-84 0 -107 -106l-61 -288h-187zM282 581h-78q16 59 64 101q52 45 114 45q26 0 70 -14l72 -22
q18 -6 30 -6q29 0 41 39h81q-18 -60 -67 -102t-104 -42q-18 0 -48 9l-77 24q-26 8 -41 8q-38 0 -57 -40z" />
    <glyph glyph-name="ograve" unicode="&#xf2;" 
d="M92 253q25 120 115.5 193t234.5 73q129 0 195.5 -66t39.5 -194q-27 -126 -115 -199q-90 -72 -223 -72q-155 0 -216 74q-57 68 -31 191zM287 252q-17 -77 -2 -119q15 -40 65 -40q98 0 132 159q34 160 -62 160q-99 0 -133 -160zM426 581l-155 145h208l76 -145h-129z" />
    <glyph glyph-name="oacute" unicode="&#xf3;" 
d="M92 253q25 120 115.5 193t234.5 73q129 0 195.5 -66t39.5 -194q-27 -126 -115 -199q-90 -72 -223 -72q-155 0 -216 74q-57 68 -31 191zM287 252q-17 -77 -2 -119q15 -40 65 -40q98 0 132 159q34 160 -62 160q-99 0 -133 -160zM705 726l-214 -145h-132l142 145h204z" />
    <glyph glyph-name="ocircumflex" unicode="&#xf4;" 
d="M92 253q25 120 115.5 193t234.5 73q129 0 195.5 -66t39.5 -194q-27 -126 -115 -199q-90 -72 -223 -72q-155 0 -216 74q-57 68 -31 191zM287 252q-17 -77 -2 -119q15 -40 65 -40q98 0 132 159q34 160 -62 160q-99 0 -133 -160zM411 726h169l89 -145h-130l-57 77l-91 -77
h-130z" />
    <glyph glyph-name="otilde" unicode="&#xf5;" 
d="M92 253q25 120 115.5 193t234.5 73q129 0 195.5 -66t39.5 -194q-27 -126 -115 -199q-90 -72 -223 -72q-155 0 -216 74q-57 68 -31 191zM287 252q-17 -77 -2 -119q15 -40 65 -40q98 0 132 159q34 160 -62 160q-99 0 -133 -160zM288 581h-78q16 59 64 101q52 45 114 45
q26 0 70 -14l72 -22q18 -6 30 -6q29 0 41 39h81q-18 -60 -67 -102t-104 -42q-18 0 -48 9l-77 24q-26 8 -41 8q-38 0 -57 -40z" />
    <glyph glyph-name="odieresis" unicode="&#xf6;" 
d="M92 253q25 120 115.5 193t234.5 73q129 0 195.5 -66t39.5 -194q-27 -126 -115 -199q-90 -72 -223 -72q-155 0 -216 74q-57 68 -31 191zM287 252q-17 -77 -2 -119q15 -40 65 -40q98 0 132 159q34 160 -62 160q-99 0 -133 -160zM502 581l31 145h171l-31 -145h-171zM239 581
l31 145h171l-31 -145h-171z" />
    <glyph glyph-name="divide" unicode="&#xf7;" horiz-adv-x="660" 
d="M103 199l30 140h538l-30 -140h-538zM251 2l33 151h158l-33 -151h-158zM333 385l32 151h158l-32 -151h-158z" />
    <glyph glyph-name="oslash" unicode="&#xf8;" 
d="M283 178l200 192q-16 37 -62 37q-97 0 -131 -156q-9 -44 -7 -73zM492 304l-191 -184q14 -25 53 -25q97 0 130 156q7 29 8 53zM101 -72l-40 36l85 81q-80 69 -51 206q19 89 73 150.5t124 88.5t152 27q93 0 153 -36l78 75l40 -37l-74 -72q65 -70 38 -196
q-19 -89 -73 -150.5t-123.5 -88.5t-151.5 -27q-85 0 -140 30z" />
    <glyph glyph-name="ugrave" unicode="&#xf9;" 
d="M171 502h187l-63 -293q-20 -98 55 -98q79 0 100 100l62 291h188l-89 -415q-5 -37 -15 -87h-185l13 78q-46 -54 -89 -70.5t-88 -16.5q-50 0 -83 15t-46.5 36.5t-17 55.5t-0.5 60t11 61zM426 581l-155 145h208l76 -145h-129z" />
    <glyph glyph-name="uacute" unicode="&#xfa;" 
d="M171 502h187l-63 -293q-20 -98 55 -98q79 0 100 100l62 291h188l-89 -415q-5 -37 -15 -87h-185l13 78q-46 -54 -89 -70.5t-88 -16.5q-50 0 -83 15t-46.5 36.5t-17 55.5t-0.5 60t11 61zM705 726l-214 -145h-132l142 145h204z" />
    <glyph glyph-name="ucircumflex" unicode="&#xfb;" 
d="M171 502h187l-63 -293q-20 -98 55 -98q79 0 100 100l62 291h188l-89 -415q-5 -37 -15 -87h-185l13 78q-46 -54 -89 -70.5t-88 -16.5q-50 0 -83 15t-46.5 36.5t-17 55.5t-0.5 60t11 61zM399 726h169l89 -145h-130l-57 77l-91 -77h-130z" />
    <glyph glyph-name="udieresis" unicode="&#xfc;" 
d="M171 502h187l-63 -293q-20 -98 55 -98q79 0 100 100l62 291h188l-89 -415q-5 -37 -15 -87h-185l13 78q-46 -54 -89 -70.5t-88 -16.5q-50 0 -83 15t-46.5 36.5t-17 55.5t-0.5 60t11 61zM502 581l31 145h171l-31 -145h-171zM239 581l31 145h171l-31 -145h-171z" />
    <glyph glyph-name="yacute" unicode="&#xfd;" horiz-adv-x="611" 
d="M702 502l-420 -692h-175l108 174l-100 518h203l26 -349l183 349h175zM677 726l-214 -145h-132l142 145h204z" />
    <glyph glyph-name="thorn" unicode="&#xfe;" 
d="M15 -192l194 914h190l-61 -291h2q73 86 181 86q105 0 143.5 -75.5t15.5 -183.5q-25 -118 -101.5 -195.5t-191.5 -77.5q-82 0 -126 75h-2l-54 -252h-190zM425 407q-92 0 -125.5 -156t58.5 -156t125.5 156t-58.5 156z" />
    <glyph glyph-name="ydieresis" unicode="&#xff;" horiz-adv-x="611" 
d="M702 502l-420 -692h-175l108 174l-100 518h203l26 -349l183 349h175zM474 581l31 145h171l-31 -145h-171zM211 581l31 145h171l-31 -145h-171z" />
    <glyph glyph-name="dotlessi" unicode="&#x131;" horiz-adv-x="333" 
d="M262 0h-190l107 502h190z" />
    <glyph glyph-name="OE" unicode="&#x152;" horiz-adv-x="1000" 
d="M797 582l-32 -149h248l-30 -140h-248l-32 -153h278l-30 -140h-550q-168 -1 -249 98.5t-45 267.5q14 69 50 133.5t93.5 117.5t127.5 78q74 27 203 27h514l-29 -140h-269zM501 134l98 457q-56 6 -57 6q-93 0 -148 -64t-78 -171q-20 -96 8 -165t118 -69q1 0 59 6z" />
    <glyph glyph-name="oe" unicode="&#x153;" horiz-adv-x="1000" 
d="M286.5 251q-33.5 -156 63.5 -156t130.5 156t-63.5 156t-130.5 -156zM678 315h176q9 43 -7 75q-18 35 -59 32q-47 -2 -71.5 -30t-38.5 -77zM91 251q19 89 73 150.5t124 88.5t152 27q129 0 188 -82q79 82 180 82q146 0 191 -77.5t13 -226.5h-360q-27 -118 64 -118
q81 0 106 69h180q-23 -86 -120 -138q-76 -41 -176 -41q-65 0 -108.5 24.5t-59.5 65.5q-97 -90 -211 -90q-82 0 -140.5 27t-86.5 88.5t-9 150.5z" />
    <glyph glyph-name="Scaron" unicode="&#x160;" horiz-adv-x="722" 
d="M91 230h201q-3 -14 -4 -23.5t2 -28t12 -30t31.5 -21t56.5 -9.5q10 0 18.5 0.5t27 5t32.5 12t28 24.5t19 40q5 27 -5.5 44t-42.5 26l-167 46q-22 6 -36 11t-40.5 20.5t-41 35t-21.5 54t2 77.5q21 96 110.5 161t241.5 65q58 0 103 -9t72.5 -22.5t45 -35t25 -40.5t8.5 -44.5
t-1 -41.5t-7 -37h-203q22 100 -73 100q-43 0 -73.5 -21.5t-37.5 -54.5q-6 -24 4 -41t21.5 -22t31.5 -11l127 -35q27 -7 40.5 -11.5t37.5 -14t36.5 -19t28 -25.5t21.5 -34.5t7.5 -45t-5.5 -58.5q-25 -116 -125 -174.5t-243 -58.5q-185 0 -244 86q-40 57 -21 160zM545 867
l93 79h127l-151 -145h-167l-88 145h126z" />
    <glyph glyph-name="scaron" unicode="&#x161;" horiz-adv-x="556" 
d="M64 163h186q-6 -28 -2 -45q7 -31 48 -31q29 0 46.5 15.5t21.5 35.5q5 24 -9.5 35t-49.5 21l-96 29q-115 31 -93 136q8 36 31.5 66.5t53.5 47.5q70 43 187 43q219 0 193 -169h-178q7 34 3 49q-8 27 -46 27q-24 0 -42.5 -11t-22.5 -33q-5 -20 6 -30.5t34 -17.5l126 -37
q21 -6 36.5 -14t32 -23t22.5 -40.5t-1.5 -60.5t-25 -63t-38 -45.5t-48.5 -30t-49.5 -18.5t-49 -9t-39.5 -3.5t-28 -0.5q-37 0 -65.5 2.5t-62 13t-54 29t-29.5 52.5t2 80zM416 647l92 79h127l-151 -145h-167l-88 145h126z" />
    <glyph glyph-name="Ydieresis" unicode="&#x178;" horiz-adv-x="778" 
d="M159 722h232l94 -303l227 303h206l-381 -467l-54 -255h-202l56 264zM605 801l31 145h171l-31 -145h-171zM342 801l31 145h171l-31 -145h-171z" />
    <glyph glyph-name="Zcaron" unicode="&#x17d;" 
d="M17 0l34 159l449 422h-340l30 139h588l-33 -154l-462 -426h380l-30 -140h-616zM517 867l93 79h127l-151 -145h-167l-88 145h126z" />
    <glyph glyph-name="zcaron" unicode="&#x17e;" horiz-adv-x="556" 
d="M40 0l27 127l295 253h-230l25 121h444l-26 -124l-299 -258h256l-25 -119h-467zM416 647l92 79h127l-151 -145h-167l-88 145h126z" />
    <glyph glyph-name="florin" unicode="&#x192;" 
d="M623 433l-52 -130h-94l-125 -311q-40 -105 -99.5 -147.5t-155.5 -42.5q-67 0 -105 8l50 122q21 -1 39.5 -1t36 13t28.5 40l132 319h-97l53 130h94q9 20 25 58.5t25 58t25.5 49t35 45.5t45.5 32.5t63 23.5t81 7q53 0 95 -7l-50 -126q-19 6 -35 3t-27 -5.5t-21.5 -13
t-16 -18.5t-12 -23t-11 -26.5t-11 -28.5t-12.5 -29h96z" />
    <glyph glyph-name="circumflex" unicode="&#x2c6;" horiz-adv-x="333" 
d="M232 726h169l89 -145h-130l-57 77l-91 -77h-130z" />
    <glyph glyph-name="caron" unicode="&#x2c7;" horiz-adv-x="333" 
d="M304 647l92 79h127l-151 -145h-167l-88 145h126z" />
    <glyph glyph-name="ring" unicode="&#x2da;" horiz-adv-x="333" 
d="M418 653q-10 -47 -49.5 -79.5t-86.5 -32.5q-46 0 -72 33t-16 79q10 47 49.5 80t86.5 33q46 0 72 -33t16 -80zM358.5 653q4.5 22 -7.5 38t-34 16t-40.5 -15.5t-23.5 -38.5q-5 -22 7.5 -37.5t34.5 -15.5t40.5 15.5t23 37.5z" />
    <glyph glyph-name="tilde" unicode="&#x2dc;" horiz-adv-x="333" 
d="M145 581h-78q16 59 64 101q52 45 114 45q26 0 70 -14l72 -22q19 -6 30 -6q29 0 41 39h81q-18 -60 -67 -102t-104 -42q-19 0 -48 9l-77 24q-26 8 -41 8q-38 0 -57 -40z" />
    <glyph glyph-name="endash" unicode="&#x2013;" horiz-adv-x="500" 
d="M43 204l27 127h500l-27 -127h-500z" />
    <glyph glyph-name="emdash" unicode="&#x2014;" horiz-adv-x="1000" 
d="M173 204l27 127h740l-27 -127h-740z" />
    <glyph glyph-name="quoteleft" unicode="&#x2018;" horiz-adv-x="333" 
d="M312 456h-186l175 266h134z" />
    <glyph glyph-name="quoteright" unicode="&#x2019;" horiz-adv-x="333" 
d="M259 722h187l-175 -266h-135z" />
    <glyph glyph-name="quotesinglbase" unicode="&#x201a;" horiz-adv-x="333" 
d="M2 -97l111 236h172l-156 -236h-127z" />
    <glyph glyph-name="quotedblleft" unicode="&#x201c;" 
d="M375 456h-187l176 266h134zM617 456h-187l176 266h134z" />
    <glyph glyph-name="quotedblright" unicode="&#x201d;" 
d="M313 722h186l-175 -266h-134zM555 722h186l-175 -266h-134z" />
    <glyph glyph-name="quotedblbase" unicode="&#x201e;" 
d="M74 -97l111 236h171l-155 -236h-127zM311 -97l111 236h172l-156 -236h-127z" />
    <glyph glyph-name="dagger" unicode="&#x2020;" 
d="M344 441h-171l26 125h171l33 156h156l-33 -156h168l-26 -125h-168l-94 -441h-156z" />
    <glyph glyph-name="daggerdbl" unicode="&#x2021;" 
d="M111 150l26 125h171l37 174h-171l27 125h171l31 148h156l-31 -148h168l-27 -125h-168l-37 -174h168l-26 -125h-168l-32 -150h-156l32 150h-171z" />
    <glyph glyph-name="bullet" unicode="&#x2022;" horiz-adv-x="500" 
d="M365 542q74 0 116.5 -53t26.5 -128q-16 -74 -80.5 -127t-139.5 -53t-116.5 53t-25.5 127q16 75 80 128t139 53z" />
    <glyph glyph-name="ellipsis" unicode="&#x2026;" horiz-adv-x="1000" 
d="M79 0l32 149h176l-32 -149h-176zM412 0l32 149h176l-32 -149h-176zM745 0l32 149h176l-32 -149h-176z" />
    <glyph glyph-name="perthousand" unicode="&#x2030;" horiz-adv-x="1000" 
d="M131 553q17 81 64.5 128.5t119.5 47.5q68 0 95 -45t10 -125q-19 -87 -68 -131q-47 -44 -113 -44t-96.5 42t-11.5 127zM236 555q-20 -95 19 -95q38 0 59 102q11 51 5.5 70t-24.5 19q-39 0 -59 -96zM392 163q17 81 64.5 128.5t119.5 47.5q68 0 95.5 -45t10.5 -125
q-18 -85 -68 -131q-48 -44 -113 -44q-67 0 -96 42q-31 43 -13 127zM498 165q-20 -95 19 -95q38 0 60 102q10 51 4.5 70t-24.5 19q-39 0 -59 -96zM727 163q17 81 64.5 128.5t119.5 47.5q68 0 95 -45t10 -125q-19 -87 -68 -131q-47 -44 -113 -44t-96 42t-12 127zM832 165
q-20 -95 19 -95q38 0 60 102q10 51 4.5 70t-24.5 19q-39 0 -59 -96zM42 -20l624 764h98l-622 -764h-100z" />
    <glyph glyph-name="guilsinglleft" unicode="&#x2039;" horiz-adv-x="333" 
d="M245 449h155l-160 -196l78 -194h-154l-84 196z" />
    <glyph glyph-name="guilsinglright" unicode="&#x203a;" horiz-adv-x="333" 
d="M194 59h-155l160 196l-78 194h154l84 -196z" />
    <glyph glyph-name="Euro" unicode="&#x20ac;" 
d="M472 211h-124q-2 -41 15 -67t55 -26q62 0 88 51h189q-38 -91 -124 -139q-76 -44 -182 -44q-112 0 -168.5 60.5t-61.5 164.5h-114l65 108h56q1 5 2 13t2 13q1 3 3.5 13t3.5 13h-93l65 108h65q48 107 131.5 170.5t198.5 63.5q229 0 222 -187h-187q0 30 -13 42
q-14 13 -50 13q-75 0 -112 -102h231l-66 -108h-197l-6 -26l-5 -26h177z" />
    <glyph glyph-name="trademark" unicode="&#x2122;" horiz-adv-x="950" 
d="M247 361l62 291h-108l14 70h320l-14 -70h-112l-62 -291h-100zM489 361l76 361h155l6 -245l109 245h154l-76 -361h-91l68 304l-149 -304h-89l-15 304l-64 -304h-84z" />
    </font>
</defs>
</svg>
